#TITLE:INSTANT Vampire†StartKitā„¢;
#SUBTITLE:;
#ARTIST:Dr.ReB;
#TITLETRANSLIT:;
#SUBTITLETRANSLIT:;
#ARTISTTRANSLIT:;
#GENRE:;
#CREDIT:;
#BANNER:INSTANT Vampire StartKit.png;
#BACKGROUND:INSTANT Vampire StartKit-bg.png;
#LYRICSPATH:;
#CDTITLE:;
#MUSIC:INSTANT Vampire StartKit.ogg;
#OFFSET:-0.002000;
#SAMPLESTART:84.802002;
#SAMPLELENGTH:25.600000;
#SELECTABLE:YES;
#BPMS:0.000000=150.000000
;
#STOPS:
;
#BGCHANGES:0.000=INSTANT Vampire StartKit.mp4=1.000=0=0=0=StretchNoLoop====,
99999=-nosongbg-=1.000=0=0=0 // don't automatically add -songbackground-
;
#KEYSOUNDS:;
#ATTACKS:;

//---------------dance-single - ----------------
#NOTES:
     dance-single:
     :
     Medium:
     12:
     0.428316,0.507901,0.000000,0.320935,0.000000,355.000000,355.000000,0.000000,38.000000,0.000000,0.000000,0.428316,0.507901,0.000000,0.320935,0.000000,355.000000,355.000000,0.000000,38.000000,0.000000,0.000000:
// measure 0
0000
0000
0000
0000
,  // measure 1
0000
0000
0000
0000
,  // measure 2
0000
0000
0000
0000
,  // measure 3
0000
0000
0000
0000
,  // measure 4
0000
0000
0000
0000
,  // measure 5
0000
0000
0000
0000
,  // measure 6
0000
0000
0000
0000
,  // measure 7
0001
0010
0010
0100
1000
1000
0001
0000
,  // measure 8
1000
0010
0010
0100
0001
0001
1000
0000
,  // measure 9
0001
0010
0100
0000
1000
0010
0100
0000
,  // measure 10
0001
0100
0010
1000
0001
0100
0020
0000
,  // measure 11
2030
3010
2000
3010
2000
3100
0020
0000
,  // measure 12
0032
0013
0002
0013
0100
1000
0010
0100
,  // measure 13
0001
1000
0001
0100
0001
0010
0100
0000
,  // measure 14
2000
0000
3100
0010
0001
0000
0100
0100
,  // measure 15
0002
0103
0002
0103
0002
0013
0200
0000
,  // measure 16
2300
3100
2000
3100
0010
0001
0100
0010
,  // measure 17
1000
0001
1000
0010
1000
0100
0010
0000
,  // measure 18
0002
0023
0230
1300
,  // measure 19
0001
1000
0001
0100
0001
1000
0010
0000
,  // measure 20
1000
0001
1000
0010
1000
0001
0200
0000
,  // measure 21
0301
1000
0001
0010
0001
1000
0100
0000
,  // measure 22
1000
0001
1000
0100
0020
0000
0031
0001
,  // measure 23
1000
0100
0010
0100
1000
0001
1000
0000
,  // measure 24
0001
0100
0010
0100
0001
1000
0002
0000
,  // measure 25
1003
0010
0100
0010
1000
0001
1000
0000
,  // measure 26
0001
0010
0100
0010
0002
0000
1003
1000
,  // measure 27
0002
0000
0000
0000
,  // measure 28
2003
0000
0000
0000
,  // measure 29
0000
0000
0000
0000
,  // measure 30
3020
0000
0000
0000
,  // measure 31
0230
0000
0000
0000
,  // measure 32
0302
0000
0000
0000
,  // measure 33
2003
0000
0000
0000
,  // measure 34
3200
0000
0000
0000
,  // measure 35
0320
0000
0032
0000
,  // measure 36
1003
0000
0010
1000
0010
0100
0000
0001
,  // measure 37
1000
0000
0001
0010
0000
0000
0000
0000
,  // measure 38
0001
0000
0010
0001
0010
0100
0000
1000
,  // measure 39
0001
0000
1000
0010
0000
0000
0000
0000
,  // measure 40
1000
0010
0100
0001
,  // measure 41
1000
0100
0010
0001
,  // measure 42
1000
0001
0100
0010
,  // measure 43
1000
0001
0010
0100
,  // measure 44
1000
0000
0100
0000
0002
0003
0100
0000
,  // measure 45
1000
0000
0010
0000
0002
0003
0010
0000
,  // measure 46
1000
0000
0100
0000
0002
0003
0100
0000
,  // measure 47
1000
0000
0010
0000
0002
0003
0010
0000
,  // measure 48
1000
0000
0010
0100
0000
0100
0001
0000
,  // measure 49
0001
0000
0010
0100
0000
0100
1000
0000
,  // measure 50
1000
0010
0100
0000
0010
0100
0001
0000
,  // measure 51
1000
0100
0010
0001
1000
0001
0100
0010
,  // measure 52
2000
0000
0000
0000
3001
1000
0001
1000
,  // measure 53
0001
0010
0100
0010
0001
0100
0010
0100
,  // measure 54
0001
0010
0100
0010
0001
0100
0010
0000
,  // measure 55
1000
0010
0100
0010
1000
0100
0010
0100
,  // measure 56
1000
0010
0100
0010
1000
0100
0010
0000
,  // measure 57
0001
0010
0100
0010
0001
0100
0010
0100
,  // measure 58
0001
0010
0100
0010
0001
0100
0010
0000
,  // measure 59
1000
0010
0100
0010
1000
0100
0010
0100
,  // measure 60
1000
0010
0100
0010
0002
0000
0013
0100
,  // measure 61
0001
0100
0010
1000
0100
0010
0001
1000
,  // measure 62
0001
0100
0010
1000
0100
0010
0001
0000
,  // measure 63
1000
0100
0010
0001
0100
0010
1000
0001
,  // measure 64
1000
0100
0010
0001
0100
0010
1000
0000
,  // measure 65
0001
0100
0010
1000
0100
0010
0001
0001
,  // measure 66
1000
0100
0010
0001
0100
0010
1000
1000
,  // measure 67
0001
0100
0010
1000
0001
0100
0010
1000
,  // measure 68
0001
0010
0100
1000
0001
1000
0010
0100
,  // measure 69
0001
0000
0100
0000
2000
3000
0100
0000
,  // measure 70
0001
0000
0010
0000
2000
3000
0010
0000
;

//---------------dance-single - ----------------
#NOTES:
     dance-single:
     :
     Hard:
     15:
     0.691338,0.928627,0.000000,0.439174,0.603865,573.000000,573.000000,0.000000,52.000000,0.000000,0.000000,0.691338,0.928627,0.000000,0.439174,0.603865,573.000000,573.000000,0.000000,52.000000,0.000000,0.000000:
// measure 0
0000
0000
0000
0000
,  // measure 1
0000
0000
0000
0000
,  // measure 2
0000
0000
0000
0000
,  // measure 3
0000
0000
0000
0000
,  // measure 4
0000
0000
0000
0000
,  // measure 5
0000
0000
0000
0000
,  // measure 6
0000
0000
0000
0000
,  // measure 7
1000
0100
0010
0001
0100
0010
0100
0100
,  // measure 8
0001
0100
0010
1000
0100
0010
0100
0100
,  // measure 9
1000
0100
1000
0100
0010
0001
0010
0001
1000
0010
1000
0010
0100
0001
0100
0001
,  // measure 10
1000
0010
0100
0001
1000
0010
0100
0001
1000
0010
0100
0001
0020
0000
0000
0000
,  // measure 11
0230
0010
2300
0100
3001
0100
2000
3000
,  // measure 12
0200
0000
0010
0000
0301
0000
0100
0001
0010
0000
0100
0010
1000
0000
0010
0000
,  // measure 13
0100
0000
0010
0100
1000
0000
0001
0000
1000
0000
0010
0000
0001
0010
0100
0001
,  // measure 14
0200
0000
0001
0000
0310
0000
0100
0001
1000
0100
1000
0100
0002
0000
0203
0000
,  // measure 15
0320
0100
0032
0010
1003
0010
0002
0003
,  // measure 16
0020
0000
0100
0000
1030
0000
0010
1000
0100
0000
0010
0100
0001
0000
0100
0000
,  // measure 17
0010
0000
0100
0010
0001
0000
1000
0000
0001
0000
0200
0000
1000
0000
0310
0100
,  // measure 18
0020
0000
0100
0000
2030
0000
0010
0000
3002
0000
0010
0000
1003
0001
0010
0100
,  // measure 19
1000
0000
0100
0010
1000
0000
0010
0100
1000
0000
0010
0000
0100
0000
0100
0000
,  // measure 20
0001
0000
0100
0010
0001
0000
0010
0100
0001
0000
0010
0000
0200
0000
0010
0000
,  // measure 21
1300
0000
0100
0010
1000
0000
0010
0100
1000
0000
0010
0000
0100
0000
0010
0000
,  // measure 22
1000
0000
0010
0100
1000
0000
0100
0000
0020
0000
0100
0000
1030
0000
1000
0000
,  // measure 23
0001
0000
0010
0100
0001
0000
0100
0010
0001
0000
0100
0000
0010
0000
0010
0000
,  // measure 24
1000
0000
0010
0100
1000
0000
0100
0010
1000
0000
0100
0000
0020
0000
0100
0000
,  // measure 25
0031
0000
0010
0100
0001
0000
0100
0010
0001
0000
0100
0000
0010
0000
0100
0000
,  // measure 26
0001
0000
0100
0010
0001
0000
0010
0000
0200
0000
0010
0000
0301
0000
0001
0000
,  // measure 27
2000
0000
0000
0000
0000
0000
0000
0000
0000
0000
0000
0000
3001
1000
0001
1000
,  // measure 28
0001
0000
0100
0001
0100
0020
0000
1030
,  // measure 29
0010
0000
1000
0200
0000
0000
0300
0000
,  // measure 30
1000
0000
0100
1000
0100
0020
0000
0031
,  // measure 31
0010
0000
0001
0200
0000
0000
0300
0000
,  // measure 32
0001
0000
0100
0001
0100
0010
1000
0001
,  // measure 33
1000
0000
0001
1000
0000
0100
0010
0100
,  // measure 34
1000
0000
0100
1000
0100
0010
0001
1000
,  // measure 35
0001
0000
1000
0001
0000
0100
0000
0010
,  // measure 36
1000
0000
0010
1000
0010
0200
0000
0301
,  // measure 37
0100
0000
0001
0020
0000
0000
0030
0000
,  // measure 38
0001
0000
0010
0001
0010
0200
0000
1300
,  // measure 39
0100
0000
1000
0020
0000
0000
0030
0000
,  // measure 40
1000
0000
0010
1000
0010
0100
0001
1000
,  // measure 41
0001
0000
1000
0001
0000
0010
0100
0010
,  // measure 42
0001
0000
0010
0001
0010
0100
1000
0001
,  // measure 43
1000
0000
0001
1000
0000
0010
0000
0100
,  // measure 44
0001
0100
1000
0000
0002
0023
1030
0001
,  // measure 45
1000
0000
0100
0000
0001
0000
0000
0000
2000
0000
3020
0000
0031
1000
0001
1000
,  // measure 46
0001
0100
1000
0000
0002
0023
1030
0001
,  // measure 47
1000
0000
0100
0000
0001
0000
0000
0000
2000
0000
3020
0000
0031
1000
0001
1000
,  // measure 48
0001
0100
0001
0100
0010
1000
0001
0000
,  // measure 49
1000
0100
1000
0100
0010
0001
1000
0000
,  // measure 50
0001
0100
0001
0100
0010
1000
0001
1000
,  // measure 51
0001
0010
0100
1000
0001
0010
0100
1000
0001
0100
0010
1000
0001
0100
0010
1000
,  // measure 52
0001
0000
0100
0010
0000
0100
0001
0000
0020
0000
0031
0010
0100
1000
0100
1000
,  // measure 53
0001
0000
0010
0001
0000
1000
0001
0000
1000
0000
0010
1000
0000
0001
0100
0010
,  // measure 54
1000
0000
0010
1000
0000
0001
1000
0000
0001
0000
0010
0001
0000
1000
0100
0010
,  // measure 55
0100
0000
0010
0001
0000
1000
0001
0000
0100
0000
0010
0100
0000
0010
1000
0010
,  // measure 56
0100
0000
0010
0100
0000
0001
1000
0000
0100
0000
0010
0001
1000
0001
0100
0010
,  // measure 57
1000
0000
0010
1000
0000
0001
1000
0000
0001
0000
0010
0001
0000
1000
0100
0010
,  // measure 58
0001
0000
0010
0001
0000
1000
0001
0000
1000
0000
0010
1000
0000
0001
0100
0010
,  // measure 59
0100
0000
0010
1000
0000
0001
1000
0000
0100
0000
0010
0100
0000
0010
0001
0010
,  // measure 60
0100
0000
0010
0100
0000
1000
0100
0000
0002
0000
0103
1000
0001
1000
0010
0100
,  // measure 61
0001
0000
0200
0001
0000
0310
1000
0001
1000
0000
0200
1000
0000
0310
0001
1000
,  // measure 62
0001
0000
0200
0001
0000
0310
1000
0001
1000
0000
0200
1000
0000
0310
0001
0010
,  // measure 63
0100
0000
2000
0100
0000
3001
1000
0001
0100
0000
0002
0100
0000
1003
0001
1000
,  // measure 64
0010
0000
2000
0010
0000
3001
1000
0001
0010
0000
0100
1000
0001
1000
0010
0100
,  // measure 65
0001
0000
0200
0001
0000
0310
1000
0001
1000
0000
0010
1000
0100
0000
0100
0000
,  // measure 66
1000
0000
0200
1000
0000
0310
0001
1000
0001
0000
0010
0001
0100
0001
0100
0001
,  // measure 67
1000
1000
0010
0010
0100
0100
0001
0001
,  // measure 68
1000
0100
0010
0001
1000
0100
0010
0001
1000
0010
0100
0001
1000
0000
0001
0000
,  // measure 69
1000
0010
0001
0000
2000
3200
0301
1000
,  // measure 70
0001
0000
0010
0000
1000
0000
0000
0000
0002
0000
0203
0000
1300
0001
1000
0001
;
