#VERSION:0.83;
#TITLE:I've Seen Footage;
#SUBTITLE:;
#ARTIST:Death Grips;
#TITLETRANSLIT:;
#SUBTITLETRANSLIT:;
#ARTISTTRANSLIT:;
#GENRE:;
#ORIGIN:;
#CREDIT:Evergreen;
#BANNER:I've Seen Footage.png;
#BACKGROUND:I've Seen Footage-bg.png;
#PREVIEWVID:;
#JACKET:I've Seen Footage-jacket.png;
#CDIMAGE:;
#DISCIMAGE:;
#LYRICSPATH:;
#CDTITLE:;
#MUSIC:I've Seen Footage.ogg;
#OFFSET:-0.023000;
#SAMPLESTART:46.181587;
#SAMPLELENGTH:12.000000;
#SELECTABLE:YES;
#BPMS:0.000=130.012;
#STOPS:;
#DELAYS:;
#WARPS:;
#TIMESIGNATURES:0.000=4=4;
#TICKCOUNTS:0.000=4;
#COMBOS:0.000=1;
#SPEEDS:0.000=1.000=0.000=0;
#SCROLLS:0.000=1.000;
#FAKES:;
#LABELS:0.000=Song Start;
#BGCHANGES:;
#KEYSOUNDS:;
#ATTACKS:
;

//---------------dance-single - JA rolls-----------------
#NOTEDATA:;
#CHARTNAME:JA rolls-;
#STEPSTYPE:dance-single;
#DESCRIPTION:JA rolls-;
#CHARTSTYLE:;
#DIFFICULTY:Medium;
#METER:10;
#RADARVALUES:0.445168,0.451835,0.000000,0.248584,0.008878,351.000000,351.000000,0.000000,28.000000,0.000000,0.000000,6.000000,0.000000,0.000000,0.445168,0.451835,0.000000,0.248584,0.008878,351.000000,351.000000,0.000000,28.000000,0.000000,0.000000,6.000000,0.000000,0.000000;
#CREDIT:evergreen;
#NOTES:
// measure 0
0000
0000
0000
0000
,  // measure 1
0000
0000
0000
0000
,  // measure 2
0000
0000
0000
0000
,  // measure 3
0000
0000
0000
0000
0000
0000
1000
1000
,  // measure 4
0001
0010
0000
0001
0010
0100
0000
0010
,  // measure 5
0100
1000
0000
0010
1000
0001
0001
0000
,  // measure 6
1000
0010
0000
1000
0010
0100
0000
0010
,  // measure 7
0100
0001
0000
1000
0100
0010
0001
1000
,  // measure 8
0001
0010
0400
0000
0000
0000
0000
0000
,  // measure 9
1300
0000
0010
1000
0010
0000
0100
0001
,  // measure 10
1000
0010
0400
0000
0000
0000
0301
0100
,  // measure 11
0001
0010
0400
0000
0000
0000
1300
0010
,  // measure 12
0100
0001
0040
0000
0000
0000
0000
0000
,  // measure 13
0130
0000
1000
0001
1000
0000
0001
1000
,  // measure 14
0001
0100
0040
0000
0000
0000
0130
0001
,  // measure 15
1000
0100
0040
0000
0000
0000
0031
1000
,  // measure 16
0001
0100
0010
0000
1000
0100
0010
0000
,  // measure 17
0001
0010
0001
0000
1000
0010
0100
0000
,  // measure 18
0001
0010
0100
0010
0001
0000
1000
0000
,  // measure 19
0010
1000
0100
1000
0010
0100
0001
0000
,  // measure 20
1000
0100
0010
0010
0001
0000
1000
0000
,  // measure 21
0001
0100
0010
0010
1000
0001
1000
0000
,  // measure 22
0001
0100
0001
0010
0100
1000
0001
0000
,  // measure 23
1000
0100
1000
0000
0001
0010
0010
0000
,  // measure 24
0001
0000
0100
0000
0010
0000
0100
0000
0001
0000
0000
1000
0000
0000
0000
0000
,  // measure 25
1000
0000
0100
0000
0010
0000
0100
0000
1000
0000
0000
0001
0000
0000
0000
0000
,  // measure 26
0001
0100
0010
1000
0100
0000
1000
0010
,  // measure 27
0100
0001
1000
0100
0010
0001
0000
0000
,  // measure 28
1000
0001
0010
0010
0100
1000
0010
0010
,  // measure 29
0100
0001
1000
0100
0010
0010
0001
0001
,  // measure 30
1000
0010
1000
0010
0100
0001
0100
0001
,  // measure 31
0010
0001
0010
0001
2000
0000
3002
0000
,  // measure 32
1003
0100
0010
0001
1000
1000
0001
0010
,  // measure 33
0100
0100
1000
0010
2000
0000
3002
0000
,  // measure 34
1003
0010
0100
0001
0010
0010
0100
1000
,  // measure 35
0001
0001
1000
0010
2000
0000
3002
0000
,  // measure 36
1003
0010
0100
0001
0010
0010
0100
1000
,  // measure 37
0100
0100
1000
0010
2000
0000
3002
0000
,  // measure 38
1003
0010
0100
0001
1000
1000
0100
0010
,  // measure 39
0001
0001
1000
0001
2000
0000
3002
0000
,  // measure 40
1003
0100
0010
0001
1000
0100
0010
0001
,  // measure 41
0010
0001
0000
1000
0010
1000
0000
0001
,  // measure 42
0100
0010
1000
0001
0100
0010
1000
0001
,  // measure 43
0100
0001
0000
1000
0100
1000
0001
0000
,  // measure 44
2000
0000
0000
3200
0000
0000
0320
0000
,  // measure 45
0000
0200
0030
0000
2300
0000
3001
0000
,  // measure 46
0002
0000
0000
0203
0000
0000
0320
0000
,  // measure 47
0000
0200
0030
0000
0302
0000
1003
0001
,  // measure 48
1000
0000
0100
0010
0001
0000
0100
0010
,  // measure 49
1000
0000
0001
0100
0001
0000
1000
0100
,  // measure 50
1000
0000
0001
0100
0010
1000
0100
0010
,  // measure 51
0001
1000
0001
1000
0002
0000
2003
0000
,  // measure 52
3001
0010
0100
0100
0010
0100
1000
1000
,  // measure 53
0010
0100
0001
0001
2000
0000
3002
0000
,  // measure 54
1003
0010
0100
0100
0010
0100
0001
0001
,  // measure 55
0010
0100
1000
1000
0002
0000
2003
0000
,  // measure 56
3001
0100
0001
0001
0010
0100
1000
1000
,  // measure 57
0010
0100
0001
0001
2000
0000
3002
0000
,  // measure 58
1003
0100
1000
1000
0001
0100
0001
0001
,  // measure 59
1000
0010
1000
0100
0010
0001
0010
0010
;

//---------------dance-single - JA+ XO----------------
#NOTEDATA:;
#CHARTNAME:JA+ XO;
#STEPSTYPE:dance-single;
#DESCRIPTION:JA+ XO;
#CHARTSTYLE:;
#DIFFICULTY:Hard;
#METER:14;
#RADARVALUES:0.612582,0.797355,0.008878,0.168682,0.324047,483.000000,482.000000,1.000000,19.000000,0.000000,0.000000,0.000000,0.000000,0.000000,0.612582,0.797355,0.008878,0.168682,0.324047,483.000000,482.000000,1.000000,19.000000,0.000000,0.000000,0.000000,0.000000,0.000000;
#CREDIT:evergreen;
#NOTES:
// measure 0
0000
0000
0000
0000
,  // measure 1
0000
0000
0000
0000
,  // measure 2
0000
0000
0000
0000
,  // measure 3
0000
0000
0000
0000
0000
0000
0001
0001
,  // measure 4
1000
0000
0100
0000
0010
0000
0100
0000
1000
0000
0001
0000
0100
0000
0010
0100
,  // measure 5
0001
1000
0010
1000
0100
0010
0001
0000
,  // measure 6
1000
0000
0010
0000
0100
0000
0010
0000
1000
0000
0001
0000
0010
0000
0100
1000
,  // measure 7
0001
0100
0010
0100
0001
1000
0010
0010
,  // measure 8
1000
0100
0010
0010
0010
0010
0010
0010
,  // measure 9
0001
0000
0000
0000
1000
0000
0010
0000
1000
0000
0000
0000
0001
0010
0001
0000
,  // measure 10
1000
0010
0100
0100
0100
0100
0010
0100
,  // measure 11
0001
1000
0100
0100
0100
0100
0010
0100
,  // measure 12
1000
0001
0100
0100
0100
0100
0100
0100
,  // measure 13
0001
0000
0000
0000
0010
0000
0001
0000
1000
0000
0000
0000
0010
1000
0001
0000
,  // measure 14
1000
0100
0010
0010
0010
0010
0001
1000
,  // measure 15
0010
0100
0010
0010
0010
0010
1000
0001
,  // measure 16
1000
0100
1000
0000
0001
0000
0000
0000
0100
0000
0001
0000
1000
0000
0000
0000
,  // measure 17
0001
0000
0010
0000
0100
0000
0000
0000
1000
0000
0010
0100
0001
0000
0000
0000
,  // measure 18
1000
0100
0010
1000
0010
0100
1000
0001
,  // measure 19
0100
0000
0001
0000
1000
0010
1000
0000
0001
0000
0010
0001
0000
0000
1000
0100
,  // measure 20
1000
0001
0100
0010
0100
0001
0010
0100
,  // measure 21
1000
0000
0010
0000
0100
0000
1000
0000
0100
0000
0001
1000
0000
0000
1000
0001
,  // measure 22
1000
0000
0100
0000
0010
0000
0100
0000
1000
0000
0001
0000
0100
0000
0001
1000
,  // measure 23
0100
0100
0010
0000
0001
1000
1001
0000
,  // measure 24
0001
0000
0010
0000
0100
0000
0010
0000
0001
0000
0000
1000
0000
0000
0001
0000
,  // measure 25
1000
0000
0010
0000
0100
0000
0010
0000
1000
0000
0000
0001
0000
0000
0010
0000
,  // measure 26
0100
0001
0100
0010
0001
1000
0010
0100
,  // measure 27
1000
0100
0010
1000
0001
1000
0000
0000
,  // measure 28
0001
1000
0100
0010
0100
1000
0010
0100
,  // measure 29
0001
0000
0010
0000
0100
0000
0001
0000
0100
0000
1000
0000
0010
0000
0010
1000
,  // measure 30
0001
0000
0010
0000
0001
0010
0001
0000
1000
0000
0010
0000
1000
0010
1000
0000
,  // measure 31
0001
0000
0100
0000
0001
0100
0001
0000
2000
0000
0000
0000
3200
0000
0000
0000
,  // measure 32
0310
0000
0001
0000
1000
0000
1000
0000
0010
0000
1000
0000
0001
0100
0001
0000
,  // measure 33
0010
0100
1000
1000
0020
0000
0230
0000
,  // measure 34
0310
0000
0100
0000
0001
0000
0001
0000
0010
0000
0100
0000
1000
0100
1000
0000
,  // measure 35
0010
0100
0001
0001
0020
0000
0032
0000
,  // measure 36
0013
0000
0001
0000
0100
0000
0100
0000
0010
0000
1000
0000
0100
1000
0100
0000
,  // measure 37
0010
0001
0100
0100
0020
0000
2030
0000
,  // measure 38
3100
0000
1000
0000
0010
0000
0010
0000
0100
0000
0001
0000
0010
0001
0010
0000
,  // measure 39
0100
0000
1000
0000
0010
0000
0010
0000
0200
0000
0000
0300
0002
0003
2000
3000
,  // measure 40
0001
0010
0100
1000
0001
0010
0001
1000
,  // measure 41
0100
0100
0000
1000
0010
0010
0000
0100
,  // measure 42
0001
0100
0001
0100
0001
1000
0001
1000
0100
1000
0100
1000
0100
0000
0010
0000
,  // measure 43
0001
0010
0001
0010
0001
1000
0001
1000
0010
1000
0010
0000
1000
0001
1000
0001
,  // measure 44
1000
0100
1000
0000
0001
0000
0100
0000
0001
0100
0001
0000
1000
0000
0010
0000
,  // measure 45
1000
0010
1000
0000
0001
0000
0010
0000
0001
0010
0001
0000
1000
0000
0010
0000
,  // measure 46
0100
0001
0100
0000
0001
0000
0010
0000
0100
1000
0100
0000
1000
0000
0100
0000
,  // measure 47
0010
0001
0010
0000
0001
0000
0100
0000
0010
1000
0010
0000
1000
0001
1000
0001
,  // measure 48
1000
0100
1000
0000
0001
1000
0001
1000
0001
0100
0001
0000
1000
0010
1000
0010
,  // measure 49
0100
0001
0100
0000
0001
0010
0001
0010
0100
1000
0100
0000
1000
0010
1000
0010
,  // measure 50
0100
0001
1000
0000
0001
0010
0001
0010
0100
1000
0001
0000
1000
0100
0010
0001
,  // measure 51
0010
0100
1000
0000
0001
0100
0010
1000
0002
0000
0000
0000
2003
0000
0000
0000
,  // measure 52
3001
0000
0100
0000
0010
0000
0010
0000
0100
0000
0001
0000
1000
0000
1000
0001
,  // measure 53
0010
0100
0001
0100
2000
0000
3002
0000
,  // measure 54
1003
0000
0100
0000
0010
0000
0010
0000
0100
0000
1000
0000
0001
0000
0001
1000
,  // measure 55
0010
0100
1000
0100
0002
0000
2003
0000
,  // measure 56
3001
0000
0010
0000
0100
0000
0100
0000
0010
0000
0001
0000
1000
0000
1000
0001
,  // measure 57
0100
0010
0001
0010
2000
0000
3002
0000
,  // measure 58
1003
0000
0010
0000
0100
0000
0100
0000
0010
0000
1000
0000
0001
0000
0001
1000
,  // measure 59
0100
0010
1000
0010
0001
1000
0010
0010
;

//---------------dance-single - SS+ FS----------------
#NOTEDATA:;
#CHARTNAME:SS+ FS;
#STEPSTYPE:dance-single;
#DESCRIPTION:SS+ FS;
#CHARTSTYLE:;
#DIFFICULTY:Challenge;
#METER:13;
#RADARVALUES:0.601167,0.771581,0.008878,0.399510,0.266340,474.000000,473.000000,1.000000,45.000000,59.000000,0.000000,0.000000,0.000000,0.000000,0.601167,0.771581,0.008878,0.399510,0.266340,474.000000,473.000000,1.000000,45.000000,59.000000,0.000000,0.000000,0.000000,0.000000;
#CREDIT:evergreen;
#NOTES:
// measure 0
0000
0000
0000
0000
,  // measure 1
0000
0000
0000
0000
,  // measure 2
0000
0000
0000
0000
,  // measure 3
0000
0000
0000
0000
0000
0000
0001
0001
,  // measure 4
1000
0000
0001
0000
0010
0000
0001
0000
1000
0000
0001
0000
0010
0000
0100
1000
,  // measure 5
0001
1000
0010
0100
0010
1000
0001
0000
,  // measure 6
1000
0000
0001
0000
0010
0000
0001
0000
1000
0000
0010
0000
0100
0000
0001
1000
,  // measure 7
0100
0010
0001
0100
0001
1000
0010
M010
,  // measure 8
0001
0100
100M
100M
100M
100M
100M
100M
,  // measure 9
0010
0000
0000
0000
0100
0000
0001
0000
0010
0000
0000
0000
0100
1000
0010
0000
,  // measure 10
1000
0100
M001
M001
M001
M001
0010
0100
,  // measure 11
1000
0100
M001
M001
M001
M001
0010
0100
,  // measure 12
1000
0010
M001
M001
M001
M001
M001
M001
,  // measure 13
0100
0000
0010
0000
1000
0000
0001
0000
1000
0000
0010
0000
0100
0010
1000
0000
,  // measure 14
0001
0010
100M
100M
100M
100M
0100
0010
,  // measure 15
0001
0000
0010
0000
100M
0000
100M
0000
100M
0000
100M
0000
0020
0030
0200
0300
,  // measure 16
0002
0000
0103
0020
0000
0130
0001
0010
,  // measure 17
0100
0000
0001
0000
0100
0000
0010
0000
0001
0000
0100
0000
0010
0000
1000
0001
,  // measure 18
2000
0000
3100
0020
0000
0130
1000
0010
,  // measure 19
0100
1000
0100
0010
1000
0001
0010
0001
,  // measure 20
1000
0100
M100
0001
0100
0010
0100
0001
,  // measure 21
0010
0000
0001
0000
1000
0000
0100
0000
M100
0000
0001
1000
0010
0000
M010
0001
,  // measure 22
1000
0000
0010
0000
0100
0000
0010
0000
1000
0000
0100
0000
M100
0000
0001
0010
,  // measure 23
0001
0001
1000
0000
0010
1000
1010
0000
,  // measure 24
2000
0000
3100
0020
0000
0130
1000
0010
,  // measure 25
0100
0000
1000
0000
0100
0000
0010
0000
1000
0000
0100
0000
0010
0000
0001
1000
,  // measure 26
0002
0000
0103
0020
0000
0130
0001
0010
,  // measure 27
0100
0001
0100
0010
0001
1000
0000
0000
,  // measure 28
0001
0000
0100
0000
0010
0000
0M10
0000
0001
0000
1000
0000
0010
0000
M010
0001
,  // measure 29
1000
0000
0001
0000
0010
0000
001M
0000
0100
0000
0001
0000
0010
0000
001M
1000
,  // measure 30
0001
1000
0010
0010
1000
0001
0010
0010
,  // measure 31
0001
1000
0100
0100
2000
0000
3002
0000
,  // measure 32
1003
0000
0100
0000
0001
0000
0M01
0000
1000
0000
0100
0000
0010
0000
0M10
1000
,  // measure 33
0001
0100
0010
0M10
0002
0000
2003
0000
,  // measure 34
3001
0000
0100
0000
1000
0000
1M00
0000
0001
0000
0100
0000
0010
0000
0M10
0001
,  // measure 35
1000
0100
0010
0M10
2000
0000
3002
0000
,  // measure 36
1003
0000
0010
0000
0001
0000
00M1
0000
1000
0000
0010
0000
0100
0000
01M0
1000
,  // measure 37
0001
0010
0100
01M0
0002
0000
2003
0000
,  // measure 38
3001
0000
0010
0000
1000
0000
10M0
0000
0001
0000
0010
0000
0100
0000
01M0
0001
,  // measure 39
1000
0010
0100
01M0
2000
0000
3002
0203
,  // measure 40
0301
1000
0001
0100
0001
0010
0001
1000
,  // measure 41
0100
1000
0000
0010
1000
0001
1000
0100
,  // measure 42
0010
0001
0100
0001
1000
0010
1000
0100
,  // measure 43
1000
0010
1000
0010
1000
0000
0001
0000
0010
0001
0010
0000
0001
1000
0001
1000
,  // measure 44
0100
0100
0001
0000
2000
0000
3002
0000
0103
0100
1000
0000
0002
0000
2003
0000
,  // measure 45
3100
0100
0001
0000
2000
0000
3002
0000
0103
0100
1000
0000
0002
0000
2003
0000
,  // measure 46
3010
0010
0001
0000
2000
0000
3002
0000
0013
0010
1000
0000
0002
0000
2003
0000
,  // measure 47
3010
0010
0001
0000
2000
0000
3002
0000
0013
0010
1000
0000
0001
1000
0001
1000
,  // measure 48
0100
0100
0001
0000
1000
0001
1000
0001
0100
0100
1000
0000
0001
1000
0001
1000
,  // measure 49
0100
0100
0001
0000
1000
0001
1000
0001
0100
0100
1000
0000
0001
1000
0001
1000
,  // measure 50
0010
0010
0001
0000
1000
0001
1000
0001
0010
0010
1000
0000
0001
1000
0001
1000
,  // measure 51
0010
0010
0001
0000
1000
0001
1000
0001
2000
0000
0000
0000
3002
0000
0000
0000
,  // measure 52
1003
0000
0100
0000
0001
0000
0M01
0000
1000
0100
1000
0000
0001
0000
0100
0000
,  // measure 53
0010
0M10
0001
1000
0002
0000
2003
0000
,  // measure 54
3001
0000
0100
0000
1000
0000
1M00
0000
0001
0100
0001
0000
1000
0000
0100
0000
,  // measure 55
0010
0M10
1000
0001
2000
0000
3002
0000
,  // measure 56
1003
0000
0010
0000
0001
0000
00M1
0000
1000
0010
1000
0000
0001
0000
0010
0000
,  // measure 57
1000
10M0
0001
0010
0002
0000
2003
0000
,  // measure 58
3001
0000
0100
0000
1000
0000
1M00
0000
0001
0100
0001
0000
1000
0000
0100
0000
,  // measure 59
0001
0000
0M01
0000
1000
0000
0001
0000
1000
0001
1000
0000
002M
0030
M020
0030
;
