#TITLE:I Disagree;
#SUBTITLE:;
#ARTIST:Poppy;
#TITLETRANSLIT:;
#SUBTITLETRANSLIT:;
#ARTISTTRANSLIT:;
#GENRE:;
#CREDIT:NOWHERE Dance Club;
#MUSIC:I Disagree.ogg;
#BANNER:I Disagree.jpg;
#BACKGROUND:I Disagree-bg.jpg;
#CDTITLE:;
#SAMPLESTART:21.966;
#SAMPLELENGTH:21.338;
#SELECTABLE:YES;
#OFFSET:-0.629;
#BPMS:0.000=89.982
,16.000=179.963
,192.000=89.982
,208.000=22.496
,209.000=179.963
;
#STOPS:;
#DISPLAYBPM:23.000:180.000;
#BGCHANGES:#BGCHANGES:-0.886=I Disagree.avi=1.000=1=0=0=StretchNoLoop==CrossFade==,
99999=-nosongbg-=1.000=0=0=0 //;
#FGCHANGES:;
#ATTACKS: TIME=79.97:LEN=2.83:MODS=*50 90% Hidden: TIME=80.64:LEN=2.80:MODS=*50 90% Dark:
;

//--------------- dance-single - NOWHERE Dance Club ----------------
#NOTES:
     dance-single:
     NOWHERE Dance Club:
     Hard:
     9:
     0,0,0,0,0:
0000
0000
0000
0000
,
0000
0000
0000
0000
,
0000
0000
0000
0000
,
1000
0000
0000
0001
1000
0000
0000
0001
1000
0000
0000
0001
0100
0000
0000
0000
,
0120
0000
0000
0000
,
1030
0000
0001
0000
,
0021
0000
0000
0000
,
0130
0000
1000
0000
,
2001
0000
3010
1000
,
1020
0000
0130
0010
,
0110
0000
0000
0010
0100
0000
0001
0000
,
1002
0000
2003
0000
,
3001
0100
0110
0100
,
0001
1000
1001
0001
,
0010
0100
0110
0010
,
0001
1000
0020
0100
,
1030
0001
1001
0001
,
0010
0100
0110
0010
,
0001
0000
0000
1000
0001
0000
0000
1000
,
0001
0100
0010
1000
,
2100
0000
3001
0000
,
0100
0010
1010
1000
,
0001
0000
0000
0001
0010
0000
0100
0000
,
1000
0001
1002
0100
,
1003
0100
0110
0010
,
0100
1000
1001
0001
,
0100
0000
0000
0010
0100
0000
0000
0010
,
0200
0000
0001
0301
,
1000
0100
1000
0001
,
1000
0100
2200
3300
,
0100
0010
0001
0010
,
1000
0010
0022
0033
,
0001
0000
0100
0010
0100
0000
0010
0000
,
1000
0010
1000
0000
2002
0000
3003
0000
,
1100
0000
0100
1000
0100
0000
0020
0000
,
0030
0000
0001
0010
0001
0000
0011
0000
,
0210
0000
0000
0310
,
1001
0000
0001
1000
0001
0000
0100
0000
,
0010
0000
0100
0010
0100
0000
0010
1000
,
0010
1000
0001
0000
1001
0000
1000
0000
,
1020
0000
0031
0010
,
1000
0000
0001
1000
0001
0000
0010
0000
,
0200
0000
0000
0000
0310
0000
0100
0010
,
0001
1000
0001
1000
,
1001
0000
0000
0110
0000
0000
1001
0000
,
0000
0000
0001
0100
0000
0001
1000
0000
,
1001
0000
0000
0110
0000
0000
1001
0000
,
0000
1000
0100
1000
2000
0000
0001
0000
,
30M1
0001
0100
0100
0010
0000
1000
0000
,
0001
0001
0010
0010
0100
0000
1000
0000
,
0001
0001
0100
0100
0010
0000
1000
0000
,
0001
0001
0010
0010
0100
0000
2000
0000
,
0000
3001
0100
0001
,
1000
0001
0100
0202
,
0303
0100
0010
1000
,
0010
0001
0010
2020
,
3030
0000
1000
0000
0100
0010
0100
0000
,
0010
0000
0001
0010
0001
0000
2002
0000
,
3003
0000
0101
0000
0100
0001
0100
0000
,
0020
0000
0030
0000
1000
0010
1000
0000
,
1010
0210
0000
0000
,
0310
0000
1001
0000
1000
0001
1000
0000
,
0100
0000
0010
0000
0100
0010
0100
0000
,
0010
0001
0010
0001
1000
0000
1001
0000
,
0001
0021
0000
1030
,
0010
0000
0001
0000
1000
0001
1000
0000
,
0010
0200
0000
0310
,
0100
0010
1000
0000
0001
0000
1000
0000
,
0100
1200
0000
0000
,
0000
0000
0000
0000
,
0000
0000
1300
0000
0000
1000
0000
0000
,
0100
0000
0000
0000
0100
0010
0000
0100
,
0010
0000
0011
0000
0000
0001
0000
0000
,
1000
0000
0000
0000
1000
0001
0000
1000
,
0001
1001
0000
0000
0000
0001
0000
0000
,
0101
0000
0000
0000
0001
1000
0000
0001
,
1000
0000
1100
0000
0000
1100
0000
0000
,
1001
0000
0000
0001
0100
0010
1000
0010
,
0001
0010
0000
0000
0000
0000
0000
0000
;
