#TITLE:I Am Gothic;
#SUBTITLE:;
#ARTIST:Spray;
#TITLETRANSLIT:;
#SUBTITLETRANSLIT:;
#ARTISTTRANSLIT:;
#GENRE:;
#CREDIT:Braeden;
#BANNER:ban.png;
#BACKGROUND:bg.png;
#LYRICSPATH:;
#CDTITLE:;
#MUSIC:I Am Gothic.ogg;
#OFFSET:-0.012000;
#SAMPLESTART:44.138649;
#SAMPLELENGTH:12.000000;
#SELECTABLE:YES;
#DISPLAYBPM:136.000000;
#BPMS:0.000000=136.000000
;
#STOPS:
;
#BGCHANGES:;
#KEYSOUNDS:;
#ATTACKS:;

//---------------dance-single - ----------------
#NOTES:
     dance-single:
     :
     Beginner:
     2:
     0.118141,0.163451,0.077834,0.029188,0.000000,85.000000,77.000000,8.000000,3.000000,0.000000,0.000000,0.118141,0.163451,0.077834,0.029188,0.000000,85.000000,77.000000,8.000000,3.000000,0.000000,0.000000:
0000
0000
0000
0000
,
0000
0000
0000
0000
,
0000
0000
0000
0000
,
1000
0000
0001
0000
,
2000
0000
0000
3000
,
0001
0000
0001
0000
,
0100
0000
0000
0000
,
1001
0000
0000
0000
,
1000
0000
0000
0000
,
0001
0000
0000
0000
,
0100
0000
0000
0000
,
0001
0000
0000
0000
,
1000
0000
0000
0000
,
0010
0000
1000
0000
,
0100
0000
0010
0000
,
1001
0000
0001
0000
,
1000
0000
0010
0000
,
0000
0000
1000
0000
,
0100
0000
1000
0000
,
0000
0000
0001
0000
,
0100
0000
0001
0000
,
1000
0000
0010
0000
,
0100
0000
0001
0000
,
1001
0000
1000
0000
,
0001
0000
0010
0000
,
0100
0000
1000
0000
,
0020
0000
0030
0000
,
1001
0000
0001
0000
,
1000
0000
0010
0000
,
1000
0000
0001
0000
,
0010
0000
0001
0000
,
1000
0000
0000
0000
,
1001
0000
0001
0000
,
0000
0000
0010
0000
,
0000
0000
0100
0000
,
0000
0000
1000
0000
,
0000
0000
0001
0000
,
0000
0000
0100
0000
,
0001
0000
1000
0000
,
0100
0000
1000
0000
,
1001
0000
0001
0000
,
0000
0000
1000
0000
,
0000
0000
0010
0000
,
0000
0000
1000
0000
,
1001
0000
0001
0000
,
0000
0000
1000
0000
,
0000
0000
0010
0000
,
0000
0000
0100
0000
,
0002
0000
0000
0000
,
0003
0000
0000
0000
,
1000
0000
0000
0000
,
0010
0000
0000
0000
,
1001
0000
0000
0000
,
0001
0000
0000
0000
,
1000
0000
0010
0000
,
1000
0000
0001
0000
,
1000
0000
0000
0000
;

//---------------dance-single - ----------------
#NOTES:
     dance-single:
     :
     Easy:
     6:
     0.287707,0.272419,0.077834,0.136209,0.000000,207.000000,199.000000,8.000000,14.000000,0.000000,0.000000,0.287707,0.272419,0.077834,0.136209,0.000000,207.000000,199.000000,8.000000,14.000000,0.000000,0.000000:
0000
0000
0000
0000
,
0000
0000
0000
0000
,
0000
0000
0000
0000
,
0001
1000
0010
0100
,
0002
1000
1000
1003
,
0001
0000
0100
0000
,
0010
0100
0100
0100
,
0001
1000
0001
0100
,
0010
1000
0100
0001
,
0100
1000
0010
0100
,
0001
0100
0010
0001
,
0010
1000
0001
0100
,
0001
1000
0100
0001
,
0100
1000
0010
1000
,
0002
0010
0010
0013
,
1001
1000
0001
1000
,
0010
0000
1000
0000
0001
0000
0000
0100
,
0000
0010
1000
0010
,
1000
0000
0001
0000
0100
0000
0000
0001
,
0000
1000
0100
1000
,
0001
0000
0100
0000
0010
0000
0000
1000
,
0001
0010
0001
0010
,
0200
0010
0010
0310
,
1001
0001
1000
0010
,
2000
0000
3001
0100
,
0010
1000
0100
0010
,
0002
0000
0000
0003
,
1001
1000
0010
0100
,
0001
1000
0001
0010
,
0100
1000
0100
0010
,
0002
0100
0100
0103
,
0010
0100
0002
0003
,
1001
0000
0000
0000
1000
0001
0000
2000
,
0000
3000
0000
0000
0001
0100
0000
0020
,
0000
0030
0000
0000
1000
0010
0000
1000
,
0000
0020
0000
0030
1000
0001
0000
2000
,
0000
3000
0000
0000
0001
0000
0100
0010
,
0000
0100
0000
0000
0001
1000
0000
0001
,
0100
0010
1000
0001
,
2000
0010
0010
3010
,
1000
0100
0001
0100
,
1000
0010
0100
0001
,
0100
1000
0100
0001
,
0100
0010
1000
0100
,
1001
0001
0100
0001
,
0010
0100
1000
0001
,
0100
0001
1000
0100
,
0020
0100
0100
0130
,
2001
0000
0000
3010
,
1000
0001
0100
0001
,
1000
0100
0010
0001
,
0010
0001
1000
0010
,
1001
1000
0010
0100
,
0001
0010
0100
1000
,
0001
0010
0100
1000
,
0001
0100
0100
0100
,
1001
0000
0000
0000
;

//---------------dance-single - ----------------
#NOTES:
     dance-single:
     :
     Medium:
     9:
     0.425307,0.437816,0.262689,0.214043,0.000000,306.000000,279.000000,27.000000,22.000000,0.000000,0.000000,0.425307,0.437816,0.262689,0.214043,0.000000,306.000000,279.000000,27.000000,22.000000,0.000000,0.000000:
0000
0000
0000
0000
,
0000
0000
0000
0000
,
0000
0000
0000
0000
,
1000
0001
1000
0010
,
1000
1001
1001
0110
,
0100
0010
0100
0000
0010
0100
0010
0000
,
1000
1001
1001
1001
,
0001
0010
0100
0000
1000
0010
1000
0001
,
1000
0100
1000
0000
0001
0010
0100
0010
,
0001
0100
0001
0000
1000
0010
1000
0001
,
1000
0100
1000
0000
0001
0100
0010
1000
,
0001
0010
0001
0000
1000
0100
0010
0001
,
0010
0100
1000
0000
0001
0100
0001
0000
,
0100
0010
1000
0001
,
1000
1001
1001
0110
,
0200
0000
0301
1000
0001
0000
1000
0100
,
1000
0000
0001
0010
0100
1000
0000
0001
,
0000
0000
0100
0010
0100
0000
0001
1000
,
0001
0000
1000
0100
0010
0001
0010
0100
,
1000
0000
0001
1000
0001
0000
1000
0000
,
0200
0000
0310
0001
1000
0010
0000
1000
,
0001
1000
0001
0010
,
0100
1100
0110
0011
,
0001
0000
1000
0000
0002
0000
0103
0010
,
0000
2000
0000
0000
3001
0000
1000
0200
,
0000
0320
0000
0230
0000
0320
0000
0032
,
1000
0100
1003
0010
,
1001
0000
0001
0000
1000
0010
0000
2000
,
0000
3002
0000
0000
0103
0000
0010
1000
,
0002
0203
0320
2030
,
3001
1001
1010
0101
,
0100
0010
1000
0000
0002
0000
0103
0000
,
1001
0000
1000
0000
0001
0100
0000
0100
,
0010
0000
1000
0000
0001
1000
0000
2000
,
0001
0000
3010
0000
1000
0100
0000
0020
,
0000
0031
0100
0000
0010
1000
0000
0001
,
0100
0000
0001
0000
2000
0000
3100
0020
,
0000
0031
1000
0000
0010
1000
0000
0001
,
1000
0100
0010
0001
,
1000
1010
0110
0101
,
0001
1000
0001
0000
0100
0010
0100
0001
,
0100
0010
0100
0000
0010
1000
0100
1000
,
0010
1000
0001
0000
0010
0100
1000
0100
,
0010
0001
1000
0000
0010
0100
0000
0001
,
0002
0000
0103
0000
0010
0000
1000
0100
,
0000
0010
0001
0000
1000
0010
0000
1000
,
0001
0010
0100
1000
,
0001
0101
0110
1010
,
1000
0001
1000
0000
0001
0010
0100
1000
,
0100
0010
0001
0000
1000
0010
1000
0001
,
1000
0010
1000
0000
0001
0010
0001
0100
,
0001
0010
0001
0000
1000
0100
0010
0000
,
0011
0000
0001
0000
1000
0010
1000
0000
,
0001
0100
0010
0000
1000
0100
0010
0000
,
0001
1000
0010
0100
,
0001
1001
1001
0110
,
0200
0300
0000
0000
;

//---------------dance-single - SJ XO FS-----------------
#NOTES:
     dance-single:
     SJ XO FS-:
     Hard:
     13:
     0.617112,0.604672,0.262689,0.077834,0.252960,444.000000,417.000000,27.000000,8.000000,6.000000,0.000000,0.617112,0.604672,0.262689,0.077834,0.252960,444.000000,417.000000,27.000000,8.000000,6.000000,0.000000:
0000
0000
0000
0000
,
0000
0000
0000
0000
,
0000
0000
0000
0000
,
1000
0010
1000
0001
0100
0001
0010
0001
,
1000
1010
0110
0101
,
0001
1000
0001
0000
0100
0000
0000
0000
0010
1000
0010
0000
1000
0000
0000
0000
,
0001
0100
0001
0000
0100
0000
0000
0000
1010
0000
0010
0000
0110
0000
0100
0000
,
0001
1000
0001
0000
0100
0000
0000
0000
0001
0010
0001
0010
0100
0000
1000
0000
,
0001
0100
0001
0000
1000
0000
0000
0000
0001
0100
0010
1000
0001
0000
0010
0000
,
0001
1000
0001
0000
1000
0000
0000
0000
0001
0010
0100
1000
0001
0000
0100
0000
,
0001
1000
0001
0000
1000
0000
0000
0000
0100
0010
0001
0010
0100
0000
1000
0000
,
0001
0100
0010
0000
1000
0000
0000
0000
0001
0010
0100
1000
0001
0000
0100
0000
,
0001
1000
0001
0000
1000
0000
0000
0000
0001
0100
0001
0100
0010
0000
1000
0000
,
0001
1000
0001
0000
0100
0000
0010
0000
1000
0000
0001
0000
0010
0000
0100
0000
,
1000
0010
1010
1000
1001
0001
0101
0100
,
0110
0010
1000
0010
0002
0000
1003
0100
,
0001
0000
1000
0100
0001
0100
0010
0001
,
1000
0000
0001
0100
1000
0000
0001
0010
,
1000
0000
0001
0100
0010
0001
0010
1000
,
0001
0000
1000
0100
0002
0000
1003
0000
,
1001
0000
0001
0100
0001
0100
0000
0010
,
1000
0100
0010
0001
1000
0010
0100
0001
,
0100
0010
0110
0010
1010
1000
1001
0001
,
1000
0100
1000
0000
0002
0000
0103
1000
,
0000
0200
0001
0000
0301
0000
1000
0100
,
0010
0100
0001
0100
0010
0001
0100
0010
,
2000
0001
0100
3010
,
1001
0000
0001
0000
0100
0010
0000
0001
,
0000
0010
0100
0000
0001
0000
1000
0010
,
1000
0100
0010
0001
0010
0100
1000
0001
,
1000
0010
0110
0100
0101
0001
1001
0000
,
1000
0000
0001
0000
0100
0010
0100
0010
2000
0000
0000
0000
3010
0000
0000
0000
,
1010
0000
1000
0000
0001
0000
1000
0000
0100
00M0
0100
0000
0001
0000
1000
0000
,
1000
0000
0001
0000
0100
0000
0000
0000
0010
0M00
0010
0000
0001
0000
1000
0000
,
0010
0000
0100
0000
0001
0000
0000
0000
0100
00M0
0100
0000
1000
0000
0010
0000
,
1000
0000
0100
0000
1000
0000
0000
0000
0010
0M00
0010
0000
0001
0000
1000
0000
,
0001
0000
0100
0000
0010
0000
0000
0000
2000
0000
0000
0000
3010
0M00
0010
0000
,
0001
0000
0100
0000
0001
0000
0000
0000
0100
00M0
0100
0000
1000
0000
0001
0000
,
0100
0010
1000
0100
0010
0001
1000
0010
,
1000
0001
0101
0100
0110
0010
1010
0000
,
0010
0100
0001
0000
0100
0000
0000
0000
0010
1000
0010
1000
0001
0000
1000
0000
,
0001
0010
0100
0000
1000
0000
0000
0000
0001
0100
0010
0100
0001
0000
1000
0000
,
0010
1000
0010
0000
0100
0000
0000
0000
0001
1000
0001
1000
0010
0000
0100
0000
,
0001
1000
0001
0000
0010
0000
0000
0000
0100
0000
1000
0000
0010
0000
0100
0000
,
0001
1000
0001
0000
0100
0000
0000
0000
0001
0010
0100
1000
0010
0000
1000
0000
,
0001
1000
0001
0000
0010
0000
0000
0000
0100
1000
0100
1000
0001
0000
0100
0000
,
0010
1000
0100
0010
0001
0010
0100
1000
,
0001
0100
0110
0010
1010
1000
1001
0001
,
1000
0100
0010
0000
0001
0000
0100
0000
0010
0000
0100
0000
0010
0000
1000
0000
,
0001
0010
0100
0000
1000
0000
0100
0000
0010
0000
0100
0000
1000
0000
1000
0000
,
0001
0100
0001
0000
0100
0000
0010
0000
1000
0000
0100
0000
0010
0000
0010
0000
,
0001
1000
0001
0000
0100
0000
0010
0000
1000
0000
0001
0000
1000
0000
1000
0000
,
0001
1000
0001
0000
0010
0000
0100
0000
1000
0000
0001
0000
0100
0000
0100
0000
,
0001
1000
0001
0000
0010
0000
0100
0000
1000
0000
1000
0000
0001
0000
0001
0000
,
1000
0100
0010
0001
1000
0010
0100
0001
,
1000
0010
0110
0100
0101
0001
1001
1000
,
0002
0000
0003
0000
;

//---------------dance-single - STR FS XO----------------
#NOTES:
     dance-single:
     STR FS XO:
     Challenge:
     16:
     0.818646,0.911021,0.029188,0.155668,1.045893,589.000000,586.000000,3.000000,16.000000,18.000000,0.000000,0.818646,0.911021,0.029188,0.155668,1.045893,589.000000,586.000000,3.000000,16.000000,18.000000,0.000000:
0000
0000
0000
0000
,
0000
0000
0000
0000
,
0000
0000
0000
0000
,
0001
0100
0001
0100
0010
1000
0100
1000
0001
0100
0010
1000
0001
0010
0100
0010
,
0001
1000
0001
1000
0010
0100
0010
0100
0001
0010
0100
1000
0001
0100
0010
1000
,
0001
0100
0010
0000
0010
0000
0000
0000
1000
0001
0100
0000
0100
0000
0000
0000
,
0010
1000
0001
0000
1001
0000
0000
0000
1000
0010
1000
0010
0100
0001
0100
0001
,
1000
0001
0010
0M00
0010
0000
0000
1000
0100
0010
0001
1000
0010
0000
0100
0000
,
0001
1000
0100
00M0
0100
0000
0000
0001
0010
0100
1000
0001
0200
0000
0010
0000
,
0301
1000
0100
00M0
0100
0000
0000
0001
1000
0100
0010
0001
1000
0000
0001
0000
,
1000
0001
0010
0M00
0010
0000
0000
1000
0100
0010
0001
1000
0002
0000
0100
0000
,
1003
0010
0100
00M0
0100
0000
0000
1000
0100
0010
0001
1000
0010
0000
0100
0000
,
0001
1000
0100
00M0
0100
0000
0000
0001
0010
0100
1000
0001
2000
0000
0001
0000
,
3100
0010
0001
1000
0001
0100
0010
1000
0010
0100
0010
1000
0001
0010
0100
1000
,
0001
0100
0010
0100
0001
1000
0100
1000
0001
0010
0100
1000
0010
0100
0001
1000
,
0001
1000
0001
0100
1000
0100
0001
0010
,
1000
0010
0001
0100
0010
0100
0001
1000
,
0001
0000
0100
0010
0001
0010
0100
0010
,
0001
0010
0100
0001
1000
0100
0010
0001
,
1000
0000
0010
0100
1000
0100
0010
0100
,
1000
0100
0001
0010
0001
1000
0010
1000
,
0001
0010
0100
1000
0001
0100
0010
1000
0001
0010
0001
1000
0001
0100
0010
1000
,
0001
0010
0100
1000
0001
0100
0001
1000
0100
1000
0001
0100
0010
1000
0001
1000
,
0001
0010
0100
1000
0002
0000
0103
0100
,
0000
2000
0000
0000
3200
0000
0301
0001
,
0010
1000
0010
0100
0010
0100
0010
0001
,
1000
0010
0100
0000
0001
1000
0010
1000
,
2001
0000
3100
0000
0010
0001
0100
0010
,
0100
0002
0000
0000
1003
0000
0100
0010
,
0001
0010
0100
1000
0001
0100
0001
0010
0001
1000
0010
0100
0001
1000
0100
0010
,
0001
0100
0010
0100
0001
1000
0100
0010
0001
1000
0001
0010
0100
1000
0010
0100
,
0001
0000
1000
0000
0001
0010
0100
1000
0002
0000
0000
0000
0203
0000
0300
0000
,
0110
0010
1000
0001
1000
1000
0010
0100
,
0100
0001
1000
0100
0010
0010
0001
0200
,
0001
0310
1000
0001
0100
0100
0010
2000
,
0100
3001
1000
0001
0100
0100
0010
1000
,
0001
0100
0001
1000
0020
0100
0130
0002
,
0010
1003
0001
0010
0001
0001
1000
0001
,
1000
0100
0010
0001
1000
0010
0100
0010
1000
0001
0010
0100
1000
0001
0010
0001
,
1000
0010
0100
0010
1000
0001
0010
0100
1000
0001
0010
0100
0010
0001
1000
0010
,
0100
0001
0010
0M00
0010
0000
0000
1000
0100
0010
0001
0010
1000
0000
0010
0000
,
0001
1000
0010
0M00
0010
0000
0000
0001
1000
0010
0100
1000
0100
0000
0001
0000
,
0100
0001
0010
0M00
0010
0000
0000
1000
0001
0100
0010
0100
1000
0000
0100
0000
,
0001
1000
0010
0M00
0010
0000
0000
0001
1000
0010
0100
0001
1000
0100
0010
0001
,
1000
0001
0100
00M0
0100
0000
0000
1000
0001
0100
0010
0100
1000
0000
0100
0000
,
0010
1000
0010
0M00
0010
0000
0000
0001
1000
0010
0100
0010
0001
0000
0010
0000
,
0100
0001
1000
0001
1000
0100
0010
0001
1000
0010
0100
0010
1000
0001
0010
0100
,
1000
0001
0010
0001
1000
0100
0010
0001
1000
0010
1000
0100
1000
0001
0010
0001
,
1000
0001
0100
00M0
0200
0000
0000
1300
0100
0010
0001
1000
0010
0000
1000
0000
,
0001
1000
0100
00M0
0100
0000
0000
0001
0010
0100
1000
0001
1000
0000
0010
0000
,
0100
0001
0100
00M0
0100
0000
0000
0010
0001
1000
0001
0010
0100
0000
1000
0000
,
0001
1000
0010
0M00
0010
0000
0000
0100
1000
0100
0010
0001
1000
0001
0100
0010
,
1000
0001
0100
00M0
0100
0000
0000
1000
0001
0010
0100
1000
0001
0000
0100
0000
,
0001
0100
0010
000M
0010
0000
0000
0001
1000
0100
1000
0001
0100
0000
0010
0000
,
1000
0100
0010
0001
1000
0010
0100
0001
1000
0100
0010
0100
1000
0001
0010
0001
,
0100
0010
1000
0001
0010
0100
1000
0001
0010
0001
1000
0100
1000
0100
1000
0001
,
2000
0000
0000
3000
;

//---------------dance-double - XO----------------
#NOTES:
     dance-double:
     XO:
     Hard:
     14:
     0.699115,0.687127,0.262689,0.038917,0.418357,503.000000,476.000000,27.000000,4.000000,0.000000,0.000000,0.699115,0.687127,0.262689,0.038917,0.418357,503.000000,476.000000,27.000000,4.000000,0.000000,0.000000:
// measure 0
00000000
00000000
00000000
00000000
,  // measure 1
00000000
00000000
00000000
00000000
,  // measure 2
00000000
00000000
00000000
00000000
,  // measure 3
00010000
00001000
00010000
00001000
00010000
00000100
00001000
00000010
,  // measure 4
00010000
00001000
00101000
00000000
00110000
00000000
10010000
00000000
,  // measure 5
10000000
01000000
10000000
00000000
00010000
00000000
00000000
00000000
00100000
00010000
00100000
00000000
00001000
00000000
00000000
00000000
,  // measure 6
00010000
00001000
00010000
00000000
00010010
00000000
00000000
00000000
00001000
00000001
00001000
00000001
00000100
00000010
00000100
00000010
,  // measure 7
00001000
00000100
00000010
00000000
00000001
00000000
00000000
00001000
00000010
00010000
00000010
00001000
00000010
00000000
00010000
00000000
,  // measure 8
00001000
00100000
00001000
00000000
01000000
00000000
00000000
01000000
00010000
10000000
00010000
01000000
00010000
00000000
00100000
00000000
,  // measure 9
01000000
10000000
01000000
00000000
00100000
00000000
00000000
00010000
01000000
00001000
01000000
00010000
01000000
00000000
00010000
00000000
,  // measure 10
00100000
00001000
00100000
00000000
00000100
00000000
00000000
00001000
00000100
00000010
00000001
00000010
00000100
00000000
00001000
00000000
,  // measure 11
00000001
00000100
00000001
00000000
00001000
00000000
00000000
00000010
00001000
00000010
00010000
00000010
00001000
00000000
00000100
00000000
,  // measure 12
00010000
00001000
00010000
00000000
00001000
00000000
00000000
01000000
00100000
01000000
00010000
01000000
00100000
00000000
10000000
00000000
,  // measure 13
01000000
00100000
00010000
00000000
00100000
00000000
00010000
00000000
00100000
00000000
00001000
00000000
00010000
00000000
00000100
00000000
,  // measure 14
00001000
00000001
00001001
00001000
00001010
00000010
00000110
00000100
,  // measure 15
00000101
00000001
00001000
00000100
00000001
00000100
00001000
00000010
,  // measure 16
00000001
00000010
00001000
00010000
00100000
10000000
00100000
00010000
,  // measure 17
10000000
00000000
00010000
00100000
10000000
00100000
00010000
01000000
,  // measure 18
10000000
01000000
00010000
00100000
00010000
00001000
00010000
00100000
,  // measure 19
00010000
00000000
00100000
00010000
00001000
00010000
00100000
01000000
,  // measure 20
10000000
00010000
00100000
00001000
00100000
00001000
00010000
00000100
,  // measure 21
00001000
00000100
00000010
00000001
00001000
00000010
00000100
00000001
,  // measure 22
00001000
00000010
00001010
00001000
00001100
00000100
00010100
00010000
,  // measure 23
00011000
00001000
01000000
00100000
10000000
01000000
00010000
00001000
,  // measure 24
00010000
00000100
00000010
00000100
00010000
00001000
00010000
00000010
,  // measure 25
00000100
00000010
00000001
00000010
00000100
00000010
00010000
00001000
,  // measure 26
00020000
00000100
00000010
00031000
,  // measure 27
00011000
00001000
01000000
00100000
00010000
00100000
01000000
00010000
,  // measure 28
10000000
01000000
00100000
00010000
10000000
00100000
10000000
00010000
,  // measure 29
10000000
01000000
00100000
00010000
00001000
00000100
00000010
00000001
,  // measure 30
00001000
00000010
00001010
00001000
00001100
00000100
00001100
00001000
,  // measure 31
00000001
00000000
00001000
00000000
00000001
00000010
00000100
00001000
00000002
00000000
00000000
00000000
00001003
00000000
00000000
00000000
,  // measure 32
00001001
00000001
00000100
00010000
00000100
00001000
00000100
00000010
,  // measure 33
00010000
00001000
01000000
10000000
01000000
00100000
01000000
00010000
,  // measure 34
00100000
00000000
00110000
00000000
00001000
00010000
00001000
00000100
,  // measure 35
00001000
00010000
00000100
00001000
00000100
00000001
00000100
00001000
,  // measure 36
00000001
00000010
00001000
00010000
00002000
00000000
01003000
00100000
,  // measure 37
10000000
00100000
10000000
01000000
00010000
01000000
00100000
01000000
,  // measure 38
10000000
00010000
00100000
00001000
00010000
00000010
00000100
00000001
,  // measure 39
00000010
00000100
00001100
00001000
00001001
00000001
00000101
00000100
,  // measure 40
00000010
00001000
00000010
00000000
00001000
00000000
00000000
00000001
00000010
00000100
00001000
00000100
00001000
00000000
00000100
00000000
,  // measure 41
00010000
00001000
00010000
00000000
00001000
00000000
00000000
01000000
00100000
01000000
00010000
01000000
00100000
00000000
10000000
00000000
,  // measure 42
00010000
00100000
01000000
00000000
10000000
00000000
00000000
00010000
01000000
00010000
10000000
00010000
01000000
00000000
00001000
00000000
,  // measure 43
00010000
00000100
00010000
00000000
00000010
00000000
00000000
00001000
00000100
00000010
00000100
00001000
00000010
00000100
00000001
00001000
,  // measure 44
00000001
00000100
00000010
00000000
00010000
00000000
00000000
00001000
00100000
00010000
10000000
00100000
01000000
00000000
00010000
00000000
,  // measure 45
10000000
01000000
00100000
00000000
00010000
00000000
00000000
00100000
00001000
00100000
00010000
00100000
00001000
00000000
00010000
00000000
,  // measure 46
00000100
00001000
00000001
00001000
00000100
00010000
00001000
01000000
,  // measure 47
00100000
10000000
10010000
00010000
01010000
01000000
01001000
00001000
,  // measure 48
00010000
00000010
00010000
00000000
00000001
00000000
00000000
00001000
00000100
00000010
00000001
00000010
00000100
00000000
00001000
00000000
,  // measure 49
00000100
00010000
00000100
00000000
00010000
00000000
00000000
00001000
01000000
00010000
01000000
00001000
01000000
00000000
00100000
00000000
,  // measure 50
10000000
01000000
00100000
00000000
00010000
00000000
00000000
00100000
00010000
00100000
00001000
00100000
00010000
00000000
00100000
00000000
,  // measure 51
00001000
00010000
00000100
00000000
00001000
00000000
00000000
00000001
00000010
00000100
00001000
00000010
00000100
00000010
00001000
00000001
,  // measure 52
00000010
00000100
00000010
00000000
00000010
00000000
00000000
00000001
00000100
00000010
00001000
00000100
00001000
00000000
00000100
00000000
,  // measure 53
00010000
00001000
00010000
00000000
00001000
00000000
00000000
01000000
00100000
01000000
00010000
01000000
00100000
00000000
10000000
00000000
,  // measure 54
01000000
00100000
00010000
00001000
00000100
00000010
00000001
00000100
,  // measure 55
00000010
00001000
00001001
00000001
00000101
00000100
00000110
00000010
,  // measure 56
00002000
00000000
00003000
00000000
;
