#TITLE:Hip To Be Scared;
#SUBTITLE:;
#ARTIST:Ice Nine Kills ft. Jacoby Shaddix;
#TITLETRANSLIT:;
#SUBTITLETRANSLIT:;
#ARTISTTRANSLIT:;
#GENRE:;
#CREDIT:azureFrights;
#BANNER:Hip To Be Scared-bn.png;
#BACKGROUND:Hip To Be Scared-bg.png;
#LYRICSPATH:Hip To Be Scared.lrc;
#CDTITLE:;
#MUSIC:Hip To Be Scared.ogg;
#OFFSET:-0.765000;
#SAMPLESTART:92.847000;
#SAMPLELENGTH:23.736000;
#SELECTABLE:YES;
#DISPLAYBPM:91.000000:182.000000;
#BPMS:0.000000=91.000000
,36.000000=121.332993
,84.000000=124.999992
,132.000000=291.666992
,139.000000=124.999992
,155.000000=182.000000
,187.000000=91.000000
,196.000000=121.332993
,252.000000=91.000000
;
#STOPS:132.000000=1.920000
;
#BGCHANGES:0.000=Hip To Be Scared.mp4=1.000=1=0=0=StretchNoLoop==CrossFade==,
99999=-nosongbg-=1.000=0=0=0 // don't automatically add -songbackground-
;
#KEYSOUNDS:;
#ATTACKS:;

//---------------dance-single - ----------------
#NOTES:
     dance-single:
     :
     Hard:
     13:
     0.454919,0.575592,0.108808,0.174092,0.398961,439.000000,424.000000,15.000000,24.000000,4.000000,0.000000,0.454919,0.575592,0.108808,0.174092,0.398961,439.000000,424.000000,15.000000,24.000000,4.000000,0.000000:
// measure 0
0000
0000
0000
0000
,  // measure 1
0000
0000
0000
0000
,  // measure 2
0000
0000
0000
0000
,  // measure 3
0001
1000
0100
0010
0100
0100
1000
0100
,  // measure 4
0010
0001
0100
0100
0001
0100
0001
1000
,  // measure 5
0010
0001
0010
1000
0001
1000
0100
0010
,  // measure 6
0001
0100
0010
0100
0001
0001
0010
0100
,  // measure 7
1000
0000
0010
0000
0100
0000
0100
0000
0001
0000
0000
0000
0100
0010
0100
0001
,  // measure 8
0000
0001
1000
0100
1000
1000
0100
1000
,  // measure 9
2000
0000
0000
0000
0000
3000
0000
0000
0000
0000
0000
0000
0000
0000
0000
0000
0100
0000
0000
0000
0000
0000
0000
0000
0000
0000
0000
0000
0000
0000
0000
0000
0010
0000
0000
0000
0000
0000
0000
0000
0000
0000
0000
0000
0000
0000
0000
0000
0000
0000
0000
0000
0000
0000
0000
0000
0000
0000
0000
0000
0000
0000
0000
0000
0010
0000
0000
0000
0000
0000
0000
0000
0000
0000
0000
0000
0000
0000
0000
0000
0000
0000
0000
0000
0000
0000
0000
0000
0000
0000
0000
0000
0000
0000
0000
0000
0001
0000
0000
0000
0000
0000
0000
0000
0000
0000
0000
0000
0000
0000
0000
0000
0100
0000
0000
0000
0000
0000
0000
0000
0000
0000
0000
0000
0000
0000
0000
0000
0010
0000
0000
0000
0000
0000
0000
0000
0000
0000
0000
0000
0000
0000
0000
0000
0000
0000
0000
0000
0000
0000
0000
0000
0000
0000
0000
0000
0000
0000
0000
0000
0010
0000
0000
0000
0000
0000
0000
0000
0000
0000
0000
0000
0000
0000
0000
0000
0000
0000
0000
0000
0000
0000
0000
0000
0000
0000
0000
0000
0000
0000
0000
0000
,  // measure 10
1000
0010
0100
0000
0100
0000
0001
0010
0100
1000
0010
0100
,  // measure 11
0001
0010
0100
0000
0100
0000
1000
0100
0010
0000
0010
0000
,  // measure 12
0001
0000
0100
0010
0000
1000
0100
0000
0010
0001
0000
0100
,  // measure 13
1000
0000
0100
0000
0001
0000
1000
0000
0100
0000
0010
0000
,  // measure 14
0001
0000
0000
0001
0000
0001
0100
0000
0001
0000
0100
0000
,  // measure 15
0001
0000
1000
0000
1000
0000
0100
0000
1000
0000
0001
0000
,  // measure 16
1000
0000
0100
0010
0000
0001
0100
0000
0010
1000
0000
0001
,  // measure 17
0100
0000
0001
0000
1000
0000
0100
0000
1000
0000
0001
0000
,  // measure 18
0010
0000
0001
0010
0000
0100
1000
0100
0010
0100
0001
0100
,  // measure 19
1000
0000
0001
0000
0100
0000
0001
0000
0010
0100
0000
1000
,  // measure 20
0100
0010
0001
1000
,  // measure 21
0200
0300
0000
1000
0000
0000
0100
0000
0000
0010
0000
0000
0000
0000
0000
0100
0000
0000
0001
0000
0000
0100
0000
0000
,  // measure 22
0010
0001
0100
0000
0100
0001
0000
0001
,  // measure 23
0100
0001
1000
0100
0000
0100
0010
0000
,  // measure 24
0001
0100
0001
0010
0000
1000
0010
0000
,  // measure 25
0001
0100
0001
0010
0000
0001
0100
0010
,  // measure 26
0100
0001
0100
0000
0010
1000
0010
0000
,  // measure 27
0100
0001
1000
0100
0000
0001
0000
0100
,  // measure 28
0010
0000
0100
0010
0001
0000
0001
0100
,  // measure 29
0002
0000
0100
0000
0010
0003
1000
0000
,  // measure 30
0010
0100
0001
0000
0010
0100
1000
0000
,  // measure 31
0002
0000
0010
0000
0100
0003
1000
0000
,  // measure 32
0001
0100
0001
0000
0010
1000
0010
0000
,  // measure 33
0002
0000
0000
0000
,  // measure 34
0000
0000
0000
0000
0003
0000
1001
1000
,  // measure 35
0100
0001
0000
0001
0100
1000
0001
1000
,  // measure 36
0001
0000
1000
0001
0000
0001
0100
0010
,  // measure 37
0100
0000
0000
0010
0000
0000
0000
0000
0000
1000
0000
0000
0100
0000
0000
1000
0000
0000
0001
0000
0000
0000
0101
0000
,  // measure 38
0000
0000
0000
0101
0000
0000
0101
0000
0000
0000
0000
0000
0000
0000
0000
0000
0000
0000
0002
0003
0000
0100
0000
0000
,  // measure 39
1000
0100
0010
1000
0010
0100
0001
0010
,  // measure 40
1000
0010
0100
1000
0100
0001
0100
0010
,  // measure 41
0001
0000
0100
0000
0001
0000
1000
0000
0010
0000
1000
0000
0001
0000
0000
0100
,  // measure 42
0000
0010
1000
0001
0100
0000
0101
0101
,  // measure 43
0000
1001
1001
1001
0000
1100
1100
1100
,  // measure 44
0000
1001
1001
1001
0000
0001
0100
0010
,  // measure 45
0100
0100
0001
1000
0100
0100
0020
0030
,  // measure 46
0002
0000
0000
0003
0000
0000
0200
0000
0000
0300
0000
0000
2000
0000
0000
3000
0000
0000
0200
0300
0000
0000
0000
0000
,  // measure 47
0100
0001
0000
0001
1000
0000
1000
0100
,  // measure 48
0000
0100
0001
0100
0000
0100
1000
0001
,  // measure 49
0200
0300
0000
0000
0001
0000
0100
0000
0000
0000
1000
0000
0100
0000
0000
0000
0001
0000
0100
0000
0000
0000
0010
0000
,  // measure 50
1000
0000
0100
0000
1000
1000
0001
0000
0010
0000
0100
1000
,  // measure 51
0001
0000
0001
0100
0000
0010
0100
0010
1000
0100
1000
0100
,  // measure 52
0010
0000
0001
0100
0001
0100
0010
0000
1000
0100
1000
0100
,  // measure 53
0020
0000
0030
0002
0000
0003
2000
0000
3000
0020
0000
0030
,  // measure 54
0100
0001
0100
0010
1000
0010
0100
0000
0000
0001
0000
0000
,  // measure 55
0010
0001
0010
0100
1000
0100
0010
0000
0000
0001
0000
0000
,  // measure 56
0100
0000
0001
0100
0000
0001
0100
0000
0010
0000
0010
0000
,  // measure 57
1000
0100
1000
0100
1000
0100
0010
0001
0010
0000
0100
0000
,  // measure 58
1000
0000
0000
0100
0000
1000
0001
0000
0100
0000
0010
0000
,  // measure 59
1000
0000
0000
0010
0000
0100
0001
0000
0100
0000
1000
0000
,  // measure 60
0100
0001
0100
0010
0100
0001
0100
0000
0010
1000
0000
0001
,  // measure 61
0020
0000
0030
0200
0000
0300
2000
0000
3000
0000
0001
0000
,  // measure 62
0200
0000
0300
0020
0000
0030
2000
0000
3000
0020
0000
0030
,  // measure 63
2000
3000
0000
0100
0000
0000
0010
0000
0000
0001
0000
0000
0100
0000
0000
0010
0000
0000
1000
0000
0000
0100
0000
0000
,  // measure 64
0010
0001
0100
0010
1000
0010
0100
0001
,  // measure 65
0010
0100
1000
0001
0100
0010
1000
0001
,  // measure 66
0000
MMMM
0000
0000
0000
0000
0000
0000
;

//---------------dance-single - ----------------
#NOTES:
     dance-single:
     :
     Medium:
     9:
     0.325387,0.383728,0.108808,0.275646,0.192227,314.000000,299.000000,15.000000,38.000000,4.000000,0.000000,0.325387,0.383728,0.108808,0.275646,0.192227,314.000000,299.000000,15.000000,38.000000,4.000000,0.000000:
0000
0000
0000
0000
,
0000
0000
0000
0000
,
0000
0000
0000
0000
,
0001
1000
0001
0200
0000
0300
0001
1000
,
0001
0020
0000
0030
0100
1000
0001
0020
,
0030
0100
1000
0001
0100
0001
1000
0100
,
1000
0010
0100
0002
0000
0003
0001
0010
,
0100
2000
0000
3000
0100
0010
0100
1000
,
0001
1000
0010
0100
0001
1000
0000
0000
,
2000
0000
0000
0000
3100
0000
0020
0000
0000
0000
0031
0000
,
0200
0000
0000
0000
0310
0000
0200
0000
0000
0000
0300
0000
,
0002
0000
0000
0000
1003
0000
0002
0000
0000
0000
0013
0000
,
0100
1000
0001
1000
,
1100
0000
0000
0000
0100
0000
0010
0000
0000
0000
0001
0000
,
0011
0000
0000
0000
0001
0000
0100
0000
0100
0000
0010
0000
,
0110
0000
0000
0000
0010
0000
1000
0000
0000
0000
0100
0000
,
1000
0000
0100
0010
0000
0000
0001
0000
0100
0010
0000
0000
,
0110
0000
0000
0000
0100
0000
0010
0000
0000
0000
1000
0000
,
1010
0000
0000
0000
1000
0000
0100
0000
1000
0000
0100
0000
,
1100
0000
0000
0000
1000
0000
0010
0000
0000
0100
0000
0000
,
0001
1000
0001
0010
,
0002
0003
0000
0000
0000
0000
0100
0000
0000
0010
0000
0000
0000
0000
0000
1000
0000
0000
0000
0000
0000
0010
0000
0000
,
0100
0001
0100
0000
0100
0001
1000
0000
,
1000
0000
0100
0010
0000
0001
0000
0010
,
0100
1000
0100
0000
0100
1000
0010
0000
,
0001
0000
1000
0100
0000
1000
0000
0100
,
0010
0001
0010
0000
0100
1000
0001
0000
,
0100
0000
0001
0100
0000
0010
0000
1000
,
0200
0300
2000
3000
0002
0003
0020
0030
,
0002
0000
0100
1003
,
2000
0000
0010
3001
,
0002
0000
1000
0003
,
1000
0100
0010
0001
,
2000
0000
0000
0000
,
3000
0000
0000
0000
0000
0000
1000
1000
,
0100
0000
0010
0100
1000
0000
0001
1000
,
0001
0000
0100
0001
0100
0000
0010
0100
,
0010
1000
0000
0100
0000
1000
0100
0000
,
0010
0000
0000
0000
0000
0000
1001
0000
0000
0000
0000
0000
0000
0000
0000
0000
0000
0000
0002
0003
0000
1000
0000
0000
,
0001
0000
0100
0010
0100
0000
0010
1000
,
0010
0000
1000
0100
1000
0000
0001
0100
,
0001
0000
1000
0001
1000
0000
0001
0010
,
0100
1000
0100
0000
1000
0000
0100
0100
,
0000
0010
0010
0010
0000
0100
0100
0100
,
0000
1000
1000
1000
0000
0010
0100
0001
,
1000
0000
0100
1000
0001
0000
0200
0300
,
0020
0000
0000
0030
0000
0000
0200
0000
0000
0300
0000
0000
0002
0000
0000
0003
0000
0000
2000
3000
0000
0000
0000
0000
,
0100
0010
0000
0100
1000
0000
0010
0100
,
0000
0001
0100
0000
0010
1000
0000
0001
,
0200
0300
0000
0000
0000
0000
0001
0000
0000
0000
0000
0000
1000
0000
0000
0000
0000
0000
0100
0000
0000
0000
0000
0000
,
1100
0000
0000
0000
1000
0000
0010
0000
1000
0000
0001
0000
,
1001
0000
0001
0000
1000
0000
0100
0000
0010
0000
0100
0000
,
0110
0000
0010
0000
0001
0000
0010
0000
0100
0000
1000
0000
,
2100
0000
3000
0020
0000
0030
0200
0000
0300
0002
0000
0003
,
0100
0000
0010
0000
1000
0000
1010
0000
0000
1000
0000
0000
,
0100
0000
0010
0000
0001
0000
0011
0000
0000
0001
0000
0000
,
0100
0000
0001
0000
0100
0000
0010
0000
1000
0000
0010
0000
,
1000
0000
0100
0000
1000
0000
0001
0000
0010
0000
0001
0000
,
0011
0000
0000
0000
0001
0000
0100
0000
0001
0000
0100
0000
,
0010
0000
0000
0000
1000
0000
0100
0000
1000
0000
0001
0000
,
1001
0000
0001
0000
0100
0000
0010
0000
1000
0000
0100
0000
,
0020
0000
0030
0002
0000
0003
2000
0000
3000
0000
0000
0000
,
0020
0000
0030
2000
0000
3000
0002
0000
0003
0000
0000
0000
,
0020
0000
0000
0000
,
0000
0000
0030
0000
0001
0000
1000
0100
,
0000
0100
1000
0000
1000
0001
0000
0000
,
0000
MMMM
0000
0000
0000
0000
0000
0000
;

//---------------dance-single - ----------------
#NOTES:
     dance-single:
     :
     Easy:
     7:
     0.226942,0.263813,0.050777,0.246631,0.097927,219.000000,212.000000,7.000000,34.000000,4.000000,0.000000,0.226942,0.263813,0.050777,0.246631,0.097927,219.000000,212.000000,7.000000,34.000000,4.000000,0.000000:
0000
0000
0000
0000
,
0000
0000
0000
0000
,
0000
0000
0000
0000
,
0001
0000
0001
1000
0000
0000
0010
0000
,
0010
0100
0000
0000
0001
0000
0001
0010
,
0000
0010
0100
0000
0100
1000
0000
1000
,
0001
0000
1000
0100
0000
0000
1000
0000
,
0001
0100
0000
0000
0001
0000
1000
0010
,
0000
1000
0001
0000
1000
0100
0000
0000
,
0020
0030
0002
0003
,
2000
3000
0002
0003
,
0200
0300
0020
0030
,
1000
0100
0010
0100
,
1000
0000
0000
0000
0001
0000
0020
0000
0000
0030
0000
0000
,
0100
0000
0000
0000
1000
0000
0001
0000
0000
0000
0000
0000
,
0100
0000
0000
0000
0010
0000
1000
0000
0000
0000
0000
0000
,
0100
0010
0100
1000
,
0001
0000
0000
0000
0100
0000
0010
0000
0000
0000
0000
0000
,
0010
0000
0000
0000
1000
0000
0100
0000
0000
0000
1000
0000
,
0010
0000
0000
0000
0100
0000
0001
0000
0000
1000
0000
0000
,
0100
0010
0100
1000
,
0002
0003
0000
0000
0000
0000
0100
0000
0000
0010
0000
0000
0000
0000
0000
0000
0000
0000
1000
0000
0000
0000
0000
0000
,
0100
1000
0001
1000
,
0100
0000
0010
0001
0000
0000
1000
0000
,
0001
0010
0001
0100
,
0001
0000
1000
0100
0000
1000
0000
0000
,
0100
1000
0001
1000
,
0100
0000
1000
0001
0000
0010
0000
0000
,
0001
0100
0010
0100
,
0002
0000
1000
0003
,
2000
0000
0100
3000
,
0200
0000
1000
0300
,
1000
0100
1000
0000
,
2002
0000
0000
0000
,
3003
0000
0000
2000
,
0000
3000
0010
0000
0100
0000
0001
0000
,
0101
0000
0001
0200
,
0000
0300
0001
0000
1000
0000
0200
0000
,
0300
0000
0000
0000
0000
0000
1001
0000
0000
0000
0000
0000
0000
0000
0000
0000
0000
0000
0002
0003
0000
0000
0000
0000
,
0001
0100
0100
0010
,
0010
1000
1000
0100
,
0100
0010
0010
0001
,
0100
0001
0000
0110
,
0000
1001
0000
0110
,
0000
0000
1001
0000
0000
0000
0100
1000
,
0100
0000
1000
0001
1000
0000
0010
0000
,
1000
0001
1000
0200
,
0000
0300
0000
0100
1000
0000
0001
1000
,
0000
0100
2000
0000
3000
0000
0000
0001
,
0200
0300
0000
0000
0000
0000
0001
0000
0000
0000
0000
0000
1000
0000
0000
0000
0000
0000
0001
0000
0000
0000
0000
0000
,
0200
0000
0000
0300
0000
0000
0010
0000
0000
0000
1000
0000
,
0001
0000
0000
0000
1000
0000
0100
0000
0000
0000
0010
0000
,
0001
0000
0000
0000
0001
0000
0010
0000
0000
0000
0100
0000
,
0020
0030
0000
0002
0003
0000
2000
3000
0000
0002
0003
0000
,
0100
0000
0010
0000
0010
0000
0010
0000
0000
0000
0000
0000
,
1000
0000
0100
0000
0100
0000
0100
0000
0000
0000
0000
0000
,
0010
0000
0000
0000
0001
0000
1000
0000
0000
0000
0010
0000
,
0100
0000
0000
0000
0010
0000
1000
0000
1000
0000
1000
0000
,
0100
0000
0000
0000
1000
0000
0100
0000
0000
0000
0010
0000
,
0001
0000
0000
0000
0100
0000
0001
0000
0000
0000
1000
0000
,
0001
0000
0000
0000
0100
0000
0010
0000
0000
0000
1000
0000
,
0200
0000
0300
0020
0000
0030
0200
0000
0300
0000
0000
0000
,
0020
0000
0030
0200
0000
0300
0020
0000
0030
0002
0000
0003
,
2000
0000
0000
0000
,
3000
0000
0002
0000
,
0000
0000
0000
0000
0000
0000
0000
0000
0003
0000
0000
0000
,
0000
MMMM
0000
0000
0000
0000
0000
0000
;
