#VERSION:0.83;
#TITLE:Hellbound Hearts;
#SUBTITLE:;
#ARTIST:Value Select feat. Richard Roses;
#TITLETRANSLIT:;
#SUBTITLETRANSLIT:;
#ARTISTTRANSLIT:;
#GENRE:Pop Ballad From Hell;
#CREDIT:;
#MUSIC:Hellbound Hearts.ogg;
#BANNER:Hellbound Hearts.png;
#BACKGROUND:Hellbound Hearts-bg.png;
#CDTITLE:;
#SAMPLESTART:49.035;
#SAMPLELENGTH:12.755;
#SELECTABLE:YES;
#OFFSET:-1.020;
#BPMS:0.000=120.000
,30.000=113.000
,31.000=120.000
,32.000=122.000
,33.000=118.000
,34.000=125.000
,35.000=120.000
,37.000=117.000
,38.000=123.000
,39.000=121.000
,41.000=120.000
,74.000=122.000
,76.000=119.000
,81.000=120.000
,82.000=115.000
,83.000=122.000
,85.000=120.000
,96.000=119.050
,98.000=120.050
,104.000=121.050
,112.000=116.050
,114.000=120.050
,122.000=121.050
,126.000=120.050
,158.000=121.000
,162.000=120.100
;
#STOPS:39.000=0.001;
#DISPLAYBPM:120.000;
#JACKET:Hellbound Hearts-jacket.png;
#BGCHANGES:-2.040=Hellbound Hearts.avi=1.000=0=0=1,
99999.000=-nosongbg-=1.000=0=0=0=StretchNoLoop====
;
#FGCHANGES:;

//--------------- dance-single - ----------------
#NOTEDATA:;
#STEPSTYPE:dance-single;
#DESCRIPTION:;
#DIFFICULTY:Hard;
#METER:11;
#RADARVALUES:0,0,0,0,0;
#Credit:Kikoia;
#NOTES:
0000
0000
0000
0000
,
0000
0000
0000
0000
,
0000
0000
0000
0000
,
0000
0000
0000
0000
,
0000
0000
0000
0000
,
0000
0000
0000
0000
,
0000
0000
0000
0000
,
0000
0000
0000
0000
1000
1000
1000
0001
,
1000
0100
0020
0000
0031
0100
0020
0000
,
1030
0001
0010
0001
0100
0000
0010
1000
,
0001
0010
0200
0000
1300
0010
0200
0000
,
0301
1000
0010
1000
0100
0000
1000
0000
,
0001
0001
0010
0001
0100
0100
0010
1000
,
0001
0010
1000
0010
0002
0000
1003
0010
,
0100
0001
0001
1000
0100
0100
0010
0001
,
1000
0010
0001
0010
1000
0001
0020
0000
,
0130
1000
0010
0000
2010
0000
3200
0000
,
0310
0001
0100
0000
0102
0000
0010
0000
,
1003
0010
0100
0000
0100
0010
1000
0000
,
0001
0010
0100
0010
0001
1000
0010
0100
,
0001
0101
1000
1100
,
0001
0100
0010
0100
2000
0000
3100
0010
,
1000
0001
0010
0000
0100
0100
0000
1000
,
0000
0001
0010
0001
0000
1000
0010
1000
,
0100
0110
2002
3003
,
1000
0000
0100
0000
0010
0000
0002
0000
0000
0000
1003
0010
1000
0000
0001
0000
,
0100
0010
0100
1000
0200
0000
0301
0010
,
0100
0000
0010
0000
1000
0000
0010
0000
0001
0000
1000
0100
1000
0000
0001
0000
,
0100
0100
0010
2000
0000
3001
0001
1000
,
0200
0000
0310
0002
0000
1003
0100
0002
,
0000
1003
0010
0002
0000
1003
0010
0002
,
0000
1003
0100
0002
0000
0013
0100
1000
,
0010
0110
2002
3003
,
2000
0100
3002
0100
,
1003
0001
0001
1000
0010
0010
1000
0001
,
0000
0001
0010
0100
0000
1000
0010
0100
,
0001
0101
2002
3003
,
0002
0010
2003
0010
,
3001
1000
1000
0001
0010
0010
0001
1000
,
0000
1000
0010
0100
0000
0001
0010
0100
,
0010
0110
2002
3000
,
0103
0000
0101
0000
1000
0100
0011
0000
,
0001
0000
0100
0000
1010
0000
0000
0000
0001
1000
0001
0000
1000
0100
1000
0000
,
0001
0100
0001
0000
1000
0010
1000
0000
0200
0000
0000
0000
0310
0000
0002
0000
,
0000
2003
3020
0032
2003
3200
0302
2003
,
0000
3200
0320
0032
0000
0000
0103
0010
,
1000
0100
1100
0000
0001
0100
0101
0000
,
0002
0023
2030
3002
0000
0103
1000
0001
,
0200
0010
0302
1000
,
0023
0100
0032
0010
,
1003
0001
0010
0010
0100
0100
1000
1000
,
0010
0100
1000
0200
0000
0301
1000
0000
,
2000
0010
3200
0010
,
2300
0001
3020
0100
,
2000
0000
0000
0000
,
0000
0000
0000
3030
;
