#TITLE:Hell Above Water;
#SUBTITLE:;
#ARTIST:Curve;
#TITLETRANSLIT:;
#SUBTITLETRANSLIT:;
#ARTISTTRANSLIT:;
#GENRE:;
#CREDIT:;
#BANNER:Hell Above Water.png;
#BACKGROUND:Hell Above Water-bg.png;
#LYRICSPATH:;
#CDTITLE:;
#MUSIC:Hell Above Water.ogg;
#OFFSET:-0.005000;
#SAMPLESTART:67.134842;
#SAMPLELENGTH:12.202103;
#SELECTABLE:YES;
#BPMS:0.000000=157.350006
,208.000000=39.338001
,216.000000=157.350006
;
#STOPS:
;
#BGCHANGES:;
#KEYSOUNDS:;
#ATTACKS:;

//---------------dance-single - ----------------
#NOTES:
     dance-single:
     :
     Challenge:
     15:
     0.708973,0.848866,0.329452,0.497683,0.168231,708.000000,661.000000,47.000000,71.000000,0.000000,0.000000,0.708973,0.848866,0.329452,0.497683,0.168231,708.000000,661.000000,47.000000,71.000000,0.000000,0.000000:
// measure 0
0000
0000
0000
0000
,  // measure 1
0000
0000
0000
0000
,  // measure 2
0000
0000
0000
0000
,  // measure 3
0000
0000
0000
0000
,  // measure 4
0001
0001
0010
0100
1000
0010
0010
0000
,  // measure 5
1000
0000
0010
0010
0000
0100
0001
0000
,  // measure 6
1000
1000
0010
0100
0001
0010
0010
0000
,  // measure 7
0011
0000
0100
0110
0000
0001
0011
0000
,  // measure 8
1000
1000
1010
0001
1000
1100
0001
1000
,  // measure 9
1010
0000
0110
1000
0000
1010
0001
1000
,  // measure 10
0001
0001
0011
1000
0001
0101
1000
0001
,  // measure 11
0011
0000
0110
0001
0000
0011
1000
0001
,  // measure 12
1000
1000
1010
0001
1000
1100
0001
1000
,  // measure 13
1010
0001
1000
0110
1000
0001
0101
1000
,  // measure 14
0001
0001
0011
1000
0001
0101
1000
0001
,  // measure 15
0011
1000
0001
0110
0001
1000
1100
0001
,  // measure 16
0200
0001
0310
0020
0100
1030
0010
0010
,  // measure 17
2000
0010
3001
0002
1000
0013
0001
0001
,  // measure 18
0020
0001
0130
0200
0010
1300
0100
0100
,  // measure 19
2000
0100
3001
0002
1000
0103
0001
0001
,  // measure 20
1000
0000
0000
0000
1010
0000
0100
0000
0000
0000
0110
0000
1000
0000
1000
0010
,  // measure 21
1000
0000
0001
1000
0001
0000
0010
0001
0010
0000
0100
0000
1000
0000
0001
1000
,  // measure 22
0001
0000
0000
0000
0011
0000
0100
0000
0000
0000
0110
0000
0001
0000
0001
0010
,  // measure 23
0001
0000
2000
0000
0000
0000
3020
0000
0000
0000
0100
0000
1030
0000
0001
1000
,  // measure 24
0001
0000
0000
0000
0011
0000
0100
0000
0000
0000
0110
0000
0001
0000
0001
0010
,  // measure 25
0001
0000
1000
0001
1000
0000
0010
1000
0010
0000
0100
0000
0001
0000
1000
0001
,  // measure 26
1000
0000
0000
0000
1010
0000
0100
0000
0000
0000
0110
0000
1000
0000
1000
0010
,  // measure 27
2000
0000
3002
0000
1000
0000
0013
0010
,  // measure 28
0200
0010
1300
2000
0100
3001
0002
1000
,  // measure 29
0103
0000
0100
0000
0101
0000
0010
0000
0000
0000
0110
0000
0001
0000
0001
0100
,  // measure 30
0001
0000
1000
0001
1000
0000
0100
1000
0100
0000
0010
0000
0001
0000
1000
0001
,  // measure 31
1000
0001
0000
1010
0000
0101
0010
0010
,  // measure 32
0200
0010
0301
0002
0100
1003
2000
0001
,  // measure 33
3100
0000
0100
0000
1100
0000
0010
0000
0000
0000
0110
0000
1000
0000
1000
0100
,  // measure 34
1000
0000
0001
1000
0001
0000
0100
0001
0100
0000
0010
0000
1000
0000
0001
1000
,  // measure 35
0001
0000
1000
0000
0000
0000
0200
0000
0000
0000
0010
0000
1300
0000
0001
1000
,  // measure 36
0001
0001
0010
0100
1000
0010
0100
1000
,  // measure 37
1000
0100
0010
1000
0001
0010
0100
0000
,  // measure 38
1000
1000
0100
0010
0001
0100
0010
0001
,  // measure 39
0001
0010
0100
0001
1000
0100
0010
0001
,  // measure 40
2000
0100
0001
3020
1000
0100
2030
0010
,  // measure 41
3002
0100
1000
0023
0001
0100
0032
0010
,  // measure 42
2003
0100
0001
3020
1000
0100
2030
0010
,  // measure 43
3002
0100
1000
0023
0001
0100
0032
0010
,  // measure 44
1003
0010
0200
1000
1300
0100
0010
1000
,  // measure 45
0100
0010
0100
0001
0000
0001
0100
0010
,  // measure 46
0001
0100
0020
0001
0031
0010
0100
0001
,  // measure 47
0010
0100
0010
1000
0010
0200
0010
1300
,  // measure 48
0001
0100
0020
0001
0031
0010
0100
0001
,  // measure 49
0010
0100
0010
1000
0000
1000
0010
0100
,  // measure 50
1000
0010
0200
1000
1300
0100
0010
1000
,  // measure 51
0100
0010
0100
0001
0100
0020
0100
0031
,  // measure 52
0000
1000
0001
0200
0010
0302
0000
2003
,  // measure 53
3200
0000
0000
0000
0010
0000
0000
0000
0010
0000
0000
0000
0000
0000
0000
0000
0001
0000
0000
0000
0000
0000
0000
0000
0000
0000
0000
0000
0000
0000
0000
0000
0310
0000
0100
0000
2000
0000
0000
0000
0000
0000
0000
0000
3000
0000
0000
0000
0000
0000
0000
0000
0000
0000
0000
0000
0000
0000
0000
0000
0000
0000
1000
0001
,  // measure 54
1000
1000
1010
0001
1000
1100
0001
1000
,  // measure 55
1010
0001
1000
0110
1000
0001
0101
1000
,  // measure 56
0001
0001
0011
1000
0001
0101
1000
0001
,  // measure 57
0011
1000
0001
0110
0001
1000
1100
0001
,  // measure 58
1000
0001
1000
0000
0010
1000
0010
1000
0010
0100
0000
0010
1000
0000
0001
1000
,  // measure 59
0001
0010
0001
0000
0010
0001
1000
0001
0100
0000
0001
0100
0001
1000
0010
0000
,  // measure 60
0100
0010
0100
0000
0001
0100
0001
0100
0001
1000
0000
0001
0010
0000
0100
0010
,  // measure 61
0100
1000
0100
0000
1000
0100
0010
0100
1000
0000
0010
0100
0001
1000
0100
1000
,  // measure 62
0001
0001
0010
0100
1000
0010
0100
1000
,  // measure 63
1000
0100
0010
1000
0001
0010
0100
0000
,  // measure 64
1000
1000
0100
0010
0001
0100
0010
0001
,  // measure 65
0001
0010
0100
0001
1000
0100
0010
0000
,  // measure 66
0001
0001
0010
0100
1000
0010
0100
1000
,  // measure 67
0001
1000
0100
0010
1000
0100
0010
0001
,  // measure 68
1000
1000
0010
0100
0001
0010
0100
0001
,  // measure 69
1000
0001
0100
0010
0001
0100
0010
1000
,  // measure 70
0002
0010
1000
0203
0001
0010
0302
0100
,  // measure 71
2003
0010
0001
3200
1000
0010
2300
0100
,  // measure 72
3002
0010
1000
0203
0001
0010
0302
0100
,  // measure 73
2003
0010
0001
3200
1000
0010
2300
0100
,  // measure 74
3002
0010
1000
0203
0010
1000
0320
0100
,  // measure 75
2030
0010
0001
3200
0010
0001
0320
0100
,  // measure 76
0032
0010
1000
0203
0010
1000
0320
0100
,  // measure 77
2030
0010
0001
3200
0010
0001
0320
0100
,  // measure 78
0031
0100
0020
0001
0031
0010
0100
0001
,  // measure 79
0010
0100
0010
1000
0001
1000
0010
0100
,  // measure 80
1000
0010
0200
1000
1300
0100
0010
1000
,  // measure 81
0100
0010
0100
0001
1000
0001
0100
0100
,  // measure 82
1000
0010
0200
1000
1300
0100
0010
1000
,  // measure 83
0100
0010
0100
0001
1000
0001
0100
0010
,  // measure 84
0001
0100
0020
0001
0031
0010
0100
0001
,  // measure 85
0010
0100
0010
1000
0001
1000
0010
0010
,  // measure 86
0200
0000
0300
0000
;

//---------------dance-single - ----------------
#NOTES:
     dance-single:
     :
     Hard:
     13:
     0.496682,0.545699,0.161221,0.371510,0.010514,496.000000,473.000000,23.000000,53.000000,0.000000,0.000000,0.496682,0.545699,0.161221,0.371510,0.010514,496.000000,473.000000,23.000000,53.000000,0.000000,0.000000:
// measure 0
0000
0000
0000
0000
,  // measure 1
0000
0000
0000
0000
,  // measure 2
0000
0000
0000
0000
,  // measure 3
0000
0000
0000
0000
,  // measure 4
1000
0000
0000
1000
0000
0000
1000
0000
,  // measure 5
0001
0000
0000
0001
0000
0000
0001
0000
,  // measure 6
1000
0000
0000
1000
0000
0000
1000
0000
,  // measure 7
0110
0000
0000
0110
0000
0000
0110
0000
,  // measure 8
1000
1000
0100
0010
0001
0100
0010
0010
,  // measure 9
0100
0000
0010
1000
0000
0100
0010
0000
,  // measure 10
0001
0001
0010
0100
1000
0010
0100
0100
,  // measure 11
0010
0000
0100
0001
0000
0010
0100
0000
,  // measure 12
1000
1000
0100
0010
0001
0100
0010
0010
,  // measure 13
0110
0000
0001
0101
0000
0001
1001
0000
,  // measure 14
0001
0001
0010
0100
1000
0010
0100
0100
,  // measure 15
0110
0000
1000
1010
0000
1000
1001
0000
,  // measure 16
2000
0000
0010
0010
0000
0001
3001
0010
,  // measure 17
0200
0000
1000
1000
0000
0010
0310
0000
,  // measure 18
0002
0000
0010
0010
0000
1000
1003
0010
,  // measure 19
0200
0000
0001
0001
0000
0010
0310
0000
,  // measure 20
1000
0000
0010
0100
0000
0010
1000
0000
,  // measure 21
0001
0000
0010
0100
0000
0010
0001
0000
,  // measure 22
1000
0000
0010
0100
0000
0010
1000
0100
,  // measure 23
0000
0001
0000
0100
0000
1000
0010
0000
,  // measure 24
0100
0000
0010
1000
0000
0100
0010
0000
,  // measure 25
0100
0000
0010
0001
0000
0100
0010
0000
,  // measure 26
0100
0000
0010
1000
0000
0100
0010
0001
,  // measure 27
0000
0100
0010
0000
0010
0100
0001
0001
,  // measure 28
2000
0000
0010
0010
0000
0001
3001
0000
,  // measure 29
1000
0000
0100
0010
0000
0100
1000
0000
,  // measure 30
0001
0000
0100
0010
0000
0100
0001
1000
,  // measure 31
0000
0100
0000
0001
0000
0001
0100
1000
,  // measure 32
0002
0000
0010
0010
0000
1000
1003
0000
,  // measure 33
0010
0000
0100
0001
0000
0010
0100
0000
,  // measure 34
0010
0000
0100
1000
0000
0010
0100
1000
,  // measure 35
0000
0100
0000
0010
0000
0010
1000
0000
,  // measure 36
0001
0001
0010
0001
1000
0010
0100
0010
,  // measure 37
0000
0010
1000
0001
0000
0001
0010
0100
,  // measure 38
1000
1000
0010
0100
0010
1000
0100
0010
,  // measure 39
0001
0100
0010
0100
0001
0010
0100
1000
,  // measure 40
0002
0000
0100
0203
0000
1000
2300
0000
,  // measure 41
3002
0000
0010
0023
0000
1000
2030
0000
,  // measure 42
3002
0000
0010
0023
0000
1000
2030
0000
,  // measure 43
3002
0000
0100
0203
0000
1000
2300
0000
,  // measure 44
3001
0000
0200
0000
0010
0000
1300
1000
,  // measure 45
0000
0100
0000
0001
0000
1000
1000
0001
,  // measure 46
1000
0000
0200
0000
0010
0000
0301
0001
,  // measure 47
0000
0100
0000
0011
0000
1100
1000
0001
,  // measure 48
1000
0000
0020
0000
0100
0000
0031
0001
,  // measure 49
0000
0010
0000
1000
0000
0001
0001
1000
,  // measure 50
0001
0000
0020
0000
0100
0000
1030
1000
,  // measure 51
0000
0010
0000
1100
0000
0011
0001
1000
,  // measure 52
0000
0001
0100
0020
1000
0230
0000
0001
,  // measure 53
0310
0000
0100
0000
0001
0000
0000
0000
0010
0000
0000
0000
0000
0000
0000
0000
0001
0010
0100
0000
0000
0000
0000
0000
0000
0000
0000
0000
0000
0000
0000
0000
,  // measure 54
1000
1000
0100
0010
0001
0100
0010
0010
,  // measure 55
0110
0000
0001
0101
0000
0001
1001
0000
,  // measure 56
0001
0001
0010
0100
1000
0010
0100
0100
,  // measure 57
0110
0000
1000
1010
0000
1000
1001
0000
,  // measure 58
0001
0001
0010
0001
0001
1000
0010
0100
,  // measure 59
1000
1000
0100
1000
1000
0100
0010
0000
,  // measure 60
1000
1000
0010
1000
1000
0001
0010
0100
,  // measure 61
0001
0001
0100
0001
0001
0100
0010
0001
,  // measure 62
1000
1000
0100
1000
0001
0100
0010
0100
,  // measure 63
0000
0100
0001
1000
0000
1000
0100
0010
,  // measure 64
0001
0001
0100
0010
0100
0001
0010
0100
,  // measure 65
1000
0010
0100
0010
1000
0100
0010
0000
,  // measure 66
0001
0001
0010
0001
1000
0010
0100
0010
,  // measure 67
0000
0010
1000
0001
0000
0001
0010
0100
,  // measure 68
1000
1000
0010
0100
0010
1000
0100
0010
,  // measure 69
0001
0100
0010
0100
0001
0010
0100
1000
,  // measure 70
0002
0000
0100
0203
0000
1000
2300
0000
,  // measure 71
3002
0000
0013
0020
0000
1000
2030
0000
,  // measure 72
3002
0000
0010
0023
0000
1000
2030
0000
,  // measure 73
3002
0000
0100
0203
0000
1000
2300
0000
,  // measure 74
3002
0000
1000
0203
0000
1000
0320
0000
,  // measure 75
2030
0000
0001
3200
0000
0001
0320
0000
,  // measure 76
0032
0000
1000
0203
0000
1000
0320
0000
,  // measure 77
2030
0000
0001
3200
0000
0001
0320
0000
,  // measure 78
0031
0000
0200
0000
0010
0000
1300
1000
,  // measure 79
0000
0100
0010
1000
0100
1000
0001
0000
,  // measure 80
1000
0000
0200
0000
0010
0000
0301
0001
,  // measure 81
0000
0100
0010
0011
0000
1100
1000
0001
,  // measure 82
1000
0000
0020
0000
0100
0000
0031
0001
,  // measure 83
0000
0010
0100
0001
0010
0001
1000
0000
,  // measure 84
0001
0000
0020
0000
0100
0000
1030
1000
,  // measure 85
0000
0010
0100
1100
0000
0011
0001
1000
,  // measure 86
0002
0000
0003
0000
;
