#VERSION:0.83;
#TITLE:Haunted House;
#SUBTITLE:;
#ARTIST:Chipz;
#TITLETRANSLIT:;
#SUBTITLETRANSLIT:;
#ARTISTTRANSLIT:;
#GENRE:;
#ORIGIN:;
#TAGS:;
#CREDIT:Evergreen & YOSEFU;
#BANNER:Haunted House.png;
#BACKGROUND:Haunted House-bg.png;
#PREVIEWVID:;
#JACKET:;
#CDIMAGE:;
#DISCIMAGE:;
#LYRICSPATH:;
#CDTITLE:;
#MUSIC:Haunted-House-Edit.ogg;
#OFFSET:-0.021000;
#SAMPLESTART:54.727001;
#SAMPLELENGTH:14.118000;
#SELECTABLE:YES;
#BPMS:0.000000=136.000000
;
#STOPS:;
#DELAYS:;
#WARPS:;
#TIMESIGNATURES:0.000000=4=4
;
#TICKCOUNTS:0.000000=4
;
#COMBOS:0.000000=1
;
#SPEEDS:0.000000=1.000000=0.000000=0
;
#SCROLLS:0.000000=1.000000
;
#FAKES:;
#LABELS:0.000000=Song Start
;
#BGCHANGES:;
#KEYSOUNDS:;
#ATTACKS:
;

//---------------dance-single - ----------------
#NOTEDATA:;
#CHARTNAME:;
#CHARTHASH:2147483647;
#STEPSTYPE:dance-single;
#BANNER:;
#DESCRIPTION:;
#CHARTSTYLE:;
#DIFFICULTY:Hard;
#METER:8;
#METERF:8.000000;
#LASTSECONDHINT:112.962181;
#RADARVALUES:0.295073,0.383963,0.051424,0.445671,0.038568,241.000000,235.000000,6.000000,52.000000,0.000000,1.000000,0.000000,0.000000,0.000000,0.295073,0.383963,0.051424,0.445671,0.038568,241.000000,235.000000,6.000000,52.000000,0.000000,1.000000,0.000000,0.000000,0.000000;
#CREDIT:YOSEFU & Evergreen;
#NOTES:
// measure 0
0000
0000
0000
0000
,  // measure 1
0000
0000
0000
0000
,  // measure 2
0000
0000
0000
0000
,  // measure 3
0000
0000
0000
0000
,  // measure 4
0000
0000
0000
0000
,  // measure 5
0000
0000
0000
0000
,  // measure 6
0000
0000
0000
0000
,  // measure 7
0000
0000
0000
0000
,  // measure 8
0000
0000
0000
0000
,  // measure 9
2002
0000
0000
3003
,  // measure 10
1000
0010
1000
0000
0001
0010
0001
0100
,  // measure 11
0000
0100
0001
0000
1000
0100
1000
0000
,  // measure 12
0001
0100
0001
0000
1000
0100
1000
0010
,  // measure 13
0000
0010
0100
0000
0001
1000
0001
0000
,  // measure 14
1000
0100
1000
0000
0001
0010
0001
0100
,  // measure 15
0000
0100
0010
0000
1000
0001
1000
0000
,  // measure 16
0100
0010
0100
0000
1000
0001
1000
0010
,  // measure 17
0000
0010
0100
0000
0110
0000
0000
0000
,  // measure 18
2002
0000
0000
3003
,  // measure 19
1000
0100
1000
0001
0000
1000
0001
0100
,  // measure 20
0000
0010
1000
0001
0000
1000
0100
0010
,  // measure 21
0001
0100
0010
0001
,  // measure 22
0020
0000
1030
0001
2000
0000
0100
0000
,  // measure 23
3001
0100
0001
1000
0000
0100
0010
0001
,  // measure 24
0000
1000
0010
0100
0000
0001
1000
0100
,  // measure 25
0010
0001
0100
1000
,  // measure 26
0200
0000
0000
0310
1000
0000
0100
0010
,  // measure 27
0001
0000
0000
1000
0000
0000
0010
0000
0000
0000
0000
0000
0100
0000
0001
0000
,  // measure 28
1000
0000
0000
0100
0000
0000
0010
0000
0000
0000
0000
0000
0001
0000
1000
0000
,  // measure 29
0010
0000
0000
0100
0000
0000
0001
0000
0000
0000
0000
0000
1000
0000
0001
0000
,  // measure 30
2002
0000
3003
0000
,  // measure 31
0001
0100
0000
0001
0020
0000
2030
0000
,  // measure 32
3020
0000
0030
0000
0001
1000
0100
0010
,  // measure 33
0001
0000
0100
0010
2000
0000
3200
0000
,  // measure 34
0302
0000
0003
0000
0100
2000
0000
3001
,  // measure 35
0100
0010
0000
1000
0020
0000
0032
0000
,  // measure 36
0023
0000
0030
0000
1000
0001
0100
0010
,  // measure 37
1000
0000
0100
0010
0002
0000
0203
0000
,  // measure 38
2300
0000
3000
0000
0100
0020
0000
1030
,  // measure 39
0002
0000
0000
0000
,  // measure 40
0023
0000
0000
0000
,  // measure 41
0230
0000
0000
0000
,  // measure 42
0000
0000
0000
0000
,  // measure 43
2300
0000
0000
0000
,  // measure 44
3020
0000
0000
0000
,  // measure 45
0230
0000
0000
0000
,  // measure 46
2302
0000
0000
3003
,  // measure 47
0001
0010
0001
0000
1000
0010
1000
0100
,  // measure 48
0000
0100
1000
0000
0001
0100
0001
0000
,  // measure 49
1000
0100
1000
0000
0001
0100
0001
0010
,  // measure 50
0000
0010
0100
0000
1000
0001
1000
0000
,  // measure 51
0001
0100
0001
0000
1000
0010
1000
0100
,  // measure 52
0000
0100
0010
0000
0001
1000
0001
0000
,  // measure 53
0100
0010
0100
0000
0001
1000
0001
0010
,  // measure 54
0000
0010
0100
0000
0010
0100
1000
0001
,  // measure 55
1000
0100
0000
1000
0020
0000
0032
0000
,  // measure 56
0023
0000
0000
0000
1030
0000
0000
0000
0200
0300
0000
0000
0020
0030
0000
0000
,  // measure 57
0002
0003
0100
0000
0000
0000
0001
0000
0020
0000
0000
0000
2030
0000
0000
0000
,  // measure 58
3020
0000
0000
0000
0031
0000
0000
0000
0200
0300
0000
0000
0020
0030
0000
0000
,  // measure 59
2000
3000
0010
0000
0000
0000
1000
0000
0200
0000
0000
0000
0302
0000
0000
0000
,  // measure 60
0203
0000
0300
0000
1000
0100
0010
0001
,  // measure 61
2000
0000
3020
0000
,  // measure 62
0230
0000
0000
0000
0302
0000
0000
0003
,  // measure 63
2002
0000
0000
0000
,  // measure 64
3003
0000
0000
0000
;

//---------------dance-single - XO----------------
#NOTEDATA:;
#CHARTNAME:;
#CHARTHASH:2147483647;
#STEPSTYPE:dance-single;
#BANNER:;
#DESCRIPTION:XO;
#CHARTSTYLE:;
#DIFFICULTY:Challenge;
#METER:13;
#METERF:0.000000;
#LASTSECONDHINT:112.079826;
#RADARVALUES:0.466485,0.598656,0.102847,0.411389,0.257118,381.000000,369.000000,12.000000,48.000000,30.000000,0.000000,0.000000,0.000000,0.000000,0.466485,0.598656,0.102847,0.411389,0.257118,381.000000,369.000000,12.000000,48.000000,30.000000,0.000000,0.000000,0.000000,0.000000;
#CREDIT:Evergreen & YOSEFU;
#NOTES:
// measure 0
0000
0000
0000
0000
,  // measure 1
0000
0000
0000
0000
,  // measure 2
0000
0000
0000
0000
,  // measure 3
0000
0000
0000
0000
,  // measure 4
0000
0000
0000
0000
,  // measure 5
0000
0000
0000
0000
,  // measure 6
0000
0000
0000
0000
,  // measure 7
0000
0000
0000
0000
,  // measure 8
0000
0000
0000
0000
,  // measure 9
2002
0000
0000
0000
0000
0000
0000
0000
0000
0000
0000
0000
0MM0
0MM0
0MM0
0MM0
0MM0
0000
3003
0000
0000
1000
0000
0000
,  // measure 10
0010
0001
0010
1000
0010
0001
0010
0100
,  // measure 11
0000
0100
0001
0100
0010
0001
0010
1000
,  // measure 12
0100
0001
0100
1000
0100
0001
0100
0010
,  // measure 13
0000
0010
0001
0010
0100
0001
0100
0010
,  // measure 14
0001
0000
1000
0010
0000
1000
0010
0000
0100
0001
0000
1000
0100
0000
0010
0000
,  // measure 15
0001
0000
1000
0100
0000
1000
0100
0000
0010
0001
0000
1000
0010
0000
0100
0000
,  // measure 16
0001
0000
1000
0001
0000
1000
0100
0000
0010
0001
0000
1000
0010
0000
0100
0000
,  // measure 17
0001
1000
0100
1000
0010
0001
0010
0100
,  // measure 18
2002
0000
0000
0000
0000
0000
3003
0100
,  // measure 19
1001
0000
0001
0010
0001
0000
0010
0000
0100
0000
1000
0010
1000
0000
0010
0000
,  // measure 20
0100
0000
1000
0100
1000
0000
0100
0000
0010
0000
1000
0001
1000
0000
0001
0000
,  // measure 21
0010
0000
0100
1000
0000
0001
0100
0000
0010
0000
1000
0000
0002
0000
0000
0000
,  // measure 22
2003
0000
0000
0000
0000
0000
3020
0000
0230
0000
0301
0100
0001
0000
0010
0000
,  // measure 23
0100
0000
1000
0010
1000
0000
0001
0000
0100
0000
0001
0010
0001
0000
0010
0000
,  // measure 24
0100
0000
0001
0100
0001
0000
0100
0000
0010
0000
0001
1000
0001
0000
1000
0000
,  // measure 25
0010
0000
0100
0001
0000
1000
0100
0000
1000
0000
0001
0000
0020
0000
0000
0000
,  // measure 26
0230
0000
0000
0000
0000
0000
2300
0000
3002
0000
1003
0001
1000
0000
0010
0000
,  // measure 27
1010
0000
0000
0001
0000
0000
MM11
0000
0000
0000
0010
0001
0010
0000
0001
0000
,  // measure 28
0101
0000
0000
1000
0000
0000
11MM
0000
0000
0000
1000
0100
1000
0000
0001
0000
,  // measure 29
0110
0000
0000
0001
0000
0000
1MM1
0000
0000
0000
1000
0100
1000
0000
0001
0000
,  // measure 30
1001
0000
0000
0000
MMMM
0000
0000
1000
,  // measure 31
0001
0000
0010
0100
1000
0000
0001
0000
1000
0000
0010
0100
0001
0000
0100
0000
,  // measure 32
0010
1000
0100
0010
0100
0001
0100
0010
,  // measure 33
0001
0000
1000
0100
1000
0000
0001
0000
0200
0000
0310
0000
0200
0000
1300
0000
,  // measure 34
0200
0310
1000
0001
0020
0230
0302
0203
,  // measure 35
0310
0000
0001
1000
0001
0000
0100
0000
0010
0000
1000
0001
1000
0000
0100
0000
,  // measure 36
0010
0100
1000
0001
0100
0010
0100
1000
,  // measure 37
0100
0000
0001
0100
0001
0000
1000
0000
0200
0000
0310
0000
0200
0000
0301
0000
,  // measure 38
0200
0310
0001
1000
0020
0230
2300
3200
,  // measure 39
0320
0000
0000
0000
,  // measure 40
2030
0000
0000
0000
,  // measure 41
3020
0000
0000
0000
,  // measure 42
0230
0000
0000
0000
,  // measure 43
0302
0000
0000
0000
,  // measure 44
0023
0000
0000
0000
,  // measure 45
0230
0000
0000
0000
2300
0000
0000
3000
,  // measure 46
2002
0000
0000
0000
0000
0000
0000
0000
0000
0000
0000
0000
0MM0
0MM0
0MM0
0MM0
0MM0
0000
3003
0000
0000
0001
0000
0000
,  // measure 47
0010
1000
0010
0001
0010
1000
0010
0100
,  // measure 48
0000
0100
1000
0100
0010
1000
0010
0001
,  // measure 49
0100
1000
0100
0001
0100
1000
0100
0010
,  // measure 50
0000
0010
1000
0010
0100
1000
0100
0010
,  // measure 51
1000
0000
0001
0010
0000
0001
0010
0000
0100
1000
0000
0001
0100
0000
0010
0000
,  // measure 52
1000
0000
0001
0100
0000
0001
0100
0000
0010
1000
0000
0001
0010
0000
0100
0000
,  // measure 53
1000
0000
0001
1000
0000
0001
0100
0000
0010
1000
0000
0001
0010
0000
0100
0000
,  // measure 54
1000
0001
0100
0001
0010
1000
0010
0100
,  // measure 55
1000
0000
0100
0010
0001
0000
1000
0000
0001
0000
0100
0000
1000
0000
0100
0000
,  // measure 56
0001
0010
0100
1000
0002
0103
0020
0130
,  // measure 57
0002
0000
0013
0100
1000
0000
0001
0000
1000
0000
0010
0000
0001
0000
0010
0000
,  // measure 58
1000
0100
0010
0001
2000
3010
0200
0310
,  // measure 59
2000
0000
3001
1000
0001
0000
1000
0000
0001
0000
0100
0000
1000
0000
0100
0000
,  // measure 60
0001
0010
0100
0010
1000
0010
0100
1000
,  // measure 61
0200
0000
2300
0000
,  // measure 62
3020
0000
0000
0000
0000
0000
0000
0000
0230
0000
0000
0000
0000
0000
0000
0300
,  // measure 63
0202
0000
0303
0000
;
