#TITLE:Haunt You;
#SUBTITLE:;
#ARTIST:OHKABE;
#TITLETRANSLIT:;
#SUBTITLETRANSLIT:;
#ARTISTTRANSLIT:;
#GENRE:;
#CREDIT:jenro-2024;
#MUSIC:Haunt You.ogg;
#BANNER:Haunt You.png;
#BACKGROUND:Haunt You-bg.jpg;
#CDTITLE:;
#SAMPLESTART:68.879;
#SAMPLELENGTH:11.429;
#SELECTABLE:YES;
#OFFSET:-0.308;
#BPMS:0.000=168.000
,60.000=336.000
,68.000=168.000
,96.000=336.000
,104.000=168.000
,132.000=336.000
,140.000=168.000
,168.000=336.000
,176.000=168.000
,204.000=336.000
,212.000=168.000
,240.000=336.000
,248.000=168.000
;
#STOPS:;
#BGCHANGES:;
#FGCHANGES:;

//--------------- dance-single - jenro-2024 ----------------
#NOTES:
     dance-single:
     jenro-2024:
     Beginner:
     1:
     0,0,0,0,0:
0000
0000
0000
0000
,
0000
0000
0000
0000
,
0000
0000
0000
0000
,
0000
0000
0000
0000
,
0000
0000
0000
0000
,
0000
0000
0000
0000
,
0000
0000
0000
0000
,
0000
0000
0000
0000
,
0100
0000
0000
0000
,
0100
0000
0000
0000
,
0100
0000
0000
0000
,
0100
0000
0000
0000
,
0001
0000
0000
0000
,
1000
0000
0000
0000
,
0010
0000
0000
0000
,
0001
0000
0000
0000
,
0000
0000
0000
0000
,
1000
0000
0000
0000
,
1000
0000
0000
0000
,
0010
0000
0000
0000
,
0010
0000
0000
0000
,
0001
0000
0000
0000
,
0001
0000
0000
0000
,
1001
0000
0000
0000
,
1000
0000
0000
0000
,
0000
0000
0000
0000
,
0100
0000
0000
0000
,
0100
0000
0000
0000
,
0100
0000
0000
0000
,
0100
0000
0000
0000
,
1000
0000
0000
0000
,
0001
0000
0000
0000
,
0010
0000
0000
0000
,
1000
0000
0000
0000
,
0000
0000
0000
0000
,
0010
0000
0000
0000
,
0010
0000
0000
0000
,
0010
0000
0000
0000
,
0010
0000
0000
0000
,
0001
0000
0000
0000
,
1000
0000
0000
0000
,
0010
0000
0000
0000
,
0001
0000
0000
0000
,
0000
0000
0000
0000
,
1000
0000
0000
0000
,
0100
0000
0000
0000
,
0001
0000
0000
0000
,
0100
0000
0000
0000
,
0010
0000
0000
0000
,
1000
0000
0000
0000
,
0001
0000
0000
0000
,
0100
0000
0000
0000
,
0000
0000
0000
0000
,
0010
0000
0000
0000
,
0010
0000
0000
0000
,
0010
0000
0000
0000
,
0010
0000
0000
0000
,
0001
0000
0000
0000
,
1000
0000
0000
0000
,
0010
0000
0000
0000
,
0001
0000
0000
0000
,
0000
0000
0000
0000
,
0100
0000
0000
0000
,
1001
0000
0000
0000
,
0100
0000
0010
0000
,
0001
0000
0001
0000
,
0100
0000
0000
0000
,
1001
0000
0000
0000
,
0100
0000
0010
0000
,
1000
0000
1000
0000
,
0100
0000
0000
0000
,
1001
0000
0000
0000
,
0100
0000
1001
0000
,
0100
0000
1001
0000
,
1000
0000
0000
0000
,
0001
0000
0000
0000
,
1000
0000
0000
0000
;

//--------------- dance-single - jenro-2024 ----------------
#NOTES:
     dance-single:
     jenro-2024:
     Easy:
     2:
     0,0,0,0,0:
0000
0000
0000
0000
,
0000
0000
0000
0000
,
0000
0000
0000
0000
,
0000
0000
0000
0000
,
0000
0000
0000
0000
,
0000
0000
0000
0000
,
0000
0000
0000
0000
,
0000
0000
0000
0000
,
0010
0000
0001
0000
,
1000
0000
0001
0000
,
0010
0000
1000
0000
,
0001
0000
1000
0000
,
0100
0000
1000
0000
,
0100
0000
0001
0000
,
0100
0000
1001
0000
,
0010
0000
1000
0000
,
0001
0000
0100
0000
,
0010
0000
0001
0000
,
0010
0000
1000
0000
,
1000
0000
1000
0000
,
0001
0000
0010
0000
,
0001
0000
0001
0000
,
1000
0000
0100
0000
,
0010
0000
0100
0000
,
1001
0000
0000
0000
,
0000
0000
0000
0000
,
0100
0000
0100
0000
,
0100
0000
1000
0000
,
0001
0000
0010
0000
,
0001
0000
0001
0000
,
1000
0000
0001
0000
,
0100
0000
0100
0000
,
0010
0000
0100
0000
,
0001
0000
0000
0000
,
0000
0000
0000
0000
,
1000
0000
0100
0000
,
0100
0000
0010
0000
,
0010
0000
0100
0000
,
0001
0000
0100
0000
,
0001
0000
1000
0000
,
0001
0000
0010
0000
,
0100
0000
0100
0000
,
1000
0000
0000
0000
,
0000
0000
0000
0000
,
0010
0000
1000
0000
,
0001
0000
0100
0000
,
0010
0000
0001
0000
,
1000
0000
0100
0000
,
0010
0000
0100
0000
,
0010
0000
0100
0000
,
0010
0000
0010
0000
,
1001
0000
0000
0000
,
0000
0000
0000
0000
,
1000
0000
0001
0000
,
0100
0000
0100
0100
,
0010
0000
1000
0000
,
0001
0000
1000
1000
,
0001
0000
0100
0000
,
0010
0000
0100
0000
,
1001
0000
0100
0000
,
0010
0000
0001
0000
,
1000
0000
0100
0000
,
0001
0000
1000
0000
,
1100
0000
0100
0000
,
0010
0000
0011
0000
,
0001
0000
0100
0000
,
1000
0000
1001
0000
,
1000
0000
0001
0000
,
1000
0000
0010
0000
,
0001
0000
0010
0000
,
1000
0000
0001
0000
,
1000
0000
1100
0000
,
0101
0000
1000
0000
,
0001
0000
1001
0000
,
0010
0000
0100
0000
,
0100
0000
0010
0000
,
2000
0000
3000
0000
;

//--------------- dance-single - jenro-2024 ----------------
#NOTES:
     dance-single:
     jenro-2024:
     Medium:
     6:
     0,0,0,0,0:
0000
0000
0000
0000
,
0000
0000
0000
0000
,
0000
0000
0000
0000
,
0000
0000
0000
0000
,
0000
0000
0000
0000
,
0000
0000
0000
0000
,
0000
0000
0000
0000
,
0000
0000
0000
0000
,
0001
0100
1000
0100
,
1000
0100
0001
0100
,
0010
1000
0001
0100
,
0010
0001
1000
0100
,
0010
0010
0200
0300
,
0110
0000
1001
0000
,
0010
0100
0010
0100
,
2000
0000
0000
0000
,
0000
0000
0000
0000
,
3001
0010
1000
0010
,
1000
0010
0001
0010
,
0002
1000
0103
1000
,
2000
0001
3100
0001
,
0001
0010
0100
1000
,
0001
0010
0100
1000
,
2001
0000
0000
3000
,
0200
0000
0000
0000
,
0000
0000
0000
0000
,
0310
0001
0100
0010
,
0001
0100
1000
1000
,
0010
0001
0100
0010
,
0001
0100
0001
0001
,
1000
0100
1000
0100
,
0001
0100
0001
0100
,
0020
0030
0220
0330
,
0002
0000
0000
0000
,
0000
0000
0000
0000
,
1003
1000
0010
0001
,
0001
0100
1000
1000
,
0100
0010
0001
0100
,
0010
0001
1000
0001
,
1000
0001
1000
0100
,
1000
0100
0001
0100
,
0001
0100
0010
1000
,
0001
0000
0000
0000
,
1001
0000
0000
0000
,
0001
0001
0010
1000
,
1000
0100
0001
0001
,
0100
0010
1000
0100
,
0010
1000
0001
1000
,
0001
1000
0001
0100
,
0001
0100
1000
0100
,
1000
0100
0010
0001
,
1000
0000
0000
0000
,
1001
0000
0000
0000
,
0002
0010
1003
0200
,
1300
0200
0310
0001
,
0002
0010
1003
0200
,
1300
0200
0310
0001
,
1000
0000
1100
0000
,
0101
0000
1001
0000
,
0010
0010
0110
0100
,
0200
0000
0000
0000
,
0000
0000
0000
0000
,
1300
0100
0001
0100
,
1000
0100
0001
0010
,
1000
0100
0001
0010
,
1000
1001
0001
1001
,
2000
3010
0100
0100
,
0001
0010
0001
1000
,
0100
2000
3010
0002
,
0103
2000
3100
0002
,
0013
0010
0010
0100
,
0001
1000
0001
1000
,
0010
0001
1000
0001
,
0100
0001
1000
0010
,
1000
0100
0001
0000
,
1001
0000
1000
0000
,
0001
0000
0000
0000
;

//--------------- dance-single - jenro-2024 ----------------
#NOTES:
     dance-single:
     jenro-2024:
     Hard:
     13:
     0,0,0,0,0:
0000
0000
0000
0000
,
0000
0000
0000
0000
,
0000
0000
0000
0000
,
0000
0000
0000
0000
,
0000
0000
0000
0000
,
0000
0000
0000
0000
,
0000
0000
0000
0000
,
0000
0000
0100
0000
,
0001
0000
0000
0000
0100
0000
0010
0000
0000
0000
0000
0000
0001
0000
0000
0000
0000
0000
1000
0000
0000
0100
0000
0000
,
0000
0000
0000
0001
0000
0000
0000
0000
0000
0000
0000
0000
0010
0000
0000
0000
0000
0000
1000
0000
0000
0000
0001
0000
,
1000
0000
0000
0000
0001
0000
1000
0000
0000
0000
0000
0000
0100
0000
0000
0000
0000
0000
1000
0000
0000
0100
0000
0000
,
0000
0000
0000
0010
0000
0000
0000
0000
0000
0000
0000
0000
0001
0000
0000
0000
0100
0000
0001
0000
0000
0000
1000
0000
,
0001
0000
0010
0001
0000
0000
0100
0000
0000
1000
0000
1000
,
0010
0010
0000
0000
0100
0001
0000
0000
,
2001
0000
3100
0000
,
0001
0000
0100
0000
0001
0000
0010
0000
0001
0000
1000
0000
,
0010
0000
0100
0000
0001
0000
1000
0000
0100
0000
0010
0000
,
1000
0000
0000
0000
0010
0000
0100
0000
0000
0000
0000
0000
1000
0000
0000
0000
0000
0000
0001
0000
0000
0010
0000
0000
,
0000
0000
0000
1000
0000
0000
0000
0000
0000
0000
0000
0000
0100
0000
0000
0000
0000
0000
0001
0000
0000
0000
1000
0000
,
0001
0000
0000
0000
1000
0000
0001
0000
0000
0000
0000
0000
0010
0000
0000
0000
0000
0000
0001
0000
0000
0010
0000
0000
,
0000
0000
0000
0100
0000
0000
0000
0000
0000
0000
0000
0000
1000
0000
0000
0000
0010
0000
1000
0000
0000
0000
0001
0000
,
1000
0000
0000
0000
0100
0000
1000
0000
0000
0000
0000
0000
0010
0000
0000
0000
0000
0000
0001
0000
0000
0001
0000
0000
,
0100
0100
0000
0000
0010
1000
0000
0000
,
1002
0000
0013
0000
,
1000
0000
0001
0000
1000
0000
0100
0000
0010
0000
0100
0000
,
1000
0000
0001
0000
1000
0000
0100
0000
0010
0000
0100
0000
,
1000
0000
0000
0000
0001
0000
0100
0000
0000
0000
0000
0000
0010
0000
0000
0000
0000
0000
1000
0000
0000
0001
0000
0000
,
0000
0200
0000
0000
0320
0000
0130
0000
,
0001
0000
0000
0000
1000
0000
0010
0000
0000
0000
0000
0000
1000
0000
0000
0000
0000
0000
0001
0000
0000
2000
0000
0000
,
0000
0000
0000
3200
0000
0000
0000
0000
0000
0000
0000
0000
1300
0000
0000
0000
0001
0000
0000
0000
0000
0000
0000
0000
,
0100
0100
0000
0000
0010
0000
0100
0010
,
1000
0100
0000
0000
0001
0100
0000
0000
,
2000
0000
3000
0000
,
0010
0000
1000
0000
0001
0000
0100
0000
0010
0000
0100
0000
,
0010
0000
1000
0000
0001
0000
0100
0000
0010
0000
0100
0000
,
0001
0000
0000
0000
1000
0000
0100
0000
0000
0000
0000
0000
0001
0000
0000
0000
0000
0000
1000
0000
0000
0100
0000
0000
,
0000
0010
0000
0000
0002
0000
0103
0000
,
0001
0000
0000
0000
1000
0000
0100
0000
0000
0000
0000
0000
0001
0000
0000
0000
0000
0000
1000
0000
0000
0010
0000
0000
,
0000
0000
0000
2100
0000
0000
0000
0000
0000
3000
0000
0000
0100
0000
0000
0000
0010
0000
0000
0000
0000
0000
0000
0000
,
1001
0000
1000
0000
0100
0000
1000
0010
,
1000
0010
0000
0000
0001
0100
0000
0000
,
1000
0100
0010
0000
0011
0000
1000
0100
,
1000
0000
0100
0000
1000
0000
0001
0000
1000
0000
0010
0000
,
1000
0000
0100
0000
0010
0000
0001
0000
1000
0000
0010
0000
,
1000
0000
0000
0000
0001
0000
0010
0000
0000
0000
0000
0000
1000
0000
0000
0000
0000
0000
0001
0000
0000
0010
0000
0000
,
0000
0100
0000
0000
2000
0000
3010
0000
,
1000
0000
0000
0000
0001
0000
0010
0000
0000
0000
0000
0000
1000
0000
0000
0000
0000
0000
0001
0000
0000
0100
0000
0000
,
0000
0000
0000
0012
0000
0000
0000
0000
0000
0003
0000
0000
0010
0000
0000
0000
0100
0000
0000
0000
0000
0000
0000
0000
,
1001
0000
0001
0000
0010
0000
0001
0100
,
0001
0100
0000
0000
1000
0010
0000
0000
,
0001
0010
0100
0000
1100
0000
0001
0010
,
0001
0000
1000
0000
0100
0000
0010
0000
0100
0000
1000
0000
,
0001
0000
1000
0000
0010
0000
0100
0000
0001
0000
1000
0000
,
0002
0000
1000
0000
0103
0000
1000
0010
,
0000
0100
0000
0000
0100
0000
1000
0000
,
0001
0000
0010
0100
0000
0000
0001
0000
0001
1000
0000
1000
,
0000
0000
0000
0010
0000
0000
0000
0000
0000
0000
0000
0000
0100
0000
0000
0000
0001
0000
0000
0000
0000
0000
0000
0000
,
2000
0000
0000
0000
3001
0000
0000
0000
0000
0000
0000
0000
1001
0000
0000
0000
0000
0000
0100
0000
0000
0100
0000
0000
,
0002
0010
0003
0000
0002
0010
0003
0000
,
0002
1000
0003
0000
0100
0000
1000
0001
,
1000
0000
0001
0000
1000
0000
0100
0000
1000
0000
0001
0000
,
1000
0000
0010
0000
1000
0000
0001
0000
1000
0000
0100
0000
,
1000
0000
0010
0100
0000
0000
0101
0000
0000
0001
0000
1000
,
0000
0100
1001
0100
,
1000
0000
0001
0010
0100
0000
1001
0000
,
1000
0000
0001
1000
0000
0000
1000
0000
0001
1000
0000
0000
,
1002
0000
0000
0000
0000
0000
2003
0000
0000
0000
0000
0000
0010
0000
0000
0000
3100
0000
0000
0000
0000
0002
0000
0000
,
0000
1003
0002
0103
,
0010
0000
0000
1000
0000
0000
0010
0000
0000
0001
0000
0001
,
1000
0000
0000
1100
0000
0001
1000
0000
0000
0101
0000
0001
,
1000
0000
0002
0000
0023
0000
0031
0002
,
0103
2000
3100
0110
,
0001
0010
0100
1000
0010
0100
0001
1000
,
0001
0100
1000
0100
0001
0100
1000
0000
,
0001
0100
0001
1000
,
1000
0010
0000
0000
1000
0100
0000
0000
,
1000
0000
0100
1000
0000
0000
1000
0000
0000
0001
0000
0001
;
