#TITLE:Halloween Night;
#SUBTITLE:;
#ARTIST:AKB48;
#TITLETRANSLIT:;
#SUBTITLETRANSLIT:;
#ARTISTTRANSLIT:;
#GENRE:J-DISCOTHEQUE;
#CREDIT:;
#MUSIC:Halloween Night.ogg;
#BANNER:Halloween Night.png;
#BACKGROUND:Halloween Night-bga.png;
#CDTITLE:;
#SAMPLESTART:58.533;
#SAMPLELENGTH:15.300;
#SELECTABLE:YES;
#OFFSET:0.008;
#BPMS:0.000=125.500;
#STOPS:;
#ORIGIN:;
#PREVIEWVID:;
#JACKET:Halloween Night-jacket.png;
#CDIMAGE:;
#DISCIMAGE:;
#BGCHANGES:0.000=Halloween Night.mp4=1.000=0=0=0=StretchNoLoop====,
99999.000=-nosongbg-=1.000=0=0=0=StretchNoLoop====
;
#FGCHANGES:;

//--------------- dance-single - ----------------
#NOTES:
     dance-single:
     :
     Beginner:
     1:
     0,0,0,0,0:
0000
0000
0000
0000
,
0000
0000
0000
0000
,
0000
0000
0000
0000
,
0000
0000
0000
0000
,
0000
0000
0000
0000
,
0001
0000
0000
0000
,
0001
0000
0000
0000
,
1000
0000
0000
0000
,
1000
0000
0000
0000
,
0100
0000
0000
0000
,
0010
0110
0000
0000
,
1000
0000
0000
0000
,
0001
0000
0000
0000
,
1000
0000
1000
0000
,
0100
0000
0100
0000
,
0010
0000
0010
0000
,
0001
0000
1001
0000
,
0001
0000
0001
0000
,
0100
0000
0100
0000
,
0010
0000
0010
0000
,
1000
0000
1000
0000
,
0001
0000
1001
0000
,
0010
0000
0000
0000
,
0010
0000
0000
0000
,
0100
0000
0000
0000
,
0100
0000
0000
0000
,
1000
0000
1000
0000
,
0001
0000
0001
0000
,
0010
0000
0000
0000
,
0100
0000
0000
0000
,
1000
1001
0000
0000
,
0010
0000
0010
0000
,
0100
0000
0100
0000
,
0001
0000
0001
0000
,
1000
0000
1000
0000
,
0001
0001
0001
0000
,
1000
1000
1000
0000
,
0010
0000
0010
0000
,
0100
0000
0000
0000
,
0010
0000
0010
0000
,
0100
0000
0100
0000
,
0001
0000
0001
0000
,
1000
0000
1000
0000
,
0100
0100
0100
0000
,
0010
0010
0010
0000
,
0001
0000
0001
0000
,
1000
0000
1000
0000
,
0001
0000
1000
0000
,
1001
0000
0000
0000
,
0001
0000
0100
0000
,
0010
0010
0010
0000
,
1000
0000
0000
0000
,
1000
0000
0000
0000
,
0001
0000
0000
0000
,
0001
0000
0000
0000
,
0010
0000
0010
0000
,
0100
0110
0000
0000
,
0001
0000
0001
0000
,
1000
0000
1000
0000
,
1001
0000
0000
0000
;

//--------------- dance-single - ----------------
#NOTES:
     dance-single:
     :
     Easy:
     5:
     0,0,0,0,0:
0000
0000
0000
0000
,
0000
0000
0000
0000
,
0000
0000
0000
0000
,
0000
0000
0000
0000
,
0000
0000
0000
0000
,
1000
2000
0020
3030
,
0001
0002
0020
0033
,
1000
2000
0200
3300
,
0001
0002
0200
0303
,
1000
0100
0010
0001
,
0100
0220
0000
0330
,
0010
0020
2000
3030
,
1000
0000
1000
0000
0001
2002
0000
3003
,
1000
0100
0010
0100
,
1000
0010
0100
0000
,
0001
0100
0010
0100
,
0001
1000
0001
0000
,
1000
0001
0010
0001
,
1000
0010
0100
0000
,
0001
1000
0010
1000
,
0001
0010
0100
0000
,
1000
0000
1000
0000
0200
0000
0010
0310
,
0000
0010
0001
1000
,
0010
0000
0010
0000
0200
0000
0001
0301
,
0000
0001
1000
0100
,
1000
0000
1000
0000
1000
0100
1000
0000
,
0001
0000
0001
0000
0001
0100
0001
0000
,
0010
0000
0010
0000
0010
0100
0010
0000
,
0100
0000
0100
0000
0100
0010
0100
0000
,
1000
0000
0010
0000
0100
0000
0001
1000
,
0001
2002
0000
3003
,
1000
0100
0020
0000
1030
0100
0020
0000
,
1030
0001
0010
0001
,
0001
0100
0020
0000
0031
0100
0020
0000
,
0031
1000
0100
1000
,
0010
0100
0010
0000
1000
0000
0001
0000
,
0010
0100
0010
0000
0001
0000
1000
0000
,
0020
0130
0200
0301
,
1000
1000
1000
1000
0000
0000
1001
0000
,
0001
0010
0200
0000
0301
0010
0200
0000
,
0301
1000
0010
1000
,
1000
0010
0200
0000
1300
0010
0200
0000
,
1300
0001
0010
0001
,
1000
0001
1000
0000
0010
0000
0100
0000
,
0001
1000
0001
0000
0010
0000
0100
0000
,
2000
3001
0002
1003
,
0010
0010
0010
0010
0000
0000
1001
0000
,
0002
1003
2000
3001
,
0100
0100
0100
0100
0200
0000
0300
0000
,
2000
3200
0302
0023
,
2030
0000
0000
3001
,
0001
0002
0200
0303
,
1000
2000
0200
3300
,
0001
0002
0020
0033
,
1000
2000
0020
3030
,
0001
0100
0010
1000
,
0100
0220
0000
0330
,
0010
0020
0002
0033
,
0001
0000
0000
0000
0001
0000
0000
0000
1000
0000
0010
0000
0000
0010
0000
0000
,
0020
0000
0000
0030
;

//--------------- dance-single - ----------------
#NOTES:
     dance-single:
     :
     Medium:
     9:
     0.391859,0.409738,0.231442,0.265729,0.141437,320,293,27,31,0,0,0,0,0,0.391859,0.409738,0.231442,0.265729,0.141437,320,293,27,31,0,0,0,0,0:
0000
0000
0000
0000
,
0000
0000
0000
0000
,
0000
0000
0000
0000
,
0000
0000
0000
0000
,
0000
0000
0000
0000
,
0001
0000
0000
1000
0000
1000
0000
0000
0100
0000
0000
0000
1001
0000
0000
0000
,
1000
0000
0000
0001
0000
0001
0000
0000
0100
0000
0010
0000
0020
0000
0030
0000
,
1000
0000
0000
0100
0000
0100
0000
0000
0010
0000
0000
0000
1001
0000
0000
0000
,
0001
0000
0000
0100
0000
0100
0000
0000
0010
0000
0001
0000
0000
0010
0000
0000
,
1000
0100
0010
0001
1000
0010
0100
0001
,
1000
2002
0000
3003
,
0001
0000
0000
0100
0000
0100
0000
0000
1000
0000
0000
0000
0110
0000
0000
0000
,
1000
0000
0000
0100
0000
0100
0000
0000
0001
0000
0200
0000
0000
0000
0000
0000
,
1300
0000
0010
0000
0100
0001
1000
0001
,
0000
0010
0000
0100
0000
0001
0000
0100
,
1000
1100
0001
0101
,
0001
0010
1000
0010
1000
0000
0011
0000
,
0001
0000
0010
0000
0100
1000
0001
1000
,
0000
0010
0000
0100
0000
1000
0000
0100
,
0001
0101
1000
1100
,
1000
0000
0010
0000
0000
0010
0000
0000
0010
0000
0000
0000
0101
0000
0000
0000
,
0002
0000
0010
0000
1003
0000
0001
0100
,
0000
0000
0010
0000
0000
0010
0000
0000
0010
0000
0000
0000
1001
0000
0000
0000
,
2000
0000
0100
0000
3001
0000
1000
0010
,
0000
0000
0100
0000
0000
0001
0000
0000
1000
0000
0001
0000
0001
0000
0000
0000
,
1000
0100
1000
0100
0001
0100
1000
0000
,
0001
0100
0001
0100
1000
0100
0010
1000
,
0002
0010
2003
0010
,
3002
0100
2003
0100
,
3002
0000
0010
0000
1003
0100
0010
0001
,
1000
0000
2002
0000
3003
0001
0100
0020
,
0000
0100
0000
2030
0000
0100
0000
3001
,
0000
0101
0000
1010
0000
1000
0001
2000
,
0000
0100
0000
3002
0000
0010
0000
0103
,
0000
0101
0000
1010
0000
0010
1000
0100
,
0000
0100
1000
0010
0100
0001
0001
0020
,
0000
0031
0100
0010
1000
0001
0001
0000
,
1000
0100
1000
0100
0001
0100
0001
0100
,
0010
0100
0010
0100
1000
0010
0100
0002
,
0000
0010
0000
0203
0000
1000
0000
0310
,
0000
0110
0000
1001
0000
1000
0001
2000
,
0000
0010
0000
3200
0000
0001
0000
0310
,
0000
0110
0000
1001
0000
0001
1000
0020
,
0000
1030
0100
0010
0001
1000
1000
0002
,
0000
0103
0010
1000
0001
1000
1000
0002
,
0000
0013
0001
0100
0010
1000
0100
1000
,
0001
0100
1000
0100
0000
0001
0000
0020
,
0000
0130
1000
0010
0100
0001
0010
0001
,
0100
0100
0100
0100
0010
0000
1000
0000
,
1002
0023
2030
3200
,
0301
0000
0000
0010
0000
0010
0000
0010
0100
0000
0000
0000
1001
0000
0000
0000
,
1000
0000
0000
0001
0000
0001
0000
0000
0100
0000
0000
0000
1001
0000
0000
0000
,
0001
0000
0000
1000
0000
1000
0000
0000
0100
0000
0010
0000
0020
0000
0030
0000
,
0001
0000
0000
0100
0000
0100
0000
0000
0010
0000
0000
0000
1001
0000
0000
0000
,
1000
0000
0000
0100
0000
0100
0000
0000
0010
0000
1000
0000
0000
0010
0000
0000
,
0001
0100
0010
1000
0001
0010
0100
1000
,
0001
2002
0000
3003
,
1000
0000
0000
0100
0000
0100
0000
0000
0001
0000
0000
0000
0110
0000
0000
0000
,
0001
0000
0000
0100
0000
0100
0000
0000
1000
0000
0100
0000
0000
0010
0000
0000
,
2020
0000
0000
3030
;

//--------------- dance-single - ----------------
#NOTES:
     dance-single:
     :
     Hard:
     12:
     0.560848,0.588998,0.274301,0.651466,0.321447,458,426,32,76,0,0,0,0,0,0.560848,0.588998,0.274301,0.651466,0.321447,458,426,32,76,0,0,0,0,0:
0000
0000
0000
0000
,
0000
0000
0000
0000
,
0000
0000
0000
0000
,
0000
0000
0000
0000
,
0000
0000
0000
0000
,
1000
0001
0000
0010
0000
0010
0000
0001
1000
0000
0000
0000
1001
0000
0000
0000
,
0001
1000
0000
0010
0000
0010
0000
1000
0001
0000
0010
0000
0100
0000
0001
0000
,
0100
1000
0000
0001
0000
0001
0000
1000
0010
0000
0000
0000
1002
0000
0000
0000
,
0013
0100
0000
1000
0000
1000
0000
0001
0010
0000
0001
0000
0100
0000
1000
0000
,
0200
0302
2003
3200
0302
2003
3020
0032
,
0103
0220
0000
0330
,
0010
1000
0000
0100
0000
0100
0000
0010
0001
0000
1000
0000
0010
0000
1000
0001
,
0010
0100
0000
1000
0000
1000
0000
0001
0100
0000
2002
0000
0000
0000
3003
0000
,
1000
0100
0010
0100
0001
0100
1000
0001
,
0100
0010
1000
0100
1000
0001
0010
0100
,
1000
0000
0001
0000
0100
0000
0001
1000
0100
0000
0010
0000
0001
0000
0100
0000
,
0001
0000
1000
0010
1000
0000
0001
0010
0001
0000
1000
0001
1000
0010
0100
0000
,
0001
0100
0010
0100
1000
0100
0001
1000
,
0100
0010
0001
0100
0001
1000
0010
1000
,
0100
1000
0010
0000
1000
0001
0010
0001
,
0100
0000
0101
0000
0000
1010
0000
0000
1001
0000
1000
0000
0001
0000
0100
0000
,
0010
0000
0101
0000
1000
0000
1100
2000
,
0000
0000
0010
0000
0000
0001
0000
0000
3010
0000
1000
0000
1000
0000
0001
0000
,
0100
0001
0021
0000
0230
0000
1300
0020
,
0000
0000
1000
0000
0000
0100
0000
0000
1030
0000
0001
0000
0001
0000
1000
0000
,
0100
0001
0100
1000
0010
0100
0001
1000
,
0001
0100
1000
0100
0001
0010
0100
1000
,
0002
0000
0100
0000
0103
0000
0001
0000
2000
0000
3001
0010
0000
0100
0000
1000
,
0002
0000
0100
0000
0103
0000
0001
0000
1000
0000
0001
0000
0010
0100
1000
0001
,
2000
0000
0010
0000
3010
1000
0001
0000
0100
0000
0001
0010
0100
1000
0010
0100
,
0010
0000
2002
0000
3003
1000
0001
2000
,
0010
3002
0010
2003
0100
3002
0100
0023
,
0100
0032
0100
2003
0010
3200
0320
0032
,
0100
2003
0100
3002
0010
2003
0010
3200
,
0010
2300
0010
3002
0100
0023
0230
2300
,
3100
0001
0100
1000
0010
1010
1010
0001
,
0100
1000
0100
0001
0010
0011
0011
0100
,
1000
0010
0001
0010
1000
0001
0010
1000
,
0010
0010
0001
0200
0000
0310
0100
0120
,
1000
0230
0001
0320
0100
2030
0001
3200
,
0010
2300
0001
3020
0130
0002
0023
0230
,
1000
0320
0100
0032
0100
2003
0010
3002
,
0100
0023
0100
0032
1003
0002
0023
0230
,
1300
0010
0100
0001
1000
0101
0101
1000
,
0010
0001
0010
1000
0100
1100
1100
0010
,
0001
0100
1000
0100
0001
1000
0100
0001
,
0100
0100
1000
0020
0030
0110
0110
0100
,
0001
0010
1000
0001
0100
1000
0010
0001
,
0011
0000
0011
0000
0110
0000
0110
0000
0102
0000
0000
0000
1003
0000
0100
0010
,
0002
0100
2003
0010
3002
0010
2003
0100
,
3001
0100
0000
0100
0000
0100
0000
0010
1000
0000
0100
0010
0002
0000
0003
0000
,
1000
0010
0000
0100
0000
0100
0000
0001
1000
0000
0100
0000
0002
0000
0103
0000
,
0010
0001
0000
0100
0000
0100
0000
0010
1000
0000
0010
0100
0010
0000
0001
0000
,
0010
0100
0000
0001
0000
0001
0000
0010
0100
0000
0010
0000
2000
0000
3010
0000
,
0001
1000
0000
0100
0000
0100
0000
0010
0001
0000
1000
0010
0200
0000
1300
0000
,
0100
0001
1000
0100
0010
0001
0100
0010
,
1000
0220
0000
0330
,
0010
1000
0000
0100
0000
0100
0000
0010
1000
0000
0010
0000
0200
0000
1300
0000
,
0001
0100
0000
0010
0000
0010
0000
0001
0010
0000
0110
0000
0000
1010
0000
0000
,
2002
0000
0000
3003
;
