#VERSION:0.83;
#TITLE:HOLLOW HUNGER;
#SUBTITLE:;
#ARTIST:QxT;
#TITLETRANSLIT:;
#SUBTITLETRANSLIT:;
#ARTISTTRANSLIT:;
#GENRE:;
#ORIGIN:;
#CREDIT:;
#BANNER:HOLLOW HUNGER.png;
#BACKGROUND:HOLLOW HUNGER-bg.png;
#PREVIEWVID:;
#JACKET:HOLLOW HUNGER-jacket.png;
#CDIMAGE:;
#DISCIMAGE:;
#LYRICSPATH:HOLLOW HUNGER.lrc;
#CDTITLE:;
#MUSIC:HOLLOW HUNGER.ogg;
#OFFSET:-2.145099;
#SAMPLESTART:48.629410;
#SAMPLELENGTH:24.000000;
#SELECTABLE:YES;
#BPMS:0.000=160.000,
249.000=80.000,
266.000=160.000,
333.500=80.000;
#STOPS:22.000=0.375,
119.000=1.125,
180.000=1.125,
249.000=0.750,
333.500=0.563;
#DELAYS:;
#WARPS:;
#TIMESIGNATURES:0.000=4=4;
#TICKCOUNTS:0.000=4;
#COMBOS:0.000=1;
#SPEEDS:0.000=1.000=0.000=0;
#SCROLLS:0.000=1.000;
#FAKES:;
#LABELS:0.000=Song Start;
#BGCHANGES:;
#KEYSOUNDS:;
#ATTACKS:
;

//---------------dance-single - ----------------
#NOTEDATA:;
#CHARTNAME:;
#STEPSTYPE:dance-single;
#DESCRIPTION:;
#CHARTSTYLE:;
#DIFFICULTY:Challenge;
#METER:13;
#RADARVALUES:0.573735,0.632733,0.482213,0.303105,0.378882,583.000000,513.000000,70.000000,44.000000,17.000000,0.000000,0.000000,0.000000,0.000000,0.573735,0.632733,0.482213,0.303105,0.378882,583.000000,513.000000,70.000000,44.000000,17.000000,0.000000,0.000000,0.000000,0.000000;
#CREDIT:hdm300;
#NOTES:
// measure 0
0000
0000
0000
0000
,  // measure 1
0000
0000
0000
0000
,  // measure 2
1010
0110
1010
1001
,  // measure 3
0011
0110
0011
1001
,  // measure 4
1010
0110
1010
1001
,  // measure 5
0001
0000
0010
0000
0100
0000
1000
0000
0001
0000
0100
0000
0020
0000
0000
0030
0000
0000
0100
0000
0000
0000
0000
0000
,  // measure 6
0100
0000
0000
0000
0010
0000
0000
0000
0010
0000
0000
0000
0100
0000
0000
0001
,  // measure 7
0000
0010
0100
0000
1000
0000
0010
0000
,  // measure 8
0010
0000
0000
0000
0100
0000
0000
0000
0100
0000
0000
0000
0010
0000
0000
1000
,  // measure 9
0000
0000
0100
0000
0010
0000
0001
1000
0001
0000
0000
0000
1000
0000
0100
0000
,  // measure 10
0010
0001
0100
0010
0001
0000
0001
0010
,  // measure 11
0100
0000
0001
0000
0010
0000
0100
0000
1000
0000
0000
0000
0200
0000
0000
1000
,  // measure 12
0000
0000
0010
0000
0320
0000
0000
0100
0000
0000
0031
0000
0011
0000
0000
0110
,  // measure 13
0000
0000
0011
0000
1001
0000
0001
1000
0001
0000
0000
0000
1000
0000
0000
0000
,  // measure 14
0010
0000
0100
0000
1000
0000
0000
0000
1000
0000
0100
0000
0010
0000
0000
0100
,  // measure 15
0000
0001
0001
0000
1000
0000
0001
0000
,  // measure 16
0010
0000
0100
0000
0001
0000
0000
0000
0001
0000
0100
0000
0010
0000
0000
0100
,  // measure 17
0000
0000
1000
0000
1000
0000
0001
1000
0001
0000
0000
0000
0010
0000
0100
0000
,  // measure 18
1000
0001
0100
0010
0001
0000
0001
0010
,  // measure 19
0100
0001
1000
0100
0010
0000
1100
0000
,  // measure 20
0110
0000
0000
0000
1100
0000
0100
0000
0010
0000
0000
0000
0110
0000
0000
0011
,  // measure 21
0000
0000
0000
1001
0000
0000
1000
0000
0010
0000
0100
0000
0001
0000
0000
0000
0000
0000
2000
0000
0000
0000
0000
0000
,  // measure 22
0000
3002
0000
2003
,  // measure 23
0000
0000
0000
0000
3002
0000
0000
0000
0000
0000
0000
0000
1003
0000
0000
1000
,  // measure 24
0000
0000
0100
0000
0010
0000
0000
0010
0000
0000
0001
0010
0001
0000
0000
0001
,  // measure 25
0000
1000
0001
0000
1000
0000
0011
0000
,  // measure 26
1010
0011
1000
0101
,  // measure 27
1100
0000
0000
0000
0101
0000
0000
0000
1000
0000
0000
0000
0010
0000
0000
0010
,  // measure 28
0000
0000
0100
0000
0001
0000
0000
0001
0000
0000
1000
0000
0001
0010
0001
0000
,  // measure 29
1000
0001
1000
0000
0010
0000
0010
0000
0100
0000
0001
0000
1001
0000
0000
0000
,  // measure 30
0011
0000
0000
0001
0100
00M0
0100
0000
1000
0000
0000
0000
1001
0000
0000
0000
,  // measure 31
1010
0000
0000
1000
0100
00M0
0100
0000
0002
0000
0000
0000
1003
0000
0000
0000
,  // measure 32
0011
0000
0000
0000
0000
0000
0001
0000
0100
0000
0000
00M0
0000
0000
0100
0000
1000
0000
0000
0000
0000
0000
1000
0000
0010
0000
0000
0M00
0000
0000
0010
0000
,  // measure 33
0002
0000
2000
3003
,  // measure 34
1000
0000
0000
0000
0000
0000
1000
0000
0100
0000
0000
00M0
0000
0000
0100
0000
0001
0000
0000
0000
0000
0000
0001
0000
1000
0000
0000
0000
0000
0000
1000
0000
,  // measure 35
0200
0010
0001
0010
,  // measure 36
1300
0000
0000
0000
0000
0000
1000
0000
0010
0000
0000
0M00
0000
0000
0010
0000
0001
0000
0000
0000
0000
0000
0001
0000
1000
0000
0000
0000
0000
0000
0000
0000
,  // measure 37
0002
0000
0000
1000
2000
0000
3003
0000
,  // measure 38
1010
0000
0000
1000
0100
00M0
0100
0000
0001
0000
0000
0000
1001
0000
0000
0000
,  // measure 39
0011
0000
0000
0001
0100
00M0
0100
0000
2000
0000
0000
0000
3001
0000
0000
0000
,  // measure 40
1010
0000
0000
0000
0000
0000
1000
0000
0100
0000
0000
00M0
0000
0000
0100
0000
0001
0000
0000
0000
0000
0000
0001
0000
0010
0000
0000
0M00
0000
0000
0010
0000
,  // measure 41
2000
0000
0002
3003
,  // measure 42
0001
0000
0000
0000
0000
0000
0001
0000
0100
0000
0000
00M0
0000
0000
0100
0000
1000
0000
0000
0000
0000
0000
1000
0000
0001
0000
0000
0000
0000
0000
0001
0000
,  // measure 43
0200
0010
1000
0010
,  // measure 44
0301
0000
0000
0000
0000
0000
0001
0000
0010
0000
0000
0M00
0000
0000
0010
0000
1000
0000
0000
0000
0000
0000
1000
0000
0001
0000
0000
0000
0000
0000
0000
0000
,  // measure 45
1001
0000
0000
0000
1000
0000
0100
1000
0100
0000
1000
0000
0001
0000
0100
0001
,  // measure 46
0100
0001
1000
0100
0010
0001
1000
0010
,  // measure 47
0001
0000
0010
0000
1000
0000
0010
1000
0010
0000
1000
0000
0001
0000
0010
0001
,  // measure 48
0010
0000
0001
0000
1000
0000
0010
0100
0010
0000
1000
0000
0002
0000
0000
0000
,  // measure 49
1003
0000
0000
0000
0001
0010
0001
0000
1000
0000
0001
0100
0001
0000
1000
0000
,  // measure 50
0001
0010
0001
0000
1000
0100
0000
0100
0010
0000
0010
0001
0000
0001
1000
0000
,  // measure 51
0010
0100
0020
0000
1000
2030
0000
3001
,  // measure 52
0001
0010
0100
1000
0001
0100
1000
0100
,  // measure 53
0001
0010
0011
0000
1001
0000
1010
0000
,  // measure 54
0110
1010
1001
0011
,  // measure 55
0110
0011
1001
1010
,  // measure 56
0110
0000
0000
0010
0100
0010
1000
0010
1000
0100
0010
0001
,  // measure 57
1000
0101
1001
1100
,  // measure 58
0110
1100
1001
0101
,  // measure 59
0110
1010
0110
0101
,  // measure 60
1001
0000
0000
0000
0001
0000
0010
0000
0100
0000
1000
0000
0010
0000
0100
0010
,  // measure 61
0100
0000
0000
0001
0100
0010
1000
0001
0010
0200
0000
0000
,  // measure 62
0000
0000
0310
0000
0002
0100
0023
0230
,  // measure 63
2300
0010
3200
0010
2300
3020
0230
0302
,  // measure 64
0023
0100
0031
0001
2000
0100
3020
0230
,  // measure 65
0302
2003
3200
0320
0032
0100
0023
0100
,  // measure 66
0031
0000
0000
0001
0000
0000
0001
0000
1000
0000
0000
0000
0000
0000
0000
0000
0011
0000
0000
0000
0000
0000
0001
0000
0100
0000
00M0
0000
0100
0000
0000
0000
,  // measure 67
1000
0000
0000
0000
1001
0000
0000
0000
1010
0000
0000
1000
0100
00M0
0100
0000
,  // measure 68
0002
0000
0000
0000
0000
0000
0000
0000
1003
0000
0000
0000
0000
0000
0000
0000
0011
0000
0000
0000
0000
0000
0001
0000
0100
0000
0000
00M0
0000
0000
0100
0000
,  // measure 69
1000
0000
0000
0000
0000
0000
1000
0000
0010
0000
0000
0M00
0000
0000
0010
0000
0001
0000
0000
0000
0000
0000
0000
0000
0110
0000
0000
0000
0000
0000
0000
0000
,  // measure 70
2002
0000
0000
0000
3003
0000
0000
0000
1000
0000
0000
1000
0100
0000
0000
0100
,  // measure 71
0001
0000
0000
0001
1000
0000
0000
1000
0200
0000
0000
0000
0010
0000
0000
0000
,  // measure 72
0001
0000
0000
0000
0000
0000
0000
0000
0010
0000
0000
0000
0000
0000
0000
0000
1300
0000
0000
0000
0000
0000
1000
0000
0010
0000
0000
0M00
0000
0000
0010
0000
,  // measure 73
0001
0000
0000
0001
1000
0000
0000
0000
0010
0000
0100
0000
0000
0000
0100
0000
,  // measure 74
0001
0000
0010
0000
0100
0000
1000
0000
0001
0000
0100
0010
0100
0000
1000
0000
,  // measure 75
0100
0010
1000
0001
0000
0001
0100
0010
,  // measure 76
0001
0000
1000
0000
0100
0000
0010
0000
1000
0000
0100
0010
0100
0000
0001
0000
,  // measure 77
0100
0010
0001
1000
0000
0110
0000
0001
,  // measure 78
0010
0000
0100
0000
1000
0000
0001
0000
1000
0000
0100
0010
0100
0000
0001
0000
,  // measure 79
0100
0010
0001
1000
0000
1000
0100
0010
,  // measure 80
1000
0000
0001
0000
0100
0000
0010
0000
0001
0000
0100
0010
0100
0000
1000
0000
,  // measure 81
0100
0010
1000
0001
0000
0110
0000
0001
,  // measure 82
1000
0100
0010
1000
0000
0001
0000
0100
,  // measure 83
0010
0001
0100
0010
0100
0000
0000
0000
;
