#TITLE:God is Watching;
#SUBTITLE:;
#ARTIST:Drawn Together;
#TITLETRANSLIT:;
#SUBTITLETRANSLIT:;
#ARTISTTRANSLIT:;
#GENRE:VEGGIEFABLES;
#CREDIT:;
#BANNER:;
#BACKGROUND:;
#LYRICSPATH:;
#CDTITLE:;
#MUSIC:God is Watching.ogg;
#OFFSET:0.004000;
#SAMPLESTART:1.992666;
#SAMPLELENGTH:12.000000;
#SELECTABLE:YES;
#BPMS:0.000000=120.000000
;
#STOPS:
;
#BGCHANGES:0.000=God is Watching.mp4=1.000=0=0=0=StretchNoLoop====,
99999=-nosongbg-=1.000=0=0=0 // don't automatically add -songbackground-
;
#KEYSOUNDS:;
#ATTACKS:TIME=16.010000:LEN=2.000000:MODS=33% Drunk:TIME=18.010000:LEN=4.000000:MODS=66% Drunk:TIME=22.010000:LEN=4.000000:MODS=100% Drunk:TIME=25.510000:LEN=0.500000:MODS=Confusion:TIME=26.010000:LEN=5.000000:MODS=*8 0% Confusion:TIME=26.010000:LEN=5.000000:MODS=100% Drunk:TIME=29.010000:LEN=5.000000:MODS=*8 0% Drunk;

//---------------dance-single - ----------------
#NOTES:
     dance-single:
     :
     Hard:
     11:
     0.569414,0.630084,0.298265,0.244035,0.162690,147.000000,135.000000,11.000000,9.000000,3.000000,1.000000,0.569414,0.630084,0.298265,0.244035,0.162690,147.000000,135.000000,11.000000,9.000000,3.000000,1.000000:
0000
0000
0000
0000
,
0001
1000
0001
0010
0100
1000
0010
0100
,
1000
0100
0010
0100
0001
0010
0100
1000
,
0010
0M00
0010
0000
0001
0000
1000
0000
0100
00M0
0100
0000
0001
0000
1000
0001
,
0010
0M00
0010
0000
1000
0000
0100
0000
0010
0001
1000
0001
0010
0000
0100
0000
,
1000
0001
1000
0100
1000
0010
0100
1000
,
0100
0000
0000
0010
0000
0000
1000
0000
0000
0100
0000
0000
0010
0000
0000
0001
0000
0000
1000
0000
0001
1000
0000
0000
,
0001
0000
0100
0010
1000
0000
1000
0000
0001
0000
0001
0000
0010
0000
0100
0000
,
2002
3003
1000
0010
0001
0010
1000
0001
,
1010
0000
0001
0000
0100
0000
0010
0000
1000
0000
1000
0000
0100
0010
0001
0000
,
1100
0001
2000
0010
0001
0100
3001
1000
,
0011
1000
0100
0010
0101
1000
0001
0100
,
0011
0000
1000
0010
1100
0000
0001
0000
1010
0000
0100
0000
0002
0000
0103
0000
,
1010
0000
0001
0000
0100
0000
0010
0000
1100
0001
0010
0000
0100
0000
1000
0000
,
2022
0000
0000
3033
0000
0000
0000
0000
,
1000
0000
0001
1000
0000
0000
0001
0000
0000
0100
0000
0000
0010
0000
0000
1000
0000
0000
0200
0000
0000
0000
0000
0000
,
1300
0001
1000
0100
1000
0010
0001
0010
,
0100
0001
0010
0100
1000
0100
0002
0003
;

//---------------dance-single - ----------------
#NOTES:
     dance-single:
     :
     Medium:
     9:
     0.445460,0.436212,0.271150,0.189805,0.000000,115.000000,105.000000,10.000000,7.000000,0.000000,0.000000,0.445460,0.436212,0.271150,0.189805,0.000000,115.000000,105.000000,10.000000,7.000000,0.000000,0.000000:
// measure 0
0000
0000
0000
0000
,  // measure 1
0001
0010
0001
0100
0010
1000
0100
0010
,  // measure 2
0002
0000
0010
0000
0103
0000
0001
0100
,  // measure 3
0010
0010
0100
0000
0001
0001
1000
0000
,  // measure 4
1100
0000
0011
0000
0001
0100
0010
0000
,  // measure 5
1000
0100
1000
0010
0100
0001
0010
0100
,  // measure 6
2000
0000
0100
0000
3010
0000
1000
0010
,  // measure 7
1000
0100
0010
0010
0001
0001
0100
0010
,  // measure 8
0110
0000
0010
0100
0001
1000
0001
0000
,  // measure 9
0011
0001
0010
0100
1000
1000
0010
0100
,  // measure 10
0101
0002
0010
1003
,  // measure 11
0011
0001
1000
0000
1010
1000
0001
0000
,  // measure 12
0011
0000
1100
0000
0011
0010
2000
0000
,  // measure 13
3010
0001
0100
0001
0010
0100
1000
0010
,  // measure 14
0200
0000
0300
0000
,  // measure 15
0001
0001
0010
0100
1000
0100
0020
0000
,  // measure 16
0031
0100
0001
1000
0010
0100
1000
0100
,  // measure 17
0010
1000
0100
0010
0001
1000
0020
0030
;

//---------------dance-single - ----------------
#NOTES:
     dance-single:
     :
     Easy:
     6:
     0.267276,0.336903,0.244035,0.135575,0.000000,69.000000,60.000000,9.000000,5.000000,0.000000,0.000000,0.267276,0.336903,0.244035,0.135575,0.000000,69.000000,60.000000,9.000000,5.000000,0.000000,0.000000:
// measure 0
0000
0000
0000
0000
,  // measure 1
0001
1000
0100
0010
,  // measure 2
1000
0010
0001
0100
,  // measure 3
0010
0010
0100
0100
,  // measure 4
0001
0010
0100
1000
,  // measure 5
0001
0100
0010
0001
,  // measure 6
0010
0100
0001
0010
,  // measure 7
0100
0100
0010
0001
,  // measure 8
2002
3003
0001
0100
,  // measure 9
0110
0010
0100
0001
,  // measure 10
1001
2000
0010
3001
,  // measure 11
1010
1000
0011
0001
,  // measure 12
1100
0101
1002
0103
,  // measure 13
0001
0010
1000
0100
,  // measure 14
0002
0003
0000
0000
,  // measure 15
0000
0000
0000
0000
,  // measure 16
0001
0010
0100
0001
,  // measure 17
0100
0010
0001
1001
;

//---------------dance-single - ----------------
#NOTES:
     dance-single:
     :
     Beginner:
     2:
     0.154943,0.192516,0.000000,0.027115,0.000000,40.000000,40.000000,0.000000,1.000000,0.000000,0.000000,0.154943,0.192516,0.000000,0.027115,0.000000,40.000000,40.000000,0.000000,1.000000,0.000000,0.000000:
// measure 0
0000
0000
0000
0000
,  // measure 1
0001
0000
0010
0010
,  // measure 2
0010
0000
0100
0000
,  // measure 3
1000
1000
1000
0000
,  // measure 4
0001
0001
0001
0000
,  // measure 5
0100
0000
0010
0010
,  // measure 6
0010
0000
0100
0000
,  // measure 7
0001
0000
0010
0010
,  // measure 8
0010
0000
0000
0000
,  // measure 9
0100
0000
1000
1000
,  // measure 10
1000
0000
0000
0000
,  // measure 11
0010
0000
0100
0000
,  // measure 12
0001
0001
0001
0000
,  // measure 13
0010
0010
0010
0010
,  // measure 14
0020
0030
0000
0000
,  // measure 15
0000
0000
0000
0000
,  // measure 16
0100
0000
1000
1000
,  // measure 17
1000
0000
0001
0001
;
