#VERSION:0.83;
#TITLE:ギミチョコ!!;
#SUBTITLE:;
#ARTIST:BABYMETAL;
#TITLETRANSLIT:Gimme Chocolate!!;
#SUBTITLETRANSLIT:;
#ARTISTTRANSLIT:;
#GENRE:;
#ORIGIN:;
#CREDIT:azureFrights;
#BANNER:Gimme Chocolate!!-bn.jpg;
#BACKGROUND:Gimme Chocolate!!-bg.jpg;
#PREVIEWVID:;
#JACKET:Gimme Chocolate!!-jacket.jpg;
#CDIMAGE:;
#DISCIMAGE:;
#LYRICSPATH:Gimme Chocolate!!.lrc;
#CDTITLE:;
#MUSIC:Gimme Chocolate!!.ogg;
#OFFSET:-4.367000;
#SAMPLESTART:39.276001;
#SAMPLELENGTH:17.455000;
#SELECTABLE:YES;
#BPMS:0.000=220.000;
#STOPS:;
#DELAYS:;
#WARPS:;
#TIMESIGNATURES:0.000=4=4;
#TICKCOUNTS:0.000=4;
#COMBOS:0.000=1;
#SPEEDS:0.000=1.000=0.000=0;
#SCROLLS:0.000=1.000;
#FAKES:;
#LABELS:0.000=Song Start;
#BGCHANGES:-16.000=Gimme Chocolate!!.mp4=1.000=1=0=1===CrossFade==,
99999=-nosongbg-=1.000=0=0=0 // don't automatically add -songbackground-
;
#KEYSOUNDS:;
#ATTACKS:
;

//---------------dance-single - ----------------
#NOTEDATA:;
#CHARTNAME:;
#STEPSTYPE:dance-single;
#DESCRIPTION:;
#CHARTSTYLE:;
#DIFFICULTY:Hard;
#METER:13;
#RADARVALUES:0.680587,0.747970,0.212880,0.080748,0.000000,649.000000,620.000000,29.000000,11.000000,0.000000,0.000000,6.000000,0.000000,0.000000,0.680587,0.747970,0.212880,0.080748,0.000000,649.000000,620.000000,29.000000,11.000000,0.000000,0.000000,6.000000,0.000000,0.000000;
#CREDIT:azureFrights;
#NOTES:
// measure 0
0000
0000
0000
0000
,  // measure 1
0000
0000
0000
0000
,  // measure 2
0000
0000
0000
0000
,  // measure 3
0000
0000
0000
0000
,  // measure 4
1000
0100
0010
0100
1000
0100
0000
0020
,  // measure 5
0000
0031
0100
0010
0100
0001
0000
2000
,  // measure 6
0000
3100
0010
0100
1000
0100
0000
0020
,  // measure 7
0000
0031
0100
0001
1000
0100
1000
0100
,  // measure 8
0010
0001
0010
0000
0100
1000
0000
0000
,  // measure 9
0010
1000
0010
0000
0100
0001
0000
0000
,  // measure 10
1000
0010
1000
0000
0001
0010
0000
0000
,  // measure 11
0100
1000
0100
0000
0010
0100
0000
0000
,  // measure 12
1000
0100
1000
0001
0100
0010
0000
0000
,  // measure 13
1000
0010
1000
0001
1000
0100
0000
0000
,  // measure 14
1000
0100
0010
0001
0100
0010
0000
0000
,  // measure 15
1000
1010
1001
0101
,  // measure 16
0001
0100
0001
0100
0001
0000
1000
0100
,  // measure 17
0000
0010
0100
1000
0100
0000
1000
0000
,  // measure 18
0010
1000
0010
1000
0010
0000
0100
0001
,  // measure 19
0000
1000
0001
0100
0010
0000
1000
0000
,  // measure 20
0001
0020
0000
0030
0100
2000
0000
3000
,  // measure 21
0010
0200
0000
0300
0001
2000
0000
3000
,  // measure 22
0100
0010
0001
1000
0100
0010
0001
1000
,  // measure 23
0010
0100
0010
0100
0010
0100
0000
0000
,  // measure 24
0001
0000
0101
0000
0001
0100
0010
1000
,  // measure 25
0000
0001
0000
1000
0000
0100
0000
0010
,  // measure 26
0000
0001
0000
1000
0000
0100
0000
0010
,  // measure 27
0000
0010
0000
0001
0100
0010
0100
0001
,  // measure 28
1000
0000
1100
0000
0100
0010
0001
1000
,  // measure 29
0000
0001
0000
0100
0000
0010
0000
1000
,  // measure 30
0000
0010
0000
1000
0000
0100
0000
0010
,  // measure 31
0000
0001
0000
1000
0100
0010
0100
1000
,  // measure 32
0001
0000
0101
0000
0001
0100
0010
1000
,  // measure 33
0000
0010
0000
0100
0000
0001
0000
1000
,  // measure 34
0000
0100
0000
0010
0000
0001
0000
0100
,  // measure 35
0000
0001
0000
1000
0100
0001
0100
1000
,  // measure 36
0100
0000
0110
0000
0010
0001
0010
0100
,  // measure 37
0000
0001
0000
0100
0000
1000
0000
0001
,  // measure 38
0000
0100
0000
1000
0000
0100
0000
0001
,  // measure 39
0000
1000
0000
0100
0010
0000
0110
0000
,  // measure 40
1000
0100
0000
1100
0000
1100
0000
0001
,  // measure 41
0000
0100
0000
0101
0000
0101
0000
1000
,  // measure 42
0000
0010
0000
1010
0000
1010
0000
0001
,  // measure 43
0000
0000
0010
0000
0001
0010
0001
0010
,  // measure 44
0100
1000
0001
0100
0000
0100
0000
0010
,  // measure 45
0000
0000
1000
0010
0000
0010
0000
0100
,  // measure 46
0000
0000
0001
1000
0000
1000
0000
0100
,  // measure 47
0000
0010
0100
0000
1000
0000
0100
1000
,  // measure 48
0400
0000
0000
0000
,  // measure 49
0000
0000
0300
0000
0000
1000
1000
1000
,  // measure 50
0040
0000
0000
0000
0030
0000
0010
4000
,  // measure 51
0000
0000
0000
3000
0004
0000
0000
0003
,  // measure 52
4000
0100
0001
3100
,  // measure 53
0001
0100
0010
0000
1000
0010
0100
0000
,  // measure 54
0004
0100
1000
0103
,  // measure 55
1000
0100
0001
0000
0001
0100
1000
0000
,  // measure 56
0010
1000
0001
0010
0001
1000
0010
1000
,  // measure 57
0100
0010
0001
0100
0010
1000
0001
0100
,  // measure 58
0001
1000
0100
0010
0001
0010
0100
1000
,  // measure 59
0100
1000
0100
1000
0100
0000
0100
0000
,  // measure 60
0010
0100
1000
0100
0010
0000
0010
0000
,  // measure 61
0001
0100
0010
0100
0001
0000
1000
0001
,  // measure 62
1000
0100
0010
0001
0010
0100
1000
0010
,  // measure 63
0100
0001
1000
0100
0010
0000
0100
0000
,  // measure 64
1000
0010
1000
0000
1000
0000
0001
0100
,  // measure 65
0001
0000
0001
0000
1000
0010
0100
0000
,  // measure 66
0001
1000
0100
0010
1000
0010
0001
0100
,  // measure 67
0001
0100
0010
0100
,  // measure 68
0001
0001
0010
0001
0001
0010
0001
0000
,  // measure 69
1000
1000
0010
1000
1000
0010
1000
0000
,  // measure 70
0100
0010
0001
0010
0100
1000
0100
0010
,  // measure 71
0001
0000
0000
0000
2002
0000
0000
3003
,  // measure 72
0001
0100
0001
1000
,  // measure 73
0100
0010
0001
0100
,  // measure 74
1000
0100
0001
1000
,  // measure 75
0100
0000
0010
0000
0100
0010
0100
0010
,  // measure 76
0100
1000
0001
0100
,  // measure 77
0001
1000
0010
0100
,  // measure 78
0010
1000
0001
0010
,  // measure 79
0100
0000
1000
0000
0001
0010
0001
0100
,  // measure 80
0001
0000
0001
0000
0001
0100
0010
0000
,  // measure 81
1000
0000
1000
0000
1000
0100
0010
0000
,  // measure 82
1000
0000
1000
0000
1000
0010
0001
0000
,  // measure 83
0100
0000
0100
0000
0010
1000
0100
0000
,  // measure 84
0010
0100
0010
0100
0010
0100
0010
0000
,  // measure 85
0001
1000
0001
1000
0001
1000
0001
0000
,  // measure 86
0100
0010
1000
0010
0100
0001
2000
0020
,  // measure 87
0000
0000
0000
3030
,  // measure 88
1000
0010
1000
0100
0010
0001
0100
0001
,  // measure 89
0000
0100
0000
0010
0000
1000
0000
1010
,  // measure 90
0000
0100
0000
0001
0000
1000
0000
1001
,  // measure 91
0000
0001
0100
0010
1000
0010
0100
0001
,  // measure 92
1000
0100
0001
0100
0010
0001
0100
1000
,  // measure 93
0000
0100
0000
0001
0000
1000
0000
1001
,  // measure 94
0000
0001
0000
0010
0000
0100
0000
0110
,  // measure 95
0000
0010
0001
0100
0010
1000
0100
0010
,  // measure 96
0100
1000
0001
0100
0010
1000
0100
0010
,  // measure 97
0000
0001
0000
1000
0000
0010
0000
1010
,  // measure 98
0000
0010
0000
0100
0000
0001
0000
0101
,  // measure 99
0000
0001
1000
0100
1000
0001
0100
0010
,  // measure 100
1000
0100
0010
0001
0010
0100
1000
0001
,  // measure 101
0000
1000
0000
0010
0000
0100
0000
0101
,  // measure 102
0000
0001
0000
1001
0000
0001
0000
1100
,  // measure 103
0000
0101
0000
1100
0000
1000
0001
0000
,  // measure 104
0100
0010
0100
0010
0000
0110
0000
0010
,  // measure 105
0000
1000
0100
1000
0000
1100
0000
1000
,  // measure 106
0000
0001
0100
0001
0000
0101
0000
0100
,  // measure 107
0000
0010
1000
0000
0001
0010
0001
0010
,  // measure 108
0100
1000
0001
0100
0000
0100
0000
0010
,  // measure 109
0000
0000
1000
0010
0000
0010
0000
0100
,  // measure 110
0000
0000
0001
1000
0000
1000
0000
0100
,  // measure 111
0000
0010
0100
0000
1000
0000
0100
1000
,  // measure 112
0100
0010
0100
0010
0000
0001
0010
0001
,  // measure 113
0000
1000
0010
1000
0000
0001
0100
0001
,  // measure 114
0000
1000
0001
1000
0000
0001
1000
0001
,  // measure 115
0000
0010
0100
0000
1000
0001
1000
0001
,  // measure 116
0100
0001
1000
0010
0000
0100
0001
0100
,  // measure 117
0000
0010
1000
0010
0000
1000
0100
1000
,  // measure 118
0000
0010
0001
0010
0000
0100
1000
0001
,  // measure 119
0000
0100
0010
1000
0100
0100
0100
0100
;

//---------------dance-single - ----------------
#NOTEDATA:;
#CHARTNAME:;
#STEPSTYPE:dance-single;
#DESCRIPTION:;
#CHARTSTYLE:;
#DIFFICULTY:Challenge;
#METER:16;
#RADARVALUES:0.807476,0.967961,0.227561,0.308309,0.047714,770.000000,739.000000,31.000000,42.000000,0.000000,0.000000,3.000000,0.000000,0.000000,0.807476,0.967961,0.227561,0.308309,0.047714,770.000000,739.000000,31.000000,42.000000,0.000000,0.000000,3.000000,0.000000,0.000000;
#CREDIT:azureFrights;
#NOTES:
// measure 0
0000
0000
0000
0000
,  // measure 1
0000
0000
0000
0000
,  // measure 2
0000
0000
0000
0000
,  // measure 3
0000
0000
0000
0000
,  // measure 4
1000
0100
0010
0100
0010
0100
0010
0002
,  // measure 5
0000
0103
0010
0100
0010
0100
0010
2000
,  // measure 6
0000
3001
0100
0010
0100
0010
1000
0002
,  // measure 7
0000
0000
0000
1003
0000
0000
0100
0000
0000
1000
0000
0000
0200
0300
0000
0200
0300
0000
0200
0300
0000
0200
0300
0000
,  // measure 8
0001
0000
0000
0200
0300
0000
0200
0300
0000
1000
0000
0000
0010
0000
0000
1000
0000
0000
0000
0000
0000
0000
0000
0000
,  // measure 9
1000
0000
0000
0200
0300
0000
0200
0300
0000
0001
0000
0000
0010
0000
0000
0001
0000
0000
0000
0000
0000
0000
0000
0000
,  // measure 10
1000
0000
0000
0020
0030
0000
0020
0030
0000
0001
0000
0000
1000
0000
0000
0001
0000
0000
0000
0000
0000
0000
0000
0000
,  // measure 11
0001
0000
0000
0020
0030
0000
0020
0030
0000
1000
0000
0000
0100
0000
0000
0010
0000
0000
0000
0000
0000
0001
0000
0000
,  // measure 12
0100
0001
1000
0100
1000
0010
0000
1000
,  // measure 13
0100
1000
0010
0100
0001
0010
0000
0001
,  // measure 14
1000
0100
0001
1000
0010
0001
0000
1000
,  // measure 15
1001
0101
1100
1001
,  // measure 16
0001
0100
0010
0100
0001
0100
0010
0100
,  // measure 17
0000
0100
0001
1000
0100
0000
1100
0000
,  // measure 18
1000
0100
0010
0100
2000
3000
0100
0010
,  // measure 19
0000
0100
1000
0001
0100
0000
0101
0000
,  // measure 20
0001
0100
0001
0000
1000
0010
1000
0000
,  // measure 21
0001
0010
0001
0000
1000
0100
1000
0000
,  // measure 22
0010
0100
0001
1000
0010
0100
0001
1000
,  // measure 23
0100
0010
0100
0010
0100
0010
0000
0000
,  // measure 24
0001
0100
0001
0100
0001
1000
0010
0100
,  // measure 25
0000
0001
0000
0101
0000
0001
0000
1000
,  // measure 26
0000
0100
0000
1100
0000
1000
0000
1000
,  // measure 27
0001
0010
0100
0000
1000
0010
0100
0000
,  // measure 28
0001
0010
0001
0010
0001
1000
0010
0100
,  // measure 29
0000
0001
0000
1001
0000
0001
0000
0100
,  // measure 30
0000
0010
0000
0110
0000
0100
0000
0001
,  // measure 31
1000
0100
1000
1000
0001
0010
0001
0001
,  // measure 32
1000
0010
1000
0010
1000
0001
0010
0100
,  // measure 33
0000
1000
0000
1100
0000
1000
0000
0010
,  // measure 34
0000
0100
0000
0110
0000
0100
0000
0001
,  // measure 35
1000
0100
1000
0100
0010
0001
0010
0100
,  // measure 36
1000
0001
1000
0001
1000
0010
0001
0010
,  // measure 37
0000
1000
0000
1001
0000
1000
0000
0100
,  // measure 38
0000
0010
0000
1001
0000
0001
0000
1100
,  // measure 39
0000
0101
0000
1000
0100
0000
1100
0000
,  // measure 40
1000
0100
0010
1000
0000
0010
0000
0001
,  // measure 41
0000
0100
0010
0001
0000
0010
0000
1000
,  // measure 42
0000
0010
0100
1000
0000
0100
0000
0001
,  // measure 43
0000
0000
0000
1000
0000
0000
0001
0000
0000
0000
0000
0000
0200
0300
0000
0200
0300
0000
0200
0300
0000
0020
0000
0000
,  // measure 44
0000
0000
0030
0000
0010
0010
1000
0001
,  // measure 45
0000
1000
0001
0000
0010
0010
0001
1000
,  // measure 46
0000
0001
1000
0000
0010
0010
0100
0001
,  // measure 47
0000
1000
0001
0000
0011
0000
0001
1000
,  // measure 48
0100
1000
0100
1000
0100
1000
0100
1000
,  // measure 49
0000
1000
0001
1000
0001
1000
0001
0100
,  // measure 50
0010
0100
0010
0100
0010
0100
0010
0100
,  // measure 51
0000
0100
0001
0100
0001
0100
0001
0000
,  // measure 52
0001
4000
0100
0000
0001
0000
3010
1000
,  // measure 53
0000
0001
0100
0001
1000
0100
0010
0001
,  // measure 54
0100
0004
0010
0000
1000
0000
0103
0001
,  // measure 55
0000
0100
0001
0010
0100
1000
0001
0000
,  // measure 56
1000
0010
0001
1000
0100
0001
1000
0100
,  // measure 57
0001
1000
0010
0001
1000
0010
0001
1000
,  // measure 58
0100
0001
0100
0001
1000
0010
1000
0001
,  // measure 59
4000
0100
0000
0100
0000
0100
3000
0100
,  // measure 60
1000
0100
0001
0100
1000
0100
0010
0100
,  // measure 61
1000
0000
0001
0000
0010
0000
0001
0000
0100
0000
0001
0000
1000
0001
1000
0001
,  // measure 62
1000
0100
0001
0100
1000
0100
0010
0100
,  // measure 63
0010
0001
1000
0001
0100
0010
1000
0010
,  // measure 64
1000
0000
0010
0000
1000
0000
0010
0000
0000
1000
0000
0000
0001
0000
0000
1000
0000
0000
0001
0000
0010
0000
0001
0000
,  // measure 65
0010
0000
0000
0100
0000
0000
1000
0000
0000
0001
0000
0000
1000
0000
0000
0020
0030
0000
0020
0030
0000
0001
0000
0000
,  // measure 66
1000
0000
0001
0100
0001
0000
1000
0100
1000
0000
0001
0100
0001
0100
0001
0100
,  // measure 67
0001
1000
0100
1000
0001
1000
0100
1000
,  // measure 68
0020
0030
0000
0020
0030
0000
0001
0000
0000
0020
0030
0000
0020
0030
0000
1000
0000
0000
0020
0030
0000
0020
0030
0000
,  // measure 69
0200
0300
0000
0200
0300
0000
0001
0000
0000
0200
0300
0000
0200
0300
0000
1000
0000
0000
0200
0300
0000
0200
0300
0000
,  // measure 70
0001
0100
1000
0100
0001
0010
1000
0010
,  // measure 71
0001
0000
0000
0000
2002
0000
0000
3003
,  // measure 72
0001
0000
0100
0000
0001
0100
0001
1000
,  // measure 73
0000
0100
0000
0001
0000
0100
0000
1000
,  // measure 74
0000
0010
0000
0001
0000
0010
0000
1000
,  // measure 75
0000
0001
1000
0000
0001
0100
0001
0100
,  // measure 76
0000
0000
1100
0000
0100
1000
0001
1000
,  // measure 77
0000
0100
0000
0010
0000
0001
0000
1000
,  // measure 78
0000
0010
0000
0100
0000
0001
0000
0010
,  // measure 79
0000
0001
0100
0000
0010
1000
0100
1000
,  // measure 80
0001
1000
0001
1000
0001
0010
0100
0010
,  // measure 81
0001
1000
0001
1000
0001
0100
0001
0010
,  // measure 82
0100
1000
0100
1000
0100
0001
0100
0001
,  // measure 83
0000
0100
0000
1000
0001
0100
0010
1000
,  // measure 84
0100
1000
0100
1000
0100
1000
0100
0010
,  // measure 85
0001
1000
0001
1000
0001
1000
0010
1000
,  // measure 86
0001
0010
0100
1000
0010
0100
0002
2000
,  // measure 87
0000
0000
0000
3003
,  // measure 88
0001
1000
0001
1000
0001
0010
0100
0001
,  // measure 89
0000
0100
0000
1100
0000
1000
0000
0010
,  // measure 90
0000
0100
0000
0101
0000
0001
0000
1000
,  // measure 91
0001
0100
0010
1000
0010
0100
0001
0010
,  // measure 92
0100
1000
0100
0010
0001
0100
0010
1000
,  // measure 93
0000
0100
0000
1001
0000
0001
0000
0100
,  // measure 94
0000
0010
0000
1001
0000
1000
0000
0010
,  // measure 95
0100
0001
1000
0100
0010
0001
1000
0010
,  // measure 96
0100
0001
1000
0001
0100
0001
0010
0100
,  // measure 97
0000
0010
0000
0110
0000
0010
0000
0001
,  // measure 98
0000
1000
0000
1001
0000
0001
0000
1000
,  // measure 99
0100
1000
0001
1000
0001
0010
0001
0100
,  // measure 100
0010
0100
0010
0001
0010
1000
0100
0010
,  // measure 101
0000
0001
0000
1001
0000
0001
0000
0100
,  // measure 102
0000
0001
0000
1001
0000
0001
0000
1100
,  // measure 103
0000
0101
0000
1000
0000
1000
0001
0000
,  // measure 104
0001
0100
0010
1000
0000
0010
0000
0100
,  // measure 105
0000
0001
0010
0100
0000
1000
0000
0100
,  // measure 106
0000
1000
0001
0100
0000
0010
0000
1000
,  // measure 107
0000
0000
0000
0010
0000
0000
1000
0000
0000
0000
0000
0000
0200
0300
0000
0200
0300
0000
0200
0300
0000
0020
0000
0000
,  // measure 108
0000
0000
0030
0000
0001
0001
0100
0010
,  // measure 109
0000
1000
0010
0000
1000
1000
0100
0010
,  // measure 110
0000
0001
1000
0000
0001
0001
0010
0100
,  // measure 111
0000
1000
0010
0000
0101
0000
0100
0001
,  // measure 112
1000
0100
0010
0100
1000
0100
0010
0001
,  // measure 113
0100
0000
0010
0000
1000
0000
0010
0000
0100
0000
0010
0000
1000
0000
0010
1000
,  // measure 114
0010
1000
0001
1000
0010
1000
0001
1000
,  // measure 115
0100
0010
0001
0010
0001
0001
0001
0001
,  // measure 116
0100
0001
1000
0010
0100
0001
1000
0010
,  // measure 117
1000
0000
0010
0000
0001
0000
0100
0000
0010
0000
1000
0000
0001
0000
0100
0001
,  // measure 118
0100
0001
1000
0010
0100
0001
1000
0010
,  // measure 119
1000
0001
0010
0001
0100
0100
0100
0100
;
