#VERSION:0.83;
#TITLE:GHOSTBUSTERS;
#SUBTITLE:;
#ARTIST:Umi Ghoulies;
#TITLETRANSLIT:;
#SUBTITLETRANSLIT:;
#ARTISTTRANSLIT:;
#GENRE:;
#CREDIT:;
#MUSIC:GHOSTBUSTERS.ogg;
#BANNER:GHOSTBUSTERS.png;
#BACKGROUND:;
#CDTITLE:;
#SAMPLESTART:49.343;
#SAMPLELENGTH:15.000;
#SELECTABLE:YES;
#OFFSET:0.000;
#BPMS:0.000=175.100;
#STOPS:;
#BGCHANGES:0.000=GHOSTBUSTERS.avi=1.000=1=0=0=StretchNoLoop==CrossFade==;
#FGCHANGES:;

//--------------- dance-single - KAYSTAR ----------------
#NOTEDATA:;
#STEPSTYPE:dance-single;
#DESCRIPTION:KAYSTAR;
#DIFFICULTY:Beginner;
#METER:2;
#RADARVALUES:0,0,0,0,0;
#NOTES:
0000
0000
0000
0000
,
0000
0000
0000
0000
,
0000
0000
0000
0000
,
0000
0000
0000
0000
,
1000
0000
1000
0000
,
1000
0000
0000
0000
,
0001
0000
0001
0000
,
0001
0000
0000
0000
,
1000
0000
0000
0000
,
0100
0000
0000
0000
,
0010
0000
0010
0000
,
0010
0000
0000
0000
,
0001
0000
0000
0000
,
0100
0000
0000
0000
,
0010
0000
0010
0000
,
0010
0000
0000
0000
,
2000
3000
0000
2000
,
3000
0000
0100
0000
,
0002
0003
0000
0002
,
0003
0000
0100
0000
,
2000
3000
0000
2000
,
3000
0000
0010
0000
,
0002
0003
0000
0002
,
0003
0000
0010
0000
,
2000
0000
3000
0000
,
0000
0000
0000
0000
,
0000
0000
0000
0000
,
0000
0000
0000
0000
,
0001
0000
0000
0000
,
0010
0000
0000
0000
,
0100
0000
0100
0000
,
0100
0000
0000
0000
,
1000
0000
0000
0000
,
0010
0000
0000
0000
,
0100
0000
0100
0000
,
0100
0000
0000
0000
,
0002
0003
0000
0002
,
0003
0000
0010
0000
,
2000
3000
0000
2000
,
3000
0000
0010
0000
,
0002
0003
0000
0002
,
0003
0000
0100
0000
,
2000
3000
0000
2000
,
3000
0000
0100
0000
,
0002
0000
0003
0000
,
0000
0000
0000
0000
,
1000
0000
1000
0000
,
1000
0000
0000
0000
,
0002
0000
0000
0000
,
0003
0000
0000
0000
,
0020
0000
0000
0000
,
0030
0000
0000
0000
,
0200
0000
0000
0000
,
0300
0000
0000
0000
,
2000
0000
0000
0000
,
3000
0000
0000
0000
,
0001
0000
0100
0000
,
0001
0000
0001
0000
,
1000
0000
0100
0000
,
1000
0000
1000
0000
,
0020
0000
0030
0000
,
0200
0000
0300
0000
,
0001
0000
0001
0000
,
0001
0000
0000
0000
,
1000
0000
0100
0000
,
0001
0000
0001
0000
,
0100
0000
0010
0000
,
0001
0000
1000
0000
,
0001
0000
0100
0000
,
1000
0000
1000
0000
,
0100
0000
0010
0000
,
1000
0000
1000
0000
;

//--------------- dance-single - KAYSTAR ----------------
#NOTEDATA:;
#STEPSTYPE:dance-single;
#DESCRIPTION:KAYSTAR;
#DIFFICULTY:Easy;
#METER:7;
#RADARVALUES:0,0,0,0,0;
#NOTES:
0000
0000
0000
0000
,
0000
0000
0000
0000
,
0000
0000
0000
0000
,
0000
0000
0000
0000
,
1000
0001
0100
0001
,
1000
0000
0100
0010
,
0001
1000
0010
1000
,
0002
0000
0000
0000
,
1003
0100
0000
1000
,
0001
1000
0000
0001
,
0100
0001
0000
0010
,
0020
0000
0030
0000
,
0001
0100
0000
0001
,
1000
0001
0000
1000
,
0100
1000
0000
0010
,
0020
0000
0030
0000
,
1000
0100
1000
0001
,
0100
0001
1000
0000
,
0001
0010
0001
1000
,
0010
1000
0001
0000
,
1000
0100
0010
0001
,
0010
0100
1000
0000
,
0001
0100
0010
1000
,
0010
0100
0002
0000
,
1003
0000
0000
0000
,
0000
0000
0000
0000
,
0000
1000
1000
0000
,
0000
0001
0001
0000
,
1000
0100
0000
1000
,
0001
0100
0000
0001
,
1000
0100
0000
1001
,
2002
0000
3003
0000
,
0001
0010
0000
0001
,
1000
0010
0000
1000
,
0001
0010
0000
1001
,
2002
0000
3003
0000
,
1000
0100
1000
0001
,
0010
0001
1000
1000
,
0001
0100
0001
1000
,
0010
1000
0001
0000
,
1000
0100
0010
0001
,
0100
0010
1000
1000
,
0001
0010
0100
1000
,
0010
0100
0002
0000
,
1003
0000
0100
0000
,
0010
0000
0001
0000
,
1000
1000
0000
0001
,
0001
0000
0100
0010
,
2000
0000
0000
0000
,
0100
0000
3100
0000
,
0020
0000
0000
0000
,
0001
0000
0031
0000
,
2000
0000
0000
0000
,
0010
0000
3010
0000
,
0200
0000
0000
0000
,
0302
0023
0230
2300
,
3001
0100
0010
1000
,
0002
0000
2003
0000
,
3001
0010
0100
1000
,
0001
0001
1000
1000
,
0020
0000
0230
0000
,
0320
0000
0230
0000
,
0301
1000
0001
1000
,
0200
0000
0000
0000
,
0310
0001
0010
0001
,
1000
0010
0100
0001
,
1000
0100
1000
0100
,
0010
0001
1000
0010
,
0100
0001
0100
0001
,
1000
0100
0010
0001
,
1000
0010
1000
0010
,
0100
0001
1000
1001
;

//--------------- dance-single - KAYSTAR ----------------
#NOTEDATA:;
#STEPSTYPE:dance-single;
#DESCRIPTION:KAYSTAR;
#DIFFICULTY:Medium;
#METER:11;
#RADARVALUES:0,0,0,0,0;
#NOTES:
0000
0000
0000
0000
,
0000
0000
0000
0000
,
0000
0000
0000
0000
,
0000
0000
0000
0000
,
0001
0100
0010
1000
0010
0100
0001
0000
,
1000
0000
0100
0000
0010
0001
1000
0000
,
0001
0100
0010
1000
0001
0000
0011
0000
,
2100
0000
3001
0100
0010
1000
0002
0000
,
1003
0100
0010
0000
0001
0000
1000
0000
,
0010
0100
0010
0000
1000
0000
0001
0000
,
0010
0010
0010
0000
0100
0000
1100
0000
,
0012
0000
1003
0000
0010
0010
1000
0000
,
0001
0010
0100
0000
1000
0000
0001
0000
,
0100
0010
0100
0000
0001
0000
1000
0000
,
0100
0100
0100
0000
0010
0000
0011
0000
,
2100
0000
3001
0100
0010
1000
0001
0000
,
2000
0000
3100
2000
0000
3100
2000
0000
,
3100
2000
0000
3100
0010
0001
1000
0000
,
0002
0000
0103
0002
0000
0103
0002
0000
,
0103
0002
0000
0103
0010
1000
0001
0000
,
2000
0000
3100
0020
0000
0031
0200
0000
,
0310
2000
0000
3100
0010
0001
1000
0000
,
0002
0000
0103
0020
0000
1030
0200
0000
,
0310
0002
0000
0103
0010
1000
0001
1000
,
0001
0000
0000
0000
,
0000
0000
0000
0000
,
0000
1000
0100
1000
0100
1000
0000
0000
,
0000
0000
0001
0100
0001
0100
0001
0000
,
1000
0100
0001
0000
0100
0000
1000
0000
,
0001
0100
1000
0000
0100
0000
0001
0000
,
1000
1000
1000
0000
0100
0000
1100
0000
,
0012
0000
1003
0000
0010
0010
1000
0000
,
0001
0010
1000
0000
0010
0000
0001
0000
,
1000
0010
0001
0000
0010
2000
0000
0000
,
3001
0001
0001
0000
0010
0000
0011
0000
,
2100
0000
3001
0100
0010
1000
0001
0000
,
2001
0000
3100
0020
0000
0031
2000
0000
,
3100
0020
0000
0031
1000
1000
0001
0000
,
1002
0000
0103
0020
0000
1030
0002
0000
,
0103
0020
0000
1030
0001
0001
1000
0000
,
2001
0000
3100
0020
0000
1030
0002
0000
,
0103
0020
0000
0031
1000
1000
0001
0000
,
1002
0000
0103
0020
0000
0031
2000
0000
,
3100
0020
0000
1030
0001
0010
0100
1000
,
0001
0000
0100
0010
1000
0000
0100
0000
,
1000
0000
0010
0100
0001
0000
0010
0000
,
0001
0001
0001
0000
1000
0000
1010
0000
,
0102
0000
1003
0000
0001
0010
0100
1000
,
0002
0100
1000
0013
,
0100
1000
0000
0100
1000
0000
0000
0000
,
0002
0203
0320
2030
,
3001
0010
0100
0010
0001
0000
0000
0000
,
2000
0100
0001
3010
,
0100
0001
0000
0100
0001
0000
0000
0000
,
2000
3200
0320
0031
,
2002
0000
0000
3003
,
1000
0010
0100
0001
1000
0100
0010
0000
,
0002
0100
2003
0100
,
3001
0100
0010
1000
0001
0010
0100
0000
,
1000
0000
0001
0100
0010
0010
0010
0000
,
1000
0001
0010
0001
0200
0000
0010
0000
,
0301
1000
0010
1000
0200
0000
0010
0000
,
1300
1000
1000
0000
0001
0000
0101
0000
,
2020
0000
0000
3030
,
1000
1000
1000
0000
0001
0000
0011
0000
,
2100
0000
3001
0100
1000
0100
0001
0000
,
1000
1000
1000
0000
0001
0000
0101
0000
,
2010
0000
3001
0010
0100
1000
0010
0100
,
0001
0001
0001
0000
1000
0000
1010
0000
,
0102
0000
1003
0100
0001
0100
1000
0000
,
0001
0001
0001
0000
1000
0000
1100
0000
,
0012
0000
1003
0010
0100
0001
0010
0000
;

//--------------- dance-single - KAYSTAR Respect for Pam and Ben/Keek ----------------
#NOTEDATA:;
#STEPSTYPE:dance-single;
#DESCRIPTION:KAYSTAR Respect for Pam and Ben/Keek;
#DIFFICULTY:Hard;
#METER:15;
#RADARVALUES:0,0,0,0,0;
#NOTES:
0000
0000
0000
0000
,
0000
0000
0000
0000
,
0000
0000
0000
0000
,
0000
0000
0000
0000
,
1000
0000
0001
0100
0002
0000
0100
0000
2003
0000
0010
0000
3001
0000
0000
0000
,
1000
0000
0001
0000
0010
0100
0010
0100
0010
0000
0001
0000
1000
0000
0000
0000
,
0001
0000
1000
0100
2000
0000
0100
0000
3002
0000
0010
0000
2003
0000
0000
0000
,
3010
0100
0001
0010
0100
1000
0002
0000
,
1003
0010
0200
0000
1000
0000
0301
1000
,
0001
0010
0200
0000
0001
0000
1300
0000
,
0001
1000
0001
1000
0001
0000
0000
0000
0100
0000
0010
0000
0002
0000
0000
0000
,
1003
0000
0100
0000
0001
0000
1000
0000
0100
0010
0100
0000
1000
0000
0000
0000
,
0001
0100
0020
0000
0001
0000
1030
0001
,
1000
0100
0020
0000
1000
0000
0031
0000
,
1000
0001
1000
0001
1000
0000
0000
0000
0010
0000
0100
0000
2000
0000
0000
0000
,
3001
0010
1000
0100
0010
0001
0100
0010
,
2000
0000
3100
0020
0000
0130
0002
0000
,
0103
0000
0020
0000
0000
0000
0130
0000
1000
0000
0001
0000
1000
0100
1000
0000
,
0002
0000
0103
0020
0000
0130
2000
0000
,
3100
0000
0020
0000
0000
0000
0130
0000
0001
0000
1000
0000
0001
0100
0001
0000
,
2000
0000
3100
0002
0000
1003
0020
0000
,
0031
0000
2000
0000
0000
0000
3001
0000
0010
0000
0100
0000
1000
0001
1000
0000
,
0002
0000
0103
2000
0000
3001
0020
0000
,
1030
0000
0002
0000
0000
0000
1003
0000
0010
0000
0100
0000
0001
1000
0001
1000
,
0200
0000
0300
0000
,
0000
0000
0000
0000
,
0000
0000
1000
0001
2000
0000
0010
0000
3002
0000
0100
0000
0003
0000
0000
0000
,
1001
0000
0000
0000
1000
0001
1000
0001
0010
0000
0100
0000
2000
0000
0000
0000
,
3001
0000
0100
0000
1000
0000
0100
0000
0001
0000
0100
0000
0010
0000
1000
0001
,
1000
0100
0001
0100
1000
0100
0010
0001
,
1000
0010
1000
0010
1000
0000
0001
0000
0010
0000
0100
0000
0002
0000
0000
0000
,
1003
0000
0010
0000
0001
0000
1000
0000
0010
0100
0010
0000
1000
0000
0000
0000
,
0001
0000
0010
0000
1000
0000
0010
0000
0001
0000
0010
0000
0100
0000
1000
0001
,
1000
0010
0001
0010
1000
2002
0000
0003
,
3001
0100
0001
0100
0001
0000
1000
0000
0100
0000
0010
0000
2000
0000
0000
0000
,
3001
0100
1000
0010
0100
0001
0010
0100
,
2000
0000
0000
3001
0100
0000
2000
0000
0000
3100
0010
0000
2000
0000
0000
3001
,
0100
0000
2000
0000
0000
3100
0010
0000
1000
0000
0001
0000
0100
0010
0100
0000
,
0002
0000
0000
1003
0100
0000
0002
0000
0000
0103
0010
0000
0002
0000
0000
1003
,
0100
0000
0010
0001
0000
0010
0001
0000
1000
0010
0100
0000
0001
1000
0001
0000
,
2000
0000
0000
3100
0010
0000
2000
0000
0000
3001
0100
0000
2000
0000
0000
3010
,
0100
0000
2000
0000
0000
3001
0010
0000
1000
0000
0001
0000
0100
0010
0100
0000
,
0002
0000
0000
0013
0100
0000
0002
0000
0000
1003
0010
0000
0002
0000
0000
0103
,
0010
0000
1000
0100
0000
1000
0100
0000
0010
0001
1000
0000
0010
0100
0010
0100
,
0002
0000
1003
0100
1000
0001
0010
0001
,
1000
0010
1000
0001
0100
0001
1000
0000
,
0001
1000
0001
1000
0001
0000
0000
0000
0010
0000
0100
0000
0002
0000
0000
0000
,
1003
0000
0010
0000
0001
0000
1000
0000
0010
0100
0010
0000
1000
0000
0000
0000
,
1200
0001
0010
1300
,
0001
0000
1000
0010
0000
1000
0010
0000
0200
0000
0000
0000
0301
0000
0000
0000
,
0201
1000
0010
0301
,
0000
1000
0100
0000
0001
0000
0100
0000
2000
0000
0000
0000
3001
0000
0000
0000
,
0021
1000
0100
0031
,
1000
0000
0001
0100
0000
0001
0100
0000
0020
0000
0000
0000
1030
0000
0000
0000
,
1020
0001
0100
1030
,
1002
0023
2030
3200
,
0301
0000
1000
0010
2000
0000
0001
0000
3200
0000
0010
0000
1300
0000
0000
0000
,
0001
0000
0100
0010
1000
0000
0001
0000
0010
1000
0000
0010
0001
0000
1000
0000
,
1000
0000
0001
0100
0002
0000
1000
0000
0023
0000
0100
0000
0031
0000
0000
0000
,
1000
0000
0001
0000
0100
0010
0100
0010
1000
0001
1000
0000
0100
0000
0010
0000
,
0001
0000
1000
0010
0000
0001
0010
0000
2000
0000
0000
0000
3001
0000
0010
0100
,
1000
0001
0001
0001
0200
0000
0310
1000
,
0001
1000
0001
1000
0002
0000
0010
0000
2003
0000
0100
0000
3001
0000
0000
0000
,
1001
2002
0000
0000
0000
0000
3003
0000
,
1000
0010
1000
0010
2000
0000
0001
0000
3200
0000
0010
0000
0302
0000
0000
0000
,
1003
0000
0010
0000
0001
1000
0001
1000
0010
0000
0100
0000
0001
0000
0000
0000
,
1000
0100
1000
0100
2000
0000
0001
0000
3020
0000
0100
0000
0032
0000
0000
0000
,
1003
0000
0100
0000
0001
1000
0001
1000
0100
0010
0100
0000
1000
0000
1000
0000
,
0001
0100
0001
0100
0002
0000
1000
0000
0023
0000
0100
0000
2030
0000
0000
0000
,
3001
0000
0100
0000
1000
0001
1000
0001
0100
0000
0010
0000
1000
0000
0000
0000
,
0001
0010
0001
0010
0002
0000
1000
0000
0203
0000
0010
0000
2300
0000
0000
0000
,
3001
0000
0010
0000
1000
0001
1000
0001
0010
0000
0100
0000
0110
0000
0000
0000
;

//--------------- dance-double - KAYSTAR ----------------
#NOTEDATA:;
#STEPSTYPE:dance-double;
#DESCRIPTION:KAYSTAR;
#DIFFICULTY:Easy;
#METER:7;
#RADARVALUES:0,0,0,0,0;
#NOTES:
00000000
00000000
00000000
00000000
,
00000000
00000000
00000000
00000000
,
00000000
00000000
00000000
00000000
,
00000000
00000000
00000000
00000000
,
10000000
00100000
01000000
00000000
,
00001000
00010000
00001000
00010000
,
00000100
00000010
00000001
00000000
,
00002002
00000000
00000000
00003003
,
00001000
00000000
00000001
00000000
,
00000100
00000000
00000010
00000000
,
00010000
00000000
00001000
00001000
,
00002000
00000000
01003000
00000000
,
00010000
00000000
10000000
00000000
,
01000000
00000000
00100000
00000000
,
00001000
00000000
00010000
00010000
,
00020000
00000000
00030000
00000000
,
00000100
00001000
00000100
00001000
,
00000100
00010000
00001000
00000000
,
01000000
00010000
01000000
00010000
,
01000000
00001000
00010000
00000000
,
00001000
00010000
00000010
00001000
,
00000010
00010000
00001000
00000000
,
00010000
00001000
00100000
00010000
,
00100000
00001000
00020000
00000000
,
00030100
00000000
00000000
00000000
,
00000000
00000000
00000000
00000000
,
00000000
00001000
00001000
00000000
,
00000000
00000001
00000001
00000000
,
00000100
00000001
00000000
00001000
,
00000100
00001000
00000000
00000001
,
00000100
00001000
00000000
00011000
,
00012000
00000000
00103000
00000000
,
01000000
10000000
00000000
00010000
,
01000000
00010000
00000000
10000000
,
01000000
00010000
00000000
00011000
,
00021000
00000000
00030000
00000000
,
00001000
00010000
00000100
00001000
,
00000100
00010000
00001000
00001000
,
00010000
00001000
01000000
00010000
,
01000000
00001000
00010000
00000000
,
00001000
00010000
00100000
00010000
,
00001000
01000000
00001000
00001000
,
00010000
00001000
00000010
00001000
,
00010000
00000100
00020000
00000000
,
00030010
00000000
00000100
00000000
,
00000001
00000000
00001000
00000000
,
00000100
00000100
00000000
00000010
,
00000010
00000000
00000001
00000100
,
00002000
00000000
00000000
00000000
,
00010000
00000000
00013000
00000000
,
00020000
00000000
00000000
00000000
,
00001000
00000000
00031000
00000000
,
00002000
00000000
00000000
00000000
,
00010000
00000000
00013000
00000000
,
00020000
00000000
00000000
00000000
,
00032000
00203000
02300000
23000000
,
30010000
01000000
00100000
10000000
,
02000000
00000000
03020000
00000000
,
00031000
00010000
00001000
00010000
,
00000100
00000100
00000010
00000010
,
00000002
00000000
00000203
00000000
,
00002300
00000000
00023000
00000000
,
00031000
01000000
00010000
10010000
,
20020000
00000000
00000000
30030000
,
10000000
01000000
00010000
01000000
,
10000000
00010000
01000000
00001000
,
00010000
00100000
00010000
00001000
,
00000010
00001000
00010000
00000100
,
00001000
00000001
00000100
00001000
,
00000100
00000001
00000010
00000100
,
00010000
00001000
00010000
00001000
,
01000000
00100000
10000000
10010000
;

//--------------- dance-double - KAYSTAR ----------------
#NOTEDATA:;
#STEPSTYPE:dance-double;
#DESCRIPTION:KAYSTAR;
#DIFFICULTY:Medium;
#METER:11;
#RADARVALUES:0,0,0,0,0;
#NOTES:
00000000
00000000
00000000
00000000
,
00000000
00000000
00000000
00000000
,
00000000
00000000
00000000
00000000
,
00000000
00000000
00000000
00000000
,
00001000
00010000
00001000
00010000
00000100
00000000
00000010
00000000
,
00000001
00000000
00001000
00000000
00000010
00010000
00001000
00000000
,
00010000
00001000
00010000
00001000
01000000
00000000
00010000
00000000
,
20020000
00000000
00000000
30030000
,
10000000
01000000
00100000
00000000
00010000
00000000
01000000
00000000
,
00010000
00100000
01000000
00000000
10000000
00000000
00100000
00000000
,
01000000
01000000
01000000
00000000
00001000
00000000
00021000
00000000
,
00030200
00000310
00000001
00001000
,
00000001
00000100
00000010
00000000
00001000
00000000
00000100
00000000
,
00001000
00000010
00000100
00000000
00000001
00000000
00000010
00000000
,
00000100
00000100
00000100
00000000
00010000
00000000
00012000
00000000
,
02003000
00000000
03100000
10000000
00010000
10000000
00010000
00000000
,
20000000
00000000
31000000
20000000
00000000
31000000
20000000
00000000
,
31000000
20000000
00000000
31000000
00100000
00000000
00001000
00000000
,
00020000
00000000
00031000
00002000
00000000
00013000
00020000
00000000
,
00031000
00002000
00000000
00013000
00000100
00000000
00000010
00000000
,
00000002
00000000
00000103
00000002
00000000
00000103
00000002
00000000
,
00000103
00000002
00000000
00000103
00000010
00000000
00010000
00000000
,
00002000
00000000
00013000
00020000
00000000
00031000
00002000
00000000
,
00013000
00020000
00000000
00031000
01000000
00000000
00010000
00000000
,
20020000
00000000
30030000
00000000
,
00000000
00000000
00000000
00000000
,
00000000
10000000
01000000
10000000
01000000
10000000
00000000
00000000
,
00000000
00000000
00010000
01000000
00010000
01000000
00010000
00000000
,
10000000
01000000
00010000
00000000
01000000
00000000
10000000
00000000
,
00010000
01000000
10000000
00000000
01000000
00000000
00010000
00000000
,
10000000
10000000
10000000
00000000
00010000
00000000
00210000
00000000
,
00302000
00000000
00013000
00000100
00010000
00000100
00001000
00000000
,
00000001
00000100
00001000
00000000
00000100
00000000
00000001
00000000
,
00001000
00000100
00000001
00000000
00001000
00000020
00000000
00000000
,
00000031
00000001
00000001
00000000
00001000
00000000
00001020
00000000
,
00020030
00000000
00031000
01000000
00001000
01000000
00010000
00000000
,
20010000
00000000
31000000
00200000
00000000
00310000
20000000
00000000
,
31000000
00200000
00000000
00301000
00010000
00000000
00000100
00000000
,
00001002
00000000
00000103
00000020
00000000
00001030
00000002
00000000
,
00000103
00000020
00000000
00010030
00001000
00000000
01000000
00000000
,
20010000
00000000
31000000
00200000
00000000
01300000
00020000
00000000
,
01030000
00200000
00000000
00301000
00010000
00000000
00000100
00000000
,
00001002
00000000
00000103
00000020
00000000
00000130
00002000
00000000
,
00003100
00000020
00000000
00010030
00001000
01000000
00010000
00000000
,
10010000
00000000
10000000
01000000
10000000
00000000
00010000
00000000
,
01000000
00000000
00001000
00010000
00001000
00000000
00010000
00000000
,
00000100
00000100
00000100
00000000
00001000
00000000
00001001
00000000
,
00002002
00000000
00000000
00003003
,
00001002
00000100
00002003
00000010
,
00003001
00000010
00000100
00010000
,
00002000
00100000
00023000
00000010
,
00031000
01000000
00010000
10000000
,
20010000
01000000
30020000
00100000
,
10030000
00100000
01000000
00001000
,
00020000
00000010
00032000
00100000
,
00020000
00000000
00000000
00033000
,
00001000
00010000
00001000
00010000
00000100
00000000
00000010
00000000
,
00000002
00000203
00001300
00011000
,
00010000
00001000
00010000
00001000
01000000
00000000
00100000
00000000
,
10000000
00000000
00010000
00100000
00010000
00100000
00001000
00000000
,
00012000
00003020
00000032
00000000
,
00000203
00002300
00023000
00000000
,
00031000
00001000
00001000
00000000
01000000
00000000
00010000
00000000
,
20020000
00000000
00000000
30030000
,
10000000
10000000
10000000
00000000
00010000
00000000
00210000
00000000
,
02300000
00000000
03010000
00001000
00010000
00001000
00000010
00000000
,
00000001
00000001
00000001
00000000
00001000
00000000
00001020
00000000
,
00000230
00000000
00001300
00010000
00001000
00010000
00100000
01000000
,
00010000
00010000
00010000
00000000
10000000
00000000
12000000
00000000
,
03020000
00000000
00031000
00000100
00001000
00000100
00000001
00000000
,
00001000
00001000
00001000
00000000
00000001
00000000
00000021
00000000
,
00002030
00000000
00013000
00100000
10000000
01000000
00100000
00000000
;

//--------------- dance-double - KAYSTAR Respect for Pam and Ben/Keek ----------------
#NOTEDATA:;
#STEPSTYPE:dance-double;
#DESCRIPTION:KAYSTAR Respect for Pam and Ben/Keek;
#DIFFICULTY:Hard;
#METER:15;
#RADARVALUES:0,0,0,0,0;
#NOTES:
00000000
00000000
00000000
00000000
,
00000000
00000000
00000000
00000000
,
00000000
00000000
00000000
00000000
,
00000000
00000000
00000000
00000000
,
10000000
00000000
00010000
00100000
00010000
00000000
10000000
00000000
00100000
00000000
01000000
00000000
00010000
00000000
00000000
00000000
,
00100000
00000000
00001000
00000000
00010000
00001000
00010000
00001000
00010000
00000000
00000100
00000000
00001000
00000000
00000000
00000000
,
00000001
00000000
00001000
00000100
00001000
00000000
00000001
00000000
00000100
00000000
00000010
00000000
00020000
00000000
00000000
00000000
,
00031000
00022000
00000000
00000000
00000000
00000000
00033000
00000000
,
00010000
00001000
02000000
00000000
00100000
00000000
03010000
10000000
,
00010000
00100000
02000000
00000000
10000000
00000000
03100000
00000000
,
00010000
10000000
00010000
10000000
00010000
00000000
00000000
00000000
01000000
00000000
00100000
00000000
00020000
00000000
00000000
00000000
,
00031000
00000000
00100000
00000000
00010000
00000000
00100000
00000000
00001000
00010000
00001000
00000000
00010000
00000000
00000000
00000000
,
00001000
00010000
00000200
00000000
00000010
00000000
00001300
00000001
,
00001000
00000010
00000200
00000000
00000001
00000000
00000310
00000000
,
00001000
00000001
00001000
00000001
00001000
00000000
00000000
00000000
00000100
00000000
00000010
00000000
00002000
00000000
00000000
00000000
,
00013000
00000010
00001000
00000010
00010000
00001000
01000000
00010000
,
20000000
00000000
31000000
00200000
00000000
01300000
00020000
00000000
,
01030000
00000000
00200000
00000000
00000000
00000000
00301000
00000000
00010000
00000000
00000100
00000000
00001000
00000100
00001000
00000000
,
00000002
00000000
00000103
00000020
00000000
00000130
00002000
00000000
,
00003100
00000000
00000020
00000000
00000000
00000000
00010030
00000000
00001000
00000000
01000000
00000000
00010000
01000000
00010000
00000000
,
20000000
00000000
31000000
00200000
00000000
00301000
00020000
00000000
,
00130000
00000000
02000000
00000000
00000000
00000000
03001000
00000000
00010000
00000000
00000100
00000000
00001000
00000100
00001000
00000000
,
00000002
00000000
00000103
00000020
00000000
00010030
00002000
00000000
,
00003010
00000000
00000200
00000000
00000000
00000000
00010300
00000000
00001000
00000000
00010000
00000000
00001000
00010000
00001000
00010000
,
00002000
00000000
00003000
00000000
,
00000000
00000000
00000000
00000000
,
00000000
00000000
00010000
00001000
00010000
00000000
00000010
00000000
00000100
00000000
00001000
00000000
00000000
00000000
00000000
00000000
,
00011000
00000000
00000000
00000000
00010000
00001000
00010000
00001000
00100000
00000000
01000000
00000000
20000000
00000000
00000000
00000000
,
30010000
00000000
01000000
00000000
10000000
00000000
01000000
00000000
00010000
00000000
10000000
00000000
01000000
00000000
00100000
00010000
,
00100000
00001000
00010000
01000000
00100000
00001000
00010000
00000000
,
00001000
00010000
00001000
00010000
00001000
00000000
00010000
00000000
00000010
00000000
00000100
00000000
00002000
00000000
00000000
00000000
,
00003001
00000000
00000010
00000000
00001000
00000000
00000001
00000000
00000010
00000100
00000010
00000000
00000001
00000000
00000000
00000000
,
00001000
00000000
00000010
00000000
00000001
00000000
00000010
00000000
00001000
00000000
00000001
00000000
00000010
00000000
00000100
00001000
,
00000100
00010000
00001000
00000010
00000100
00020100
00000000
00031000
,
00010000
00001000
00010000
00001000
00010000
00000000
00001000
00000000
01000000
00000000
00100000
00000000
00020000
00000000
00000000
00000000
,
10030000
01000000
00010000
00100000
01000000
10000000
00100000
01000000
,
00020000
00000000
00000000
10030000
01000000
00000000
00020000
00000000
00000000
01030000
10000000
00000000
00020000
00000000
00000000
10030000
,
01000000
00000000
00020000
00000000
00000000
01030000
00100000
00000000
00001000
00000000
00010000
00000000
00000100
00001000
00000100
00000000
,
00002000
00000000
00000000
00003001
00000100
00000000
00002000
00000000
00000000
00003100
00000001
00000000
00002000
00000000
00000000
00003001
,
00000100
00000000
00002000
00000000
00000000
00003100
00000010
00000000
00010000
00000000
00001000
00000000
01000000
00010000
01000000
00000000
,
00002000
00000000
00000000
00103000
00010000
00000000
00002000
00000000
00000000
00013000
00100000
00000000
00002000
00000000
00000000
00013000
,
00000010
00000000
00002000
00000000
00000000
00013000
00001000
00000000
00000010
00000000
00010000
00000000
00001000
00010000
00001000
00000000
,
00020000
00000000
00000000
00030100
00001000
00000000
00020000
00000000
00000000
00031000
00000100
00000000
00020000
00000000
00000000
00031000
,
01000000
00000000
00020000
00000000
00000000
00031000
00010000
00000000
01000000
00000000
00100000
00000000
10000000
00010000
10000000
00010000
,
20000000
00000000
31000000
00100000
00010000
00100000
00001000
00010000
,
00001000
00010000
00000100
00001000
00000100
00000010
00000001
00000000
,
00001000
00000001
00001000
00000001
00001000
00000000
00000000
00000000
00000010
00000000
00000100
00000000
00002000
00000000
00000000
00000000
,
00003001
00000000
00000010
00000000
00001000
00000000
00000001
00000000
00000010
00000100
00000010
00000000
00000001
00000000
00000000
00000000
,
00000201
00002300
00023000
00030200
,
00000310
00000000
00000001
00001000
00000000
00000001
00001000
00000000
00000010
00000000
00000000
00000000
00010000
00000000
00000000
00000000
,
00012000
00000010
00023000
00100000
,
00031000
00100000
00010000
00100000
01000000
00000000
10000000
00000000
,
10200000
00320000
00032000
00203000
,
01300000
00000000
10000000
00010000
00000000
10000000
00010000
00000000
01000000
00000000
00000000
00000000
00001000
00000000
00000000
00000000
,
00021000
01000000
00032000
00000100
,
00023000
00030200
00000320
00000032
,
00001003
00000000
00000010
00001000
00000010
00000000
00000100
00000000
00000001
00000000
00001000
00000000
00000100
00000000
00000001
00000000
,
00000100
00000000
00001000
00000000
00000001
00000000
00000100
00000000
00000010
00010000
00000000
00010000
00001000
00000000
00010000
00000000
,
00001000
00000000
00100000
00010000
00100000
00000000
01000000
00000000
10000000
00000000
00010000
00000000
01000000
00000000
10000000
00000000
,
01000000
00000000
00010000
00000000
10000000
01000000
10000000
01000000
00100000
00000000
00001000
00000000
00012000
00000000
00000000
00000000
,
00003010
00000000
00000000
00000001
00000000
00000000
00000100
00000000
00002000
00000000
00000000
00000000
00013000
00000000
00000000
00000000
,
00010000
00100000
10000000
01000000
00200000
00000000
00310000
00000000
,
10000000
00010000
10000000
00010000
10000000
00000000
00100000
00000000
01000000
00000000
00010000
00000000
00100000
00000000
00000000
00000000
,
10010000
20020000
00000000
00000000
00000000
00000000
30030000
00000000
,
10000000
01000000
10000000
01000000
10000000
00000000
00010000
00000000
01000000
00000000
10000000
00000000
00020000
00000000
00000000
00000000
,
00130000
00000000
10000000
00000000
01000000
00100000
01000000
00100000
00002000
00000000
00010000
00000000
00013000
00000000
00000000
00000000
,
00001000
00010000
00001000
00010000
00001000
00000000
00010000
00000000
01000000
00000000
00010000
00000000
00002000
00000000
00000000
00000000
,
00003100
00000000
00000010
00000000
00010000
00001000
00010000
00000000
00000100
00001000
00000100
00000000
00001000
00000000
00001000
00000000
,
00000001
00000100
00000001
00000100
00000001
00000000
00001000
00000000
00000100
00000000
00000001
00000000
00002000
00000000
00000000
00000000
,
00003010
00000000
00000001
00000000
00000100
00000010
00000100
00000010
00020000
00000000
00001000
00000000
00031000
00000000
00000000
00000000
,
00010000
00001000
00010000
00001000
00010000
00000000
00001000
00000000
00000010
00000000
00001000
00000000
00020000
00000000
00000000
00000000
,
00130000
00000000
01000000
00000000
00010000
10000000
00010000
10000000
01000000
00000000
00100000
00000000
01100000
00000000
00000000
00000000
;
