#VERSION:0.83;
#TITLE:ゴーストバスターズ;
#SUBTITLE:(フローズン・サマー);
#ARTIST:新しい学校のリーダーズ;
#TITLETRANSLIT:GHOSTBUSTERS;
#SUBTITLETRANSLIT:(FROZEN SUMMER);
#ARTISTTRANSLIT:ATARASHII GAKKO!;
#GENRE:GHOSTBUSTING J-POP;
#CREDIT:;
#MUSIC:GHOSTBUSTERS FROZEN SUMMER.ogg;
#BANNER:GHOSTBUSTERS FROZEN SUMMER.png;
#BACKGROUND:GHOSTBUSTERS FROZEN SUMMER-bg.png;
#LYRICSPATH:GHOSTBUSTERS FROZEN SUMMER.lrc;
#CDTITLE:;
#SAMPLESTART:45.753;
#SAMPLELENGTH:12.000;
#SELECTABLE:YES;
#OFFSET:0.838;
#BPMS:0.000=148.000;
#STOPS:;
#SPEEDS:0.000=1.000=0.000=0;
#SCROLLS:0.000=1.000;
#TICKCOUNTS:0.000=4;
#TIMESIGNATURES:0.000=4=4;
#LABELS:0.000=Song Start;
#COMBOS:0.000=1;
#ORIGIN:;
#PREVIEWVID:;
#JACKET:GHOSTBUSTERS FROZEN SUMMER-jacket.png;
#CDIMAGE:;
#DISCIMAGE:;
#BGCHANGES:1.750=GHOSTBUSTERS FROZEN SUMMER.mp4=1.000=0=0=1,
99999.000=-nosongbg-=1.000=0=0=0=StretchNoLoop====
;
#FGCHANGES:;

//--------------- dance-single - ----------------
#NOTEDATA:;
#STEPSTYPE:dance-single;
#DESCRIPTION:;
#DIFFICULTY:Beginner;
#METER:3;
#RADARVALUES:0.157856,0.244742,0.109586,0.054793,0,121,109,12,6,0,0,0,0,0,0.157856,0.244742,0.109586,0.054793,0,121,109,12,6,0,0,0,0,0;
#CHARTNAME:;
#CHARTSTYLE:;
#CREDIT:;
#NOTES:
0000
0000
0000
0000
,
0000
0000
0000
0000
,
0000
0000
0000
0000
,
0001
0000
0000
0000
,
1000
0000
0000
0000
,
0010
0000
0010
0000
,
0000
0000
1000
0000
,
1000
0000
0000
0000
,
0100
0000
0000
0000
,
0010
0000
0010
0000
,
0000
0000
0001
0000
,
0001
0000
0000
0000
,
0100
0000
0000
0000
,
0010
0010
0010
0000
,
1000
1000
1000
0000
,
0100
0100
0100
0000
,
0010
0010
0010
0000
,
0001
0000
0000
0000
,
1000
1000
1000
0000
,
1000
0000
0000
0000
,
0010
0000
0010
0000
,
1001
0000
0000
0000
,
1000
0000
0000
0000
,
0200
0300
0200
0300
,
0020
0030
0020
0030
,
0001
0000
0000
0000
,
1000
0000
0000
0000
,
0020
0000
0000
0030
,
0200
0000
0000
0300
,
1001
0000
0000
0001
,
0001
0000
0001
0000
,
1001
0000
0000
0010
,
0010
0000
0010
0000
,
1001
0000
0000
1000
,
1000
0000
1000
0000
,
1001
0000
0100
0000
,
0100
0000
0100
0000
,
0110
0000
0000
0000
,
0000
0000
0000
0000
,
0001
0000
0000
0000
,
1000
0000
0000
0000
,
0010
0000
0000
0000
,
0100
0000
0000
0000
,
0000
0010
0010
0000
,
0100
0100
0100
0000
,
0001
0000
0001
0000
,
1000
0000
1000
0000
,
1001
0000
0000
0000
,
0010
0010
0010
0000
,
1001
0000
0000
0000
,
1000
1000
1000
0000
,
1001
0000
0000
0000
,
0001
0001
0001
0000
,
1001
0000
0100
0000
,
0100
0100
0100
0000
,
1001
0000
0000
0000
,
1000
0000
0010
0000
,
0010
0000
0000
0000
,
0100
0000
0100
0100
,
0100
0000
0000
0000
,
0001
0000
0001
0000
,
0010
0000
0000
0000
,
0100
0000
0100
0100
,
0100
0000
0000
0000
,
1000
0000
0000
0000
,
0010
0000
1000
0000
,
0100
0000
0010
0000
,
1001
0000
0000
0000
;

//--------------- dance-single - ----------------
#NOTEDATA:;
#STEPSTYPE:dance-single;
#DESCRIPTION:;
#DIFFICULTY:Easy;
#METER:6;
#RADARVALUES:0.246569,0.306498,0.036529,0.155247,0,189,185,4,17,0,0,0,0,0,0.246569,0.306498,0.036529,0.155247,0,189,185,4,17,0,0,0,0,0;
#CHARTNAME:;
#CHARTSTYLE:;
#CREDIT:;
#NOTES:
0000
0000
0000
0000
,
0000
0000
0000
0000
,
0000
0000
0000
0000
,
0001
1000
0010
0000
,
0100
0100
0100
0000
,
0001
0001
0010
0020
,
0000
0030
0010
0100
,
1000
0000
0001
0000
,
0100
0100
0010
0000
,
1000
1000
0100
0200
,
0000
0300
0100
0010
,
0001
0000
1000
0000
,
0010
0010
0100
0000
,
0001
0100
0010
0000
,
1000
0100
0010
0000
,
0001
0001
0010
0000
,
0100
0100
1000
0000
,
0001
1000
0010
0010
,
1000
0001
0010
0000
,
0001
1000
0100
0100
,
1000
0001
0100
0000
,
2002
0000
0000
3003
,
1000
0100
0010
0001
,
0200
0300
0020
0030
,
2000
3000
0002
0003
,
2002
0000
0000
3003
,
0001
0010
0100
1000
,
0020
0000
0030
0100
,
0200
0000
0300
0010
,
0010
0010
0000
0000
0000
0000
1000
0000
,
0100
0010
0001
0000
,
0100
0100
0000
0000
0000
0000
0001
0000
,
0010
0100
1000
0000
,
0001
0001
0000
0000
0000
0000
1000
0000
,
0010
0100
0001
0000
,
1000
1000
0000
0000
0001
0000
0010
0000
,
0100
1000
0010
0100
,
1001
0000
0000
0000
,
0000
0000
0000
0000
,
1000
0000
0100
0000
,
0010
0010
0001
0000
,
0001
0000
0100
0000
,
0100
0100
0010
0000
,
0000
1000
0001
0000
,
1000
0100
0010
0000
,
0001
0100
0010
1000
,
0100
0010
0001
0000
,
1000
1000
0000
0000
0000
0000
0001
0000
,
1000
0010
0100
0001
,
0010
0010
0000
0000
0000
0000
0001
0000
,
1000
0100
0010
0001
,
0100
0100
0000
0000
0000
0000
0100
0000
,
0010
1000
0100
0010
,
0001
0001
0000
0000
1000
0000
0001
0000
,
0100
0010
1000
0001
,
0000
1000
0200
0300
,
0000
0010
0001
1000
,
0001
0100
0020
0030
,
0000
1000
0010
0100
,
0001
1000
0200
0300
,
0000
1000
0100
0010
,
0001
1000
0020
0030
,
0000
1000
0010
0100
,
1001
0000
0000
0000
,
0001
0000
0010
0010
,
0100
0000
1000
0100
,
0010
0001
0200
0300
,
0010
0010
0000
0000
0000
0000
0000
0000
;

//--------------- dance-single - ----------------
#NOTEDATA:;
#STEPSTYPE:dance-single;
#DESCRIPTION:;
#DIFFICULTY:Medium;
#METER:10;
#RADARVALUES:0.444867,0.490398,0.319626,0.63012,0.009132,341,306,35,69,0,0,0,0,0,0.444867,0.490398,0.319626,0.63012,0.009132,341,306,35,69,0,0,0,0,0;
#CHARTNAME:;
#CHARTSTYLE:;
#CREDIT:Ben + Keek;
#NOTES:
0000
0000
0000
0000
,
0000
0000
0000
0000
,
0000
0000
0000
0000
,
1001
1000
0100
0010
,
0001
0100
0020
0030
,
1000
0010
2000
0000
3001
0100
0002
0000
,
0000
0000
1003
0000
0001
0010
0100
1000
,
0020
0000
0130
0000
0001
0001
0010
0000
,
0001
0000
1000
0000
0100
0100
1000
0000
,
0001
0100
0002
0000
1003
0010
2000
0000
,
0000
0000
3001
0000
1000
0100
0010
0001
,
0200
0000
0310
0000
1000
1000
0100
0000
,
1000
0000
0001
0000
0010
0010
0001
0010
,
0001
0010
0001
0010
0200
0000
1300
0010
,
1000
0010
1000
0010
0200
0000
0301
1000
,
0001
1000
0001
1000
0200
0000
1300
0001
,
1000
0001
1000
0001
0200
0000
0301
1000
,
0010
1010
0102
1003
,
0011
0000
2100
0000
3001
0000
1000
0001
,
0200
0000
0000
0000
0320
0000
0000
0000
1030
0000
0000
0001
0000
0000
1000
0000
,
0000
0000
0001
0000
0010
0000
0000
0000
0100
0000
0000
0100
0000
0000
0100
0000
,
2000
0000
0000
3020
0000
0000
2030
0000
,
3002
0000
0000
0023
0000
0000
0032
0000
,
2003
0000
0000
3002
0000
0000
0203
0000
,
0320
2030
3200
0310
,
0001
0100
0001
0100
0001
0000
0101
0000
,
1000
0100
1000
0100
1000
0000
1100
0000
,
0002
0010
2003
0010
,
3001
1000
0001
1000
0001
1000
0010
0000
,
1001
1001
0000
0000
0000
1000
0100
1000
,
0200
0320
0032
1003
,
1001
1001
0000
0000
0000
0001
0100
0001
,
0200
0320
2030
3001
,
1001
1001
0000
0000
0000
1000
0100
1000
,
0200
0302
0203
1300
,
1001
1001
0000
0000
0002
0000
0203
0000
,
2300
3200
0302
0013
,
1001
2002
0000
0000
3003
0000
0000
0000
,
0000
0000
0220
0330
,
0002
0000
0100
0000
1003
0001
1000
0000
,
2000
0000
0100
0000
3001
1000
0001
0000
,
1000
0010
0200
0000
0010
0010
0310
0000
,
1000
0100
0020
0000
0100
0100
0130
0000
,
0000
0000
0011
0000
1000
0020
0000
0130
,
0002
0000
2003
0000
3100
0100
0000
0000
,
1000
0001
1000
0001
0100
0010
0100
0010
,
2000
3200
0310
0110
,
1001
1001
0000
0000
0000
0001
0010
0100
,
1000
0010
0100
0001
1000
0000
1001
0000
,
1001
1001
0000
0000
0000
1000
0100
0010
,
0001
1000
0010
0100
0001
0000
1001
0000
,
1001
1001
0000
0000
0000
0001
0010
0100
,
1000
0010
0100
0001
1000
0000
1001
0000
,
1001
1001
0000
0000
2000
0000
3200
0000
,
0302
0203
2300
3010
,
0000
1000
0001
1000
0100
0100
0000
0000
,
0000
1000
0100
0010
0001
0001
0000
0000
,
0000
1000
0001
0100
0010
0010
0000
0000
,
0000
0100
0001
0010
0100
0100
0000
0000
,
0000
1000
0100
0010
0001
0001
0000
0000
,
0000
1000
0001
0100
0010
0010
0000
0000
,
0000
0100
0001
1000
0010
0010
0000
0000
,
0000
1000
0100
0010
0001
0001
0000
0000
,
2002
0000
0000
0003
,
3010
0000
0100
0100
,
0202
0300
2003
3020
,
0032
0023
2030
3100
,
1001
1001
0000
0000
0000
0000
0000
0000
;

//--------------- dance-single - ----------------
#NOTEDATA:;
#STEPSTYPE:dance-single;
#DESCRIPTION:;
#DIFFICULTY:Hard;
#METER:14;
#RADARVALUES:0.653602,0.735596,0.502269,0.511402,0.237436,501,446,55,56,0,0,0,0,0,0.653602,0.735596,0.502269,0.511402,0.237436,501,446,55,56,0,0,0,0,0;
#CHARTNAME:;
#CHARTSTYLE:;
#CREDIT:Ben + Keek;
#NOTES:
0000
0000
0000
0000
,
0000
0000
0000
0000
,
0000
0000
0000
0000
,
0001
1000
0000
0010
0000
0100
0000
0001
,
0000
0010
0000
0100
0110
0000
1001
0000
,
0002
0100
2003
0000
3002
0100
2003
0000
,
0100
0000
3010
0100
1000
0100
0001
0010
,
0100
0000
1000
0001
1000
0000
0010
0000
0100
0000
0001
0000
0102
0000
0000
0000
,
1003
0000
1000
0000
0001
0010
0001
0000
0100
0000
0010
0000
1000
0000
0000
0000
,
2000
0010
3002
0000
2003
0010
3002
0000
,
0010
0000
0103
0010
0001
0010
1000
0100
,
0010
0000
0001
1000
0001
0000
0010
0000
0100
0000
1000
0000
2100
0000
0000
0000
,
3001
0000
0001
0000
1000
0001
1000
0000
0010
0000
0010
0000
0100
0000
1000
0000
,
0100
0000
0010
0000
0100
0000
0001
0000
2001
0000
0000
0000
3100
0010
0100
0000
,
0001
0000
0100
0000
1000
0100
0010
0000
0012
0000
0000
0000
1003
0010
1000
0000
,
0001
0000
0100
0000
0001
0010
0100
0000
2100
0000
0000
0000
3001
0100
0001
0000
,
1000
0000
0100
0000
1000
0010
0100
0000
0102
0000
0000
0000
1003
0000
0100
0000
,
0110
0000
0000
0000
1000
0000
0001
0010
0000
0100
1000
0000
1002
0000
0000
0000
,
1003
0010
0000
0100
0001
0000
1000
0000
2001
0000
0000
0000
3100
0000
0010
0000
,
0001
0000
1000
0000
0010
0000
0001
0000
0020
0000
0000
2030
0000
0000
3200
0000
,
0000
0000
0301
0000
0100
0010
0100
0000
0110
0000
0000
0011
0000
0000
1001
0000
,
0002
0000
0010
0000
0103
0010
1000
0002
,
0000
0023
0000
0230
0000
2300
0000
3001
,
0200
1000
0320
0001
,
2030
0000
0000
0000
0001
0000
0000
0000
3100
0000
0000
0000
1000
0001
1000
0001
,
1000
0010
0100
0010
0001
0010
0100
0010
,
1000
0100
0010
0100
0001
0100
0010
0100
,
1000
0010
0100
0001
0010
0100
1000
0010
,
0001
0010
1000
0100
0002
0000
0103
0000
,
1001
0000
1000
0100
1000
0000
0001
0000
0100
0000
0001
0010
0100
0000
1000
0000
,
0001
0100
1000
0100
0010
0000
1010
0000
,
1001
0000
0001
0010
0001
0000
1000
0000
0010
0000
1000
0100
0010
0000
0001
0000
,
1000
0010
0001
0010
0100
0000
0101
0000
,
1001
0000
0001
1000
0001
0000
0010
0000
0100
0000
1000
0010
0100
0000
0001
0000
,
0010
0010
0100
0100
1000
0000
1010
0000
,
1001
0000
1000
0001
1000
0000
0010
0000
2000
0000
0000
0000
3200
0000
0000
0000
,
0302
0023
2030
3001
,
1001
2002
0000
0000
3003
0000
0000
0000
,
0001
0100
0220
0330
,
1000
0200
0000
0000
2300
0000
0000
0000
3001
0000
0100
0000
1001
0000
0000
0000
,
0001
0010
0001
0000
1000
0000
0010
0100
0010
0100
0001
0000
0101
0000
0000
0000
,
1000
0100
1000
0000
0001
0000
0100
0010
0100
0010
1000
0000
1100
0000
0000
0000
,
1000
0100
0000
1000
0100
0000
0010
0000
0001
0100
0010
0000
1001
0000
0000
0000
,
0000
0000
0201
0000
0310
1002
0000
1003
,
0100
0010
0100
0001
0100
2100
0000
3001
,
0100
1000
0100
0010
1000
0100
0001
1000
,
0010
0001
0100
0010
1000
0100
0110
0000
,
1001
0000
1001
0000
1000
0010
0000
0100
0001
0000
1000
0100
1000
0000
0001
0000
,
0100
1000
0100
0001
0010
0100
1100
0000
,
0011
0000
0011
0000
0001
0100
0000
0010
1000
0000
0001
0010
0001
0000
1000
0000
,
0010
0001
0010
1000
0100
0010
0011
0000
,
1100
0000
1100
0000
1000
0001
0000
0100
0010
0000
1000
0001
1000
0000
0010
0000
,
1000
0100
0001
0100
1000
0010
0110
0000
,
1001
1001
1000
0100
2000
0000
3020
0000
,
0032
0203
2300
3001
,
1001
0000
0001
0100
0010
0000
0001
0000
0010
0000
1000
0000
0100
0000
0000
0000
,
1000
0000
0001
0010
0100
0000
1000
0000
0010
0000
0010
0000
1010
0000
0000
0000
,
0001
0000
1000
0010
0100
0000
1000
0000
0100
0000
0001
0000
0010
0000
0000
0000
,
0001
0000
1000
0100
0010
0000
0001
0000
0100
0000
0100
0000
0101
0000
0000
0000
,
0001
0000
1000
0100
0010
0000
0001
0000
0100
0000
1000
0000
0100
0000
0001
0000
,
0010
0000
0100
0001
0100
0000
0010
0000
0001
0000
1000
0000
1010
0000
0000
0000
,
1001
0000
0001
0010
0100
0000
1000
0000
0010
0000
0001
0000
0010
0000
1000
0000
,
0100
0000
0010
1000
0010
0000
0100
0000
1000
0000
0001
0000
0101
0000
0000
0000
,
2002
0000
0000
0003
,
3100
0000
1100
0110
,
2002
3003
0002
0203
,
2300
3020
0032
1003
,
1001
1001
0000
0000
0000
0000
0000
0000
;

//---------------dance-double - ----------------
#NOTEDATA:;
#CHARTNAME:;
#STEPSTYPE:dance-double;
#DESCRIPTION:;
#CHARTSTYLE:;
#DIFFICULTY:Hard;
#METER:14;
#RADARVALUES:0.644470,0.674297,0.465741,0.447476,0.237436,494.000000,443.000000,51.000000,49.000000,0.000000,0.000000,0.000000,0.000000,0.000000,0.644470,0.674297,0.465741,0.447476,0.237436,494.000000,443.000000,51.000000,49.000000,0.000000,0.000000,0.000000,0.000000,0.000000;
#CREDIT:Ben Speirs;
#NOTES:
00000000
00000000
00000000
00000000
,
00000000
00000000
00000000
00000000
,
00000000
00000000
00000000
00000000
,
00001000
00100000
00000000
00010000
00000000
01000000
00000000
00001000
,
00010000
00001000
00000000
00010000
00000020
00000000
00000230
00000000
,
00000301
00000010
00002000
00000000
00013000
01000000
20000000
00000000
,
00100000
00000000
00000000
00000000
30010000
00000000
01000000
00100000
01000000
00000000
00100000
00000000
10000000
00000000
00010000
00000000
,
00100000
00000000
00001000
00010000
00001000
00000000
00010000
00000000
00000010
00000000
00000010
00000000
00001010
00000000
00000000
00000000
,
00010010
00000000
00000000
00000000
00010000
00001000
00010000
00000000
00001000
00000000
00100000
00000000
01000000
00000000
00000000
00000000
,
13000000
00100000
00020000
00000000
00031000
00000100
00000002
00000000
,
00000010
00000000
00000000
00000000
00001003
00000000
00000100
00000010
00000100
00000000
00000010
00000000
00000001
00000000
00001000
00000000
,
00000010
00000000
00010000
00001000
00010000
00000000
00001000
00000000
00100000
00000000
00100000
00000000
00110000
00000000
00000000
00000000
,
00101000
00000000
00000000
00000000
00001000
00010000
00001000
00000000
00010000
00000000
00000010
00000000
00000100
00000000
00001000
00000000
,
00000100
00000000
00000010
00000000
00000100
00000000
00000001
00000000
00000102
00000000
00000000
00000000
00001003
00000100
00001000
00000000
,
00000100
00000000
00010000
00000000
00001000
00000000
01000000
00000000
02001000
00000000
00000000
00000000
03100000
10000000
00100000
00000000
,
10000000
00000000
01000000
00000000
00100000
00000000
00001000
00000000
00021000
00000000
00000000
00000000
00030010
00000100
00000010
00000000
,
00000100
00000001
00000010
00000100
00001200
00000000
00010300
00001000
,
00011000
00000000
00000000
00000000
00001000
00000000
00100000
00010000
00000000
00100000
00001000
00000000
00010000
00000000
00000000
00000000
,
00010000
00000010
00000000
00001000
00000010
00000000
00010000
00000000
00001000
00000000
00000000
00000000
00001000
00000000
00100000
00000000
,
01000000
00000000
10000000
00000000
00100000
00000000
01000000
00000000
20000000
00000000
00000000
32000000
00000000
00000000
03020000
00300000
,
00000000
00000000
00130000
00000000
00001000
00010000
00001000
00000000
00101000
00000000
00000000
00011000
00000000
00000000
00010010
00000000
,
00020000
00000000
00000100
00000000
00030010
00000100
00001000
00020000
,
00000000
00032000
00000000
00003020
00000000
00002030
00000000
00103000
,
00020000
01000000
20030000
00100000
,
30020000
00000000
00000000
00000000
00100000
00000000
00000000
00000000
02030000
00000000
00000000
00000000
03001000
00010000
00001000
00010000
,
00001000
00100000
00001000
00000010
00001000
00100000
00001000
00001000
,
00010000
00000010
00010000
00100000
00010000
00000010
00010000
00010000
,
00001000
00100000
01000000
10000000
00100000
01000000
00001000
00010000
,
00000100
00000010
00000001
00001000
00000010
00000000
00000110
00000000
,
00001001
00000000
00000001
00000100
00000001
00000000
00001000
00000000
00000100
00000000
00001000
00000001
00000100
00000000
00000010
00000000
,
00010000
00010000
00001000
00100000
00010000
00000000
00110000
00000000
,
10010000
00000000
10000000
00100000
10000000
00000000
00010000
00000000
00100000
00000000
00010000
10000000
00100000
00000000
01000000
00000000
,
00001000
00001000
00010000
00000100
00001000
00000000
00001100
00000000
,
00001001
00000000
00001000
00000010
00001000
00000000
00000001
00000000
00000010
00000000
00000100
00000010
00000100
00000000
00010000
00000000
,
00001000
00001000
01000000
01000000
00100000
00000000
10100000
00000000
,
10010000
00000000
00010000
00100000
00010000
00000000
10000000
00000000
00200000
00000000
00000000
00000000
00320000
00000000
00000000
00000000
,
00032000
00003200
00000320
00001030
,
00001001
00002002
00000000
00000000
00003003
00000000
00000000
00000000
,
00001000
00000100
00022000
00033000
,
00001000
00200000
00000000
00000000
00320000
00000000
00000000
00000000
01000000
00000000
01000000
00000000
01030000
00000000
00000000
00000000
,
00001000
00010000
00001000
00000000
00010000
00000000
00000100
00001000
00000100
00000000
00000010
00000000
00000001
00000000
00000000
00000000
,
00001000
00000010
00001000
00000000
00000100
00000000
00010000
00001000
00010000
00000000
00001000
00000000
00100000
00000000
00000000
00000000
,
00010000
10000000
00000000
10000000
00010000
00000000
01000000
00000000
00100000
00000000
10000000
00000000
10100000
00000000
00000000
00000000
,
00000000
00000000
10020000
00000000
00130000
00002000
00000000
00013000
,
00100000
00010000
00001000
00000100
00000010
00000020
00000000
00001030
,
00000001
00000010
00001000
00010000
01000000
10000000
00100000
00010000
,
00001000
00100000
00001000
00010000
00000010
00000100
00000110
00000000
,
00001001
00000000
00001001
00000000
00000001
00000010
00000000
00000100
00001000
00000000
00000010
00000100
00000010
00000000
00001000
00000000
,
00000100
00010000
00001000
00100000
00010000
10000000
10100000
00000000
,
10010000
00000000
10010000
00000000
10000000
01000000
00000000
00100000
00010000
00000000
01000000
00100000
01000000
00000000
00010000
00000000
,
00100000
00001000
00010000
00000100
00001000
00000001
00000101
00000000
,
00001001
00000000
00001001
00000000
00001000
00000100
00000000
00010000
00001000
00000000
01000000
00010000
01000000
00000000
00100000
00000000
,
10000000
01000000
00010000
01000000
10000000
00100000
10100000
00000000
,
10010000
00000000
10010000
00000000
00010000
00100000
00000000
00100000
02000000
00000000
00000000
00000000
03020000
00000000
00000000
00000000
,
00032000
00003020
00000230
00001300
,
00000101
00000000
00001000
00000100
00001000
00000000
00000010
00000000
00010000
00000000
00010000
00000000
00001000
00000000
00000000
00000000
,
00100000
00000000
00010000
00100000
01000000
00000000
10000000
00000000
00100000
00000000
00100000
00000000
01100000
00000000
00000000
00000000
,
10100000
00000000
00010000
00100000
00010000
00000000
01000000
00000000
00001000
00000000
00001000
00000000
00010000
00000000
00000000
00000000
,
00000100
00000000
00001000
00000100
00000010
00000000
00000001
00000000
00000100
00000000
00000100
00000000
00000110
00000000
00000000
00000000
,
00001001
00000000
00000001
00000010
00000100
00000000
00001000
00000000
00000010
00000000
00000010
00000000
00010000
00000000
00001000
00000000
,
00100000
00000000
00010000
01000000
00100000
00000000
10000000
00000000
01000000
00000000
01000000
00000000
11000000
00000000
00000000
00000000
,
10010000
00000000
10000000
01000000
00100000
00000000
00010000
00000000
01000000
00000000
01000000
00000000
00001000
00000000
00010000
00000000
,
00000100
00000000
00001000
00000010
00000100
00000000
00000001
00000000
00000010
00000000
00000010
00000000
00000011
00000000
00000000
00000000
,
00002001
00000000
00000000
00000000
,
00003100
00000000
00001100
00011000
,
00220000
00330000
00002000
02003000
,
03200000
20300000
30020000
00130000
,
00011000
00011000
00000000
00000000
00000000
00000000
00000000
00000000
;

//---------------dance-double - ----------------
#NOTEDATA:;
#CHARTNAME:;
#STEPSTYPE:dance-double;
#DESCRIPTION:;
#CHARTSTYLE:;
#DIFFICULTY:Medium;
#METER:10;
#RADARVALUES:0.427907,0.459748,0.273965,0.584459,0.004566,328.000000,298.000000,30.000000,64.000000,0.000000,0.000000,0.000000,0.000000,0.000000,0.427907,0.459748,0.273965,0.584459,0.004566,328.000000,298.000000,30.000000,64.000000,0.000000,0.000000,0.000000,0.000000,0.000000;
#CREDIT:Ben Speirs;
#NOTES:
// measure 0
00000000
00000000
00000000
00000000
,  // measure 1
00000000
00000000
00000000
00000000
,  // measure 2
00000000
00000000
00000000
00000000
,  // measure 3
00011000
00001000
00100000
00010000
,  // measure 4
01000000
00100000
10000000
00010000
,  // measure 5
00100000
00001000
00200000
00000000
00301000
00010000
00002000
00000000
,  // measure 6
00000000
00000000
00013000
00000000
00000010
00001000
00000010
00001000
,  // measure 7
00000002
00000000
00000013
00000000
00000100
00000100
00001000
00000000
,  // measure 8
00000001
00000000
00000100
00000010
00001000
00000010
00020000
00000000
,  // measure 9
00030100
00001000
00000200
00000000
00010300
00001000
00020000
00000000
,  // measure 10
00000000
00000000
00031000
00000000
01000000
00010000
01000000
00010000
,  // measure 11
20000000
00000000
31000000
00000000
00100000
00100000
00010000
00000000
,  // measure 12
10000000
00000000
00100000
01000000
00010000
00000000
10000000
01000000
,  // measure 13
10000000
01000000
10000000
01000000
00200000
00000000
00301000
00010000
,  // measure 14
00001000
00010000
00001000
00010000
00000020
00000000
00001030
00000100
,  // measure 15
00001000
00000100
00001000
00000100
00000020
00000000
00000031
00000100
,  // measure 16
00000001
00000100
00000001
00000100
00000020
00000000
00001030
00000000
,  // measure 17
00001001
00000000
00000001
00000010
00000100
00000000
00001100
00000000
,  // measure 18
00010000
00001000
01000000
00000000
01010000
00000000
10000000
00010000
,  // measure 19
20000000
30100000
10100000
01010000
,  // measure 20
00100000
00000000
00001000
00000000
00010000
00000000
00000000
00000000
00000100
00000000
00000000
00000100
00000000
00000000
00000100
00000000
,  // measure 21
00000020
00000000
00000000
00000032
00000000
00000000
00000203
00000000
,  // measure 22
00000320
00000000
00000000
00002030
00000000
00000000
00003200
00000000
,  // measure 23
00020300
00000000
00032000
00000000
,  // measure 24
02003000
00000000
03200000
00000000
,  // measure 25
10300000
00000000
00010000
00000000
00100000
01000000
00100000
00000000
,  // measure 26
00010000
00000000
01000000
00000000
00001000
00010000
00001000
00000000
,  // measure 27
00020000
00000000
00000000
00030100
,  // measure 28
00000220
00000000
00000330
00001001
,  // measure 29
00000101
00000101
00000000
00000000
00000000
00001000
00000100
00001000
,  // measure 30
00000200
00020300
00032000
01003000
,  // measure 31
10100000
10100000
00000000
00000000
00000000
00010000
00100000
00010000
,  // measure 32
00200000
00302000
00023000
00030010
,  // measure 33
00001001
00001001
00000000
00000000
00000000
00001000
00000100
00010000
,  // measure 34
00002000
02003000
03200000
10300000
,  // measure 35
10010000
10010000
00000000
00000000
20000000
00000000
32000000
00000000
,  // measure 36
03020000
00032000
00003020
00000032
,  // measure 37
00001003
00000000
00000000
00000000
,  // measure 38
00000000
00000000
00000220
00000330
,  // measure 39
00000001
00000000
00001000
00000000
00000100
00010000
00000100
00000000
,  // measure 40
00010000
00000000
00001000
00000000
01000000
00010000
01000000
00000000
,  // measure 41
00100000
00000000
10000000
00000000
00010000
10000000
00010000
00000000
,  // measure 42
10000000
00000000
01000000
00000000
00100000
00010000
00100000
00000000
,  // measure 43
00000000
00000000
00002000
00000000
00013000
00020000
00000000
00000000
,  // measure 44
00030010
00001000
00000020
00000000
00000130
00000200
00000000
00000301
,  // measure 45
00002000
00000000
00003200
00000000
00010300
00001000
00020000
00000000
,  // measure 46
00032000
00000000
02003000
00300000
03100000
00000000
01100000
00000000
,  // measure 47
10010000
10010000
00000000
00000000
00000000
10000000
01000000
10000000
,  // measure 48
00010000
01000000
00010000
01000000
00002000
00000000
00013000
00000000
,  // measure 49
00011000
00011000
00000000
00000000
00000000
00010000
00000100
00010000
,  // measure 50
00000010
00001000
00000010
00001000
00000002
00000000
00000013
00000000
,  // measure 51
00000011
00000011
00000000
00000000
00000000
00001000
00000001
00001000
,  // measure 52
00000010
00010000
00000010
00010000
00002000
00000000
00013000
00000000
,  // measure 53
00011000
00011000
00000000
00000000
00002000
00000000
00203000
00000000
,  // measure 54
02300000
23000000
30200000
01300000
,  // measure 55
00000000
00010000
10000000
00010000
00100000
00100000
00000000
00000000
,  // measure 56
00000000
00001000
00010000
00001000
00010000
00010000
00000000
00000000
,  // measure 57
00000000
00000010
00001000
00000010
00000100
00000100
00000000
00000000
,  // measure 58
00000000
00000001
00001000
00000001
00000010
00000010
00000100
00000000
,  // measure 59
00001000
00000100
00001000
00000100
00010000
00010000
00000000
00000000
,  // measure 60
00000000
00001000
00010000
00001000
01000000
01000000
00010000
00000000
,  // measure 61
10000000
00100000
10000000
00100000
01000000
01000000
00000000
00000000
,  // measure 62
00000000
00010000
00100000
00010000
00100000
00100000
00001000
00000000
,  // measure 63
00011000
00000000
00000000
00000000
,  // measure 64
00010000
00000000
00000100
00000010
,  // measure 65
00001001
00000000
00000002
00000203
,  // measure 66
00002300
00023000
00230000
10300000
,  // measure 67
10010000
10010000
00000000
00000000
00000000
00000000
00000000
00000000
;

//---------------dance-double - ----------------
#NOTEDATA:;
#CHARTNAME:;
#STEPSTYPE:dance-double;
#DESCRIPTION:;
#CHARTSTYLE:;
#DIFFICULTY:Easy;
#METER:6;
#RADARVALUES:0.264833,0.306498,0.127850,0.155247,0.000000,203.000000,189.000000,14.000000,17.000000,0.000000,0.000000,0.000000,0.000000,0.000000,0.264833,0.306498,0.127850,0.155247,0.000000,203.000000,189.000000,14.000000,17.000000,0.000000,0.000000,0.000000,0.000000,0.000000;
#CREDIT:Ben Speirs;
#NOTES:
// measure 0
00000000
00000000
00000000
00000000
,  // measure 1
00000000
00000000
00000000
00000000
,  // measure 2
00000000
00000000
00000000
00000000
,  // measure 3
00010000
00000000
00001000
00000000
,  // measure 4
00100000
00000000
00010000
10000000
,  // measure 5
00100000
00100000
01000000
02000000
,  // measure 6
00000000
03000000
00001000
00010000
,  // measure 7
00001000
00000000
00010000
00000100
,  // measure 8
00000010
00000001
00001000
00000000
,  // measure 9
00000010
00000010
00001000
00002000
,  // measure 10
00000000
00003000
00000100
00010000
,  // measure 11
00000100
00000000
00010000
00000000
,  // measure 12
00001000
01000000
00100000
00000000
,  // measure 13
10000000
10000000
10010000
00000000
,  // measure 14
00010000
00010000
00100000
00000000
,  // measure 15
00001000
00001000
00011000
00000000
,  // measure 16
00010000
00010000
00000010
00000000
,  // measure 17
00001001
00000000
00000001
00000100
,  // measure 18
00000010
00000010
00000010
00000000
,  // measure 19
00001000
00000100
00010000
00010000
,  // measure 20
00001000
01000000
00100000
00000000
,  // measure 21
20020000
00000000
30030000
00000000
,  // measure 22
00010000
00100000
00010000
10000000
,  // measure 23
00020000
00030000
02000000
03000000
,  // measure 24
00002000
00003000
00020000
00030000
,  // measure 25
00002002
00000000
00000000
00003003
,  // measure 26
00001000
00000001
00001000
00000100
,  // measure 27
00020000
00000000
00030000
00001000
,  // measure 28
00002000
00000000
00003000
01000000
,  // measure 29
10010000
00000000
10000000
00010000
,  // measure 30
01000000
01000000
01000000
00001000
,  // measure 31
00011000
00000000
00010000
00000100
,  // measure 32
00000010
00000010
00000010
00000001
,  // measure 33
00001001
00000000
00000001
00000100
,  // measure 34
00000010
00000010
00000010
00010000
,  // measure 35
00011000
00000000
00001000
00100000
,  // measure 36
01000000
10000000
00100000
01000000
,  // measure 37
20020000
00000000
00000000
00000000
,  // measure 38
00000000
30030000
02200000
03300000
,  // measure 39
10000000
00000000
01000000
00000000
,  // measure 40
00100000
00100000
00001000
00000000
,  // measure 41
00010000
00000000
00000010
00000000
,  // measure 42
00001000
00001000
00000001
00000000
,  // measure 43
00000000
00000100
00000110
00000000
,  // measure 44
00000010
00000010
00000110
00000000
,  // measure 45
00001000
00000001
00001000
00000001
,  // measure 46
00001000
00000100
00010000
00000000
,  // measure 47
00001000
00001000
00000000
00000000
00000000
00000000
00100000
00000000
,  // measure 48
00010000
10000000
00100000
00000000
,  // measure 49
01000000
01000000
00000000
00000000
00000000
00000000
00100000
00000000
,  // measure 50
01000000
00001000
00010000
00000000
,  // measure 51
00000100
00000100
00000000
00000000
00000000
00000000
00001000
00000000
,  // measure 52
00000100
00000010
00000001
00000000
,  // measure 53
00001000
00001000
00000000
00000000
00000001
00000000
00000100
00000000
,  // measure 54
00000010
00001000
00000100
00010000
,  // measure 55
00011000
00000000
00100000
00100000
,  // measure 56
00001000
00010000
00000010
00000010
,  // measure 57
00010000
00000000
00001000
00001000
,  // measure 58
00010000
00001000
01000000
01000000
,  // measure 59
00100000
00000000
10000000
00100000
,  // measure 60
01000000
00010000
00100000
00100000
,  // measure 61
00001000
00000000
00010000
00000100
,  // measure 62
00000010
00000001
00001000
00000010
,  // measure 63
00000100
00000000
00000000
00000000
,  // measure 64
00000010
00000000
00010000
00010000
,  // measure 65
00001000
00000000
00100000
00100000
,  // measure 66
00010000
10000000
00200000
00300000
,  // measure 67
01000000
01000000
00000000
00000000
00000000
00000000
00000000
00000000
;
