#TITLE:GHOST MODE;
#SUBTITLE:;
#ARTIST:lapix;
#TITLETRANSLIT:;
#SUBTITLETRANSLIT:;
#ARTISTTRANSLIT:;
#GENRE:;
#CREDIT:;
#BANNER:ghost mode-bn.mp4;
#BACKGROUND:GHOST MODE-bg.png;
#LYRICSPATH:;
#CDTITLE:;
#MUSIC:Ghost Mode.ogg;
#OFFSET:-0.079000;
#SAMPLESTART:30.079000;
#SAMPLELENGTH:16.000000;
#SELECTABLE:YES;
#BPMS:0.000000=120.000000
;
#STOPS:
;
#BGCHANGES:;
#KEYSOUNDS:;
#ATTACKS:;

//---------------dance-single - Highflyer----------------
#NOTES:
     dance-single:
     Highflyer:
     Easy:
     6:
     0.271510,0.269288,0.115771,0.086828,0.038590,197.000000,185.000000,12.000000,9.000000,0.000000,0.000000,0.271510,0.269288,0.115771,0.086828,0.038590,197.000000,185.000000,12.000000,9.000000,0.000000,0.000000:
0000
0000
0000
0000
,
0000
0000
0000
0000
,
0000
0000
0000
0000
0000
0000
0000
0000
0000
0000
0000
0000
0000
0000
0000
1000
,
0000
0010
0100
0010
,
1000
0001
0010
0100
,
0010
0010
0100
1000
,
0001
0000
0000
0000
0100
0000
0000
0000
0010
0000
0000
0000
0100
0000
0000
1001
,
0000
1000
0100
0010
,
0010
0100
1000
0001
,
0100
0100
0010
1000
,
0001
0000
0000
0000
0001
0000
0000
0000
0010
0000
0000
0000
0100
0000
0000
0010
,
0000
0000
0001
0000
,
1000
0010
0100
0010
,
1000
1000
0001
0001
,
0010
0000
0000
0010
0000
0000
0000
0000
0100
0000
0000
0000
0010
0000
0000
0000
,
1001
0001
0100
0010
,
0100
0001
0010
0100
,
1000
1000
0001
0001
,
1000
1000
0001
0001
,
0110
1000
0100
0100
,
0010
0100
1000
1000
,
0001
0100
0010
0010
,
0100
0000
0000
0000
0001
0000
0000
1000
0000
0000
0000
0000
0001
0000
0000
0000
,
2002
3003
1000
0000
0100
0000
0010
0000
,
1001
0001
0100
0100
,
0010
0010
0100
0100
,
0010
0010
0100
0100
,
1001
0001
0010
0100
,
0010
0001
1000
0010
,
0100
0000
0100
0000
0100
0000
0200
0300
,
0010
1000
0001
0010
,
0200
0000
0000
0000
,
0320
0000
0001
0000
,
0031
1000
0010
0100
,
0010
0000
0000
0000
0100
0000
0000
0001
0000
0000
0000
0000
1000
0000
0000
0000
,
0110
0000
0000
0000
0001
0000
0000
0100
0000
0000
0000
0000
0010
0000
0000
0000
,
0100
0001
0010
0100
,
0010
0010
0001
0001
,
0010
0010
0001
0001
,
0110
1000
0010
0100
,
0110
0010
1000
0001
,
0010
0010
0100
0100
,
1000
0020
0130
0100
,
0220
0000
0330
0000
0001
0000
0000
1000
0000
0000
0000
0000
0001
0000
0000
0000
,
0010
0100
0010
0010
,
0100
1000
0010
0100
,
0001
0010
0100
1000
,
1001
0001
0100
0010
,
0110
0010
0100
0001
,
0010
0000
0010
0000
0010
0000
0200
0300
,
0100
1000
0010
0010
;

//---------------dance-single - Highflyer----------------
#NOTES:
     dance-single:
     Highflyer:
     Medium:
     8:
     0.423115,0.416172,0.125418,0.173656,0.284603,307.000000,294.000000,13.000000,18.000000,0.000000,0.000000,0.423115,0.416172,0.125418,0.173656,0.284603,307.000000,294.000000,13.000000,18.000000,0.000000,0.000000:
0000
0000
0000
0000
,
0000
0000
0000
0000
,
0000
0000
0000
0000
0000
0000
0000
0000
0000
0000
0000
0000
0000
0000
0000
1001
,
0000
1000
0000
0010
0100
0000
0010
1000
,
0100
0000
0010
0100
1000
0001
0100
0000
,
0010
0000
0000
0100
0000
0000
0001
0000
0000
0000
0000
1000
0000
0000
0000
0100
0000
0000
0010
0000
0000
0100
0000
0000
,
1000
0000
0000
0000
0000
0000
0010
0000
0000
0000
0000
0000
0100
0000
0000
0000
0000
0000
0001
0000
0000
0000
1000
0000
0000
0000
0000
0000
0000
0000
1000
0000
0000
0000
0001
0000
0000
0000
0000
0000
0000
0000
0000
0000
0000
1001
0000
0000
,
0000
0001
0100
0010
0100
0000
0010
1000
,
0100
0000
0010
0001
1000
0010
0100
0000
,
0010
0000
0000
1000
0000
0000
0100
0000
0000
0000
0000
0010
0000
0000
0000
0100
0000
0000
1000
0000
0000
0001
0000
0000
,
0100
0000
0000
0000
0000
0000
0001
0000
0000
0000
0000
0000
0010
0000
0000
0000
0000
0000
0100
0000
0000
0000
0000
0000
2000
0000
0000
0000
0000
0000
0000
0000
0000
0000
0000
0000
3000
0000
0010
0000
0000
0000
0000
0000
0000
1001
0000
0000
,
0000
1000
0000
0000
0002
0003
0000
0000
,
2000
3000
0020
0030
0200
0300
0002
0003
,
0010
0100
1000
0010
1000
0100
0001
0100
,
1000
0000
0000
0001
0000
1000
0000
0000
0010
0000
0100
0000
0001
0000
0010
0000
,
1001
0000
0000
0000
1000
0000
0000
0010
0000
0000
0100
0000
0010
0000
1000
0000
,
1000
0000
0100
0000
0010
0000
0000
0100
0000
0000
0010
0000
0001
0000
0000
0000
,
1000
0000
0000
0010
0000
0100
0000
0000
0010
0000
0000
1000
0000
0100
0000
0000
,
0010
0000
0000
0100
0000
1000
0000
0000
0001
0000
0000
0000
0100
0000
0010
0000
,
1001
0000
0000
0000
1000
0000
0000
0100
0000
0000
0010
0000
0001
0000
1000
0000
,
0010
0000
0000
0000
0100
0000
0000
0010
0000
0000
1000
0000
0001
0000
0000
0000
,
0010
0100
0010
0000
0100
1000
0001
0000
,
0100
0000
0010
0000
1000
0000
0000
0100
0000
0000
0010
0000
0100
0000
1000
0000
,
1001
0000
1001
0000
0001
0000
0000
0100
0000
0000
0010
0000
0100
0000
0001
0000
,
0010
0000
0000
0000
0100
0000
0000
0010
0000
0000
0001
0000
1000
0000
0000
0000
,
0010
0000
0000
0100
0000
0010
0000
0000
1000
0000
0000
0001
0000
0010
0000
0000
,
0100
0000
0000
0010
0000
0001
0000
0000
1000
0000
0000
0010
0000
0100
0000
0000
,
0110
0000
0000
0000
0001
0000
0000
0010
0000
0000
0100
0000
1000
0000
0001
0000
,
0100
0000
0010
0000
1000
0000
0000
0001
0000
0000
0010
0000
0100
0000
0000
0000
,
0020
0000
0030
0000
0002
0000
0003
0000
2000
0000
3000
0000
0020
0030
0020
0030
,
0100
0001
1000
0001
0020
0000
0130
1000
,
0002
0000
0103
0010
0100
0001
0010
0100
,
1000
0010
0100
0010
1000
0100
0010
0010
,
0001
1000
0001
1000
0001
1000
0001
1000
,
0010
0000
0000
0000
0100
0000
0000
0001
0000
0000
1000
0000
0100
0000
0000
0000
,
1001
0000
0000
0000
1000
0000
0000
0100
0000
0000
0010
0000
0100
0000
1000
0000
,
0010
0000
0100
0000
0000
0001
0000
1000
0000
0000
0100
0000
0010
0000
0000
0000
,
0100
0000
0000
0100
0000
1000
0000
0000
0001
0000
0000
0100
0000
0010
0000
0000
,
0100
0000
0000
0001
0000
0010
0000
0000
0100
0000
1000
0000
0001
0000
0001
0000
,
2001
0000
0000
0000
3010
0000
0000
0100
0000
0000
0010
0000
1000
0000
0100
0000
,
0010
0000
0100
0000
0000
0010
0000
0001
0000
0000
1000
0000
0010
0000
0000
0000
,
0100
0010
1000
0000
0001
0010
0100
0000
,
0010
0001
2000
0000
3010
0010
0100
0100
,
1001
0000
1001
0000
1000
0000
0000
0100
0000
0000
0010
0000
0100
0000
0000
0000
,
0110
0000
0001
0000
0000
0100
0000
0010
0000
0000
0100
0000
0001
0000
0000
0000
,
1000
0000
0000
0001
0000
0010
0000
0000
0001
0000
0000
1000
0000
0010
0000
0000
,
0100
0000
0000
0010
0000
1000
0000
0000
0001
0000
0000
0000
0010
0000
0100
0000
,
0010
0000
0000
0000
0001
0000
0000
1000
0000
0000
0010
0000
0100
0000
0000
0000
,
0010
0000
0100
0000
0000
0010
0000
1000
0000
0000
0001
0000
0010
0000
0000
0000
,
0200
0300
2000
3000
0020
0030
0100
0100
,
0001
0000
0010
0000
0100
0000
0000
1000
0000
0000
0010
0000
0100
0000
0000
0000
;

//---------------dance-single - DS RH----------------
#NOTES:
     dance-single:
     DS RH:
     Hard:
     14:
     0.673952,0.734422,0.241189,0.646387,1.046762,489.000000,464.000000,25.000000,67.000000,1.000000,0.000000,0.673952,0.734422,0.241189,0.646387,1.046762,489.000000,464.000000,25.000000,67.000000,1.000000,0.000000:
0000
0000
0000
0000
,
0000
0000
0000
0000
,
0000
0000
0000
0000
0000
0000
0000
0000
0000
0000
0000
0000
0000
0000
0000
1001
,
0000
0000
0000
0000
0000
0000
1000
0000
0000
0100
0000
0000
0000
0000
0000
0010
0000
0000
0100
0000
0000
0000
1000
0000
0010
0000
0000
0000
0000
0000
0000
0000
0000
0000
0000
0000
0100
0000
0000
0000
0001
0000
1000
0000
0000
0000
0000
0000
,
0100
0000
0000
0000
0000
0010
0100
0000
1000
0000
0000
0010
0000
0000
0100
0001
0000
1000
0100
0000
0010
0000
0000
0000
,
0110
0000
0000
0100
0000
0000
1000
0000
0010
0000
0000
0100
0000
0000
0010
1000
0000
0001
0010
0000
0100
1000
0000
0010
,
0100
0000
0000
0000
0001
0000
0010
0000
0000
0000
0100
0000
0010
0000
0000
0000
0001
0000
1000
0000
0000
0000
0010
0000
0000
0000
0000
0000
0100
0000
0001
0000
0000
0000
0010
0000
0000
0000
0000
0000
0000
0000
0000
0000
0000
1001
0000
0000
,
0000
0000
0000
0000
0000
0000
1000
0000
0000
0100
0000
0000
0000
0000
0000
0010
0000
0000
0100
0000
0000
0000
1000
0000
0010
0000
0000
0000
0000
0000
0000
0000
0000
0000
0000
0000
0100
0000
0000
0000
0001
0000
0010
0000
0000
0000
0100
0000
,
0010
0000
0000
0000
0000
0000
0000
0000
0000
0000
0001
0000
1000
0000
0000
0000
0010
0000
0000
0000
0000
0000
0100
0000
0000
0000
0000
0000
0010
0000
1000
0000
0000
0000
0001
0000
0010
0000
0000
0000
0100
0000
0000
0000
0000
0010
0000
0000
,
0001
0000
0000
0000
0000
0000
1000
0000
0000
0000
0000
0000
0010
0000
0000
0000
0100
0000
0000
0000
0000
1001
0000
0000
0000
0000
0000
0000
0000
0000
1000
0000
0000
0000
0100
0000
0010
0000
0000
0000
0001
0000
1000
0000
0000
0000
0000
0000
,
0010
0000
0000
0000
0100
0000
0001
0000
0000
0000
1000
0000
0001
0000
0000
0000
0100
0000
0010
0000
0000
0000
0100
0000
0000
0000
0000
0000
0010
0000
1000
0000
0001
0000
0010
0000
0001
0000
0000
0100
0000
0000
0000
0000
0000
0020
0000
0000
,
0000
0000
0000
0000
0000
0000
0100
0000
0000
0000
0000
0000
0000
0000
0000
1030
0000
0000
0000
0000
0000
0000
0001
0000
0010
0000
0000
0000
0100
0000
0000
0000
0000
0000
0000
0000
0010
0000
0000
0000
0000
0000
0000
0000
0000
0000
0000
0000
,
0022
0033
0000
2020
3030
0000
0202
0303
0000
2200
3300
0000
,
1000
0000
0100
0000
0010
0000
0001
0000
1000
0010
1000
0010
0100
0001
0100
0001
,
0010
0000
0200
1000
0000
0310
0100
1000
0001
0000
0100
0010
0100
0010
1000
0000
,
4004
0000
3003
0000
2000
0100
0000
3001
0000
0001
0100
0000
0010
0000
0100
0001
,
0000
0000
0000
0000
0000
0000
1000
0000
0000
0000
0000
0000
0002
0000
0000
0100
0000
0000
0000
0000
0000
1003
0000
0000
0000
0000
0000
0000
0001
0000
0010
0000
0000
0000
0000
0000
0100
0000
0000
0000
0000
0000
0100
0000
0000
0000
0000
0000
,
0010
0002
0000
0100
0000
1003
0000
0001
2000
0010
0000
0100
0000
3100
0000
1000
,
0002
0100
0000
1000
0000
0013
0000
0001
2000
0010
0000
0001
0000
3010
1000
0000
,
4400
0000
3300
0000
0200
0010
0000
1300
0000
1000
0001
0000
0100
0000
0010
1000
,
0000
0000
0000
0000
0000
0000
0010
0000
0000
0000
0000
0000
0200
0000
0000
0010
0000
0000
0000
0000
0000
0301
0000
0000
0000
0000
0000
0000
0001
0000
0010
0000
0000
0000
0000
0000
0100
0000
0000
0000
0000
0000
0100
0000
0000
0000
0000
0000
,
0010
0000
0000
0000
0000
0000
0001
0000
0000
0100
0000
0000
0010
0000
0000
0000
0000
0000
1000
0000
0000
0000
0000
0000
0001
0000
0000
0000
1000
0000
0100
0000
0000
0000
1000
0000
0001
0000
0000
0000
0000
0000
1000
0000
0000
0100
0000
0000
,
0010
0000
0000
0000
0001
0000
1000
0000
0000
0000
0010
0000
0100
0000
0000
0000
0010
0000
1000
0000
0000
0000
0100
0000
0000
0000
0000
0000
0010
0000
0001
0000
1000
0000
0001
0000
0100
0000
0000
0010
0000
0000
0100
0000
0000
0000
0000
0000
,
1001
0000
1001
0000
0002
0100
0000
1003
0000
1000
0100
0000
0010
0000
0200
0300
,
0M00
0000
0100
0000
2000
0001
0000
3010
0000
0010
0100
0000
0002
0000
0013
0100
,
0010
0002
0000
0010
0000
1003
0000
0001
2000
0100
0000
0010
0000
3010
0000
1000
,
0002
0010
0000
1000
0000
0103
0000
0001
2000
0100
0000
0001
0000
3100
1000
0000
,
4040
0000
3030
0000
0020
0100
0000
1030
0000
1000
0001
0000
0010
0000
0100
1000
,
0000
0000
0000
0000
0000
0000
0100
0000
0000
0000
0000
0000
0020
0000
0000
0100
0000
0000
0000
0000
0000
0031
0000
0000
0000
0000
0000
0000
0001
0000
0100
0000
0000
0000
0000
0000
0010
0000
0000
0000
0000
0000
0010
0000
0000
0000
0000
0000
,
0220
0330
0000
0000
2002
3003
0000
0000
2200
3300
0000
0000
0101
0000
0101
0000
,
1000
0000
0100
0000
0010
0001
0010
0000
0001
1000
0010
0000
0200
0000
0310
0000
,
1000
0000
0000
0001
0000
0000
0000
0000
0010
0000
0000
0100
0000
0000
1000
0001
0000
0000
0100
0000
0000
0010
0000
1000
,
0000
0000
0000
0000
0001
0000
0010
0000
0000
0000
0000
0000
0100
0000
0000
0000
0000
0000
0010
0000
0000
0000
0001
0000
0000
0000
0000
0000
1000
0000
0010
0000
0000
0000
0000
0000
0100
0000
0000
0001
0000
0000
0100
0000
0000
0010
0000
0000
,
2000
3000
1000
0000
0002
0003
0001
0000
0020
0030
0010
0000
0200
0300
0100
0000
,
2000
0000
0000
3000
0020
0000
0030
0200
0300
0010
1000
0000
0001
0010
0100
0000
,
2002
0000
0000
0000
0000
0000
3003
0000
0000
0000
0000
0000
1000
0000
0000
0000
0000
0000
0000
0000
0000
0000
0100
0000
0000
0000
0000
0000
0010
0000
0001
0000
0000
0000
0000
0000
0100
0000
0000
0000
0000
0000
0010
0000
0000
1000
0000
0000
,
0200
0000
0000
0300
0000
0000
0010
0000
0000
0000
0000
0000
0000
0000
0000
0100
0000
0000
0000
0000
0000
0000
1000
0000
0000
0000
0000
0000
0010
0000
0100
0000
0000
0000
0000
0000
0001
0000
0000
0000
0000
0000
0010
0000
0000
0000
0000
0000
,
0001
0100
0002
0100
0000
2003
0000
0100
0000
3001
2000
0010
0000
3001
0000
0010
,
0001
0000
0000
2000
0000
0000
0000
0000
0000
0010
0000
0000
0000
0000
0000
3001
0000
0000
0020
0000
0000
0100
0000
0000
0000
0000
0000
0031
0000
0000
0100
0000
0000
0010
0000
0000
1000
0000
0000
0000
0001
0000
0010
0000
0000
0000
0001
0000
,
0200
0000
0000
0000
0000
0000
0310
0000
0000
1000
0000
0100
0000
0000
0010
0100
0000
0000
1000
0000
0010
0000
0100
0000
,
0002
0000
0000
0000
0003
0000
0010
0000
0000
0000
0000
0000
0000
0000
0000
0100
0000
0000
0000
0000
0000
0000
1000
0000
0000
0000
0000
0000
0001
0000
0100
0000
0000
0000
0000
0000
0010
0000
0000
0000
0000
0000
1000
0000
0000
0001
0000
0000
,
0100
0000
0000
0000
0000
0000
0010
0000
0000
1000
0000
0000
0001
0000
0000
0000
0000
0000
0010
0000
0000
0000
0000
0000
0100
0000
0000
0000
1000
0000
0100
0000
0000
0000
0010
0000
0001
0000
0000
0000
0000
0000
1000
0000
0000
0010
0000
0000
,
0100
0000
0000
0000
0010
0000
1000
0000
0000
0000
0001
0000
0020
0000
0000
0000
0000
0000
0000
0000
0000
0000
0000
0000
0130
0000
0000
1000
0000
0000
0100
0000
0000
1000
0000
0000
0001
0000
0000
0100
0000
0000
0010
0000
0000
0000
0000
0000
,
0110
0000
1001
0000
0001
0000
0000
0001
0000
1000
0010
0000
0100
0001
1000
0000
,
2200
0000
0000
3300
0000
0000
0100
0000
0000
0000
0000
0000
0000
0000
0000
0000
0010
0000
0000
0000
0000
0000
0001
0000
0000
0000
0000
0000
0100
0000
0010
0000
0000
0000
0000
0000
0100
0000
0000
0000
0000
0000
0010
0000
0000
1000
0000
0000
,
0001
0010
0002
0010
0000
2003
0000
0010
0000
3001
1000
0200
0000
0010
0000
1300
,
0001
0000
0000
0020
0000
0000
0000
0000
0000
0100
0000
0000
0000
0000
0000
0031
0000
0000
1000
0000
0000
0020
0000
0000
0000
0000
0000
1030
0000
0000
0010
0000
0000
0100
0000
0000
0001
0000
0000
0000
1000
0000
0100
0000
0000
0000
1000
0000
,
0020
0000
0000
0030
0000
0000
0000
0000
0000
0000
0000
0000
0100
0000
0000
0000
0000
0000
0000
0000
0000
0000
0010
0000
0000
0000
0000
0000
1000
0000
0001
0000
0000
0000
0000
0000
0010
0000
0000
0000
0100
0000
0000
0000
0010
0000
0000
0000
,
0001
0000
0000
1000
0000
0000
0010
0000
0100
0000
0000
0010
0000
0000
1000
0100
0000
0000
0010
0000
0000
0000
0000
0000
,
0022
0000
0033
0000
0000
0000
2020
0000
3030
0000
0000
0000
0202
0000
0303
0000
0000
0000
1000
0000
0000
1000
0000
0000
,
0001
0000
0010
0000
0100
1000
0000
0001
0000
0100
0010
0000
1000
0000
0000
0000
;

//---------------dance-single - FS XO BR SS----------------
#NOTES:
     dance-single:
     Shadowing the player who actually paid for a credit:
     Challenge:
     17:
     0.862769,1.007830,0.231542,0.212247,1.456784,626.000000,602.000000,24.000000,22.000000,41.000000,0.000000,0.862769,1.007830,0.231542,0.212247,1.456784,626.000000,602.000000,24.000000,22.000000,41.000000,0.000000:
// measure 0
0000
0000
0000
0000
,  // measure 1
0000
0000
0000
0000
,  // measure 2
0000
0000
0000
0000
0000
0000
0000
0000
0000
0000
0000
0000
0000
0000
0000
1001
,  // measure 3
0000
0000
0000
0000
0000
0000
1000
0000
0000
0100
0000
0000
00M0
0000
0000
0100
0000
0000
0001
0000
0000
1000
0000
0000
0200
0000
0000
0000
0000
0000
0000
0000
0000
0000
0000
0000
0310
0000
0000
000M
0010
0000
1000
0000
0000
0000
0000
0000
,  // measure 4
0020
0000
0000
0000
0000
0000
0000
0000
0030
0M00
0010
0000
0001
0000
0000
0000
1000
0000
0000
0000
0000
0000
0010
0000
0100
0000
0000
0000
0000
0000
0001
0000
0000
0000
1000
0000
0100
0000
00M0
0000
0100
0000
0001
0000
0000
0000
0000
0000
,  // measure 5
0010
0000
0000
0100
0000
0000
1000
0000
0010
0000
0000
0100
0000
0000
0001
1000
0000
0001
0010
0M00
0010
1000
0000
0001
,  // measure 6
0010
0000
0000
0000
0001
0000
0100
0000
00M0
0000
0100
0000
1000
0000
0000
0000
0010
0000
0100
0000
0000
0000
1000
0000
0000
0000
0000
0000
0100
0000
0001
0000
0000
0000
0010
0000
0000
0000
0000
0000
0000
0000
0000
0000
0000
1001
0000
0000
,  // measure 7
0000
0000
0000
0000
0000
0000
0001
0000
0000
0100
0000
0000
00M0
0000
0000
0100
0000
0000
1000
0000
0000
0010
0000
0000
2000
0000
0000
0000
0000
0000
0000
0000
0000
0000
0000
0000
3010
0000
0M00
0000
0010
0000
0001
0000
0000
0000
0000
0000
,  // measure 8
2000
0000
0000
0000
0000
0000
0000
0000
0000
0000
3001
0000
0100
0000
0000
0000
0001
0000
0010
0000
0000
0000
0001
0000
1000
0000
0000
0000
0001
0000
0010
0000
0M00
0000
0010
0000
1000
0000
0000
0000
0100
0000
0000
0000
0000
0010
0000
0000
,  // measure 9
0001
0000
0000
0000
0000
0000
1000
0000
0000
0000
0000
0000
0010
0000
0000
0000
0100
0000
0000
0000
0000
0002
0000
0000
0000
0000
0000
0003
0000
0000
0010
0000
0000
0000
0001
0000
0100
0000
00M0
0000
0100
0000
1000
0000
0000
0000
0000
0000
,  // measure 10
0001
0000
0000
0000
1000
0000
0010
0000
0M00
0000
0010
0000
0001
0000
0000
0000
1000
0000
0010
0000
0000
0100
0000
0000
0000
0000
0001
0000
0010
0000
0001
0000
1000
0000
0010
0000
0100
0000
0000
0011
0000
0000
0000
0000
0000
1100
0000
0000
,  // measure 11
0000
0000
0000
0000
0000
0000
0001
0000
0000
0000
0000
0000
0000
0000
0000
0010
0000
0000
0000
0000
0000
0000
0100
0000
1010
0000
0000
0000
0001
0000
0000
0000
0000
0000
0000
0000
0100
0000
0000
0000
0000
0000
0000
0000
0000
0000
0000
0000
,  // measure 12
0011
1000
0000
0101
0010
0000
0101
1000
0000
0011
0100
0000
,  // measure 13
0002
0003
0020
0030
0200
0300
2000
3000
0010
0100
0001
0010
0100
1000
0001
0100
,  // measure 14
0010
0000
0000
0010
0000
0000
0001
0000
0000
0100
0000
0000
0100
0000
0000
1000
0000
0000
0100
0000
0000
0100
0000
0000
0010
0000
0000
0000
0000
0000
1000
0000
0000
0100
0000
0000
0001
0000
0000
0000
0100
0000
1000
0000
0000
0000
0000
0000
,  // measure 15
0012
0000
0000
0000
0103
1000
00MM
1000
0000
0001
0010
0000
0001
0000
0100
0100
,  // measure 16
1000
0000
0000
0000
0001
0000
0010
0000
0000
0000
0000
0000
0100
0000
0000
0001
0000
0000
M0M0
0000
0000
0001
0000
0000
0000
0000
0000
1000
0000
0000
0010
0000
0000
0000
0000
0000
0100
0000
0000
0000
0000
0000
0001
0000
0000
0000
0000
0000
,  // measure 17
1000
0100
0001
0100
0010
0010
1000
0001
0100
1000
0100
0010
0100
0001
1000
0010
,  // measure 18
0100
0100
0010
1000
0010
0100
0010
0001
1000
0010
0100
1000
0100
0001
0010
0000
,  // measure 19
0102
0000
0000
0000
0013
1000
0M0M
1000
0000
0001
0100
0000
0010
0000
0100
0100
,  // measure 20
1000
0000
0000
0000
0001
0000
0100
0000
0000
0000
0000
0000
0010
0000
0000
0001
0000
0000
MM00
0000
0000
0001
0000
0000
0000
0000
0000
1000
0000
0000
0100
0000
0000
0000
0000
0000
0010
0000
0000
0000
0000
0000
0001
0000
0000
0000
0000
0000
,  // measure 21
1000
0000
0000
0010
0000
0000
0100
0000
0000
1000
0000
0000
0100
0000
0000
0000
0000
0000
0010
0000
0000
0000
0000
0000
1000
0000
0000
0000
0001
0000
0010
0000
0M00
0000
0010
0000
1000
0000
0000
0000
0001
0000
0100
0000
0000
0100
0000
0000
,  // measure 22
1000
0000
0000
0000
0001
0000
0010
0000
0000
0000
0001
0000
0100
0000
0000
0000
0010
0000
0100
0000
0000
0000
1000
0000
0000
0000
0100
0000
0001
0000
1000
0000
0100
0000
0010
0000
0001
0000
0000
1000
0000
0000
0010
0000
0000
0000
0000
0000
,  // measure 23
1100
0000
0011
0000
0100
1000
00MM
1000
0000
0001
0010
0000
0100
0000
0010
0000
,  // measure 24
MM0M
00M0
0000
0000
1000
0000
0000
0000
0100
0000
0001
0000
M0M0
0000
0001
0000
0000
0000
1000
0000
0010
0000
0000
0000
0100
0000
0000
0000
0010
0000
0000
0000
,  // measure 25
1000
0010
0100
1000
0100
0001
0010
0001
0100
0100
1000
0010
0001
0010
0100
0001
,  // measure 26
0010
0100
0001
0100
1000
0001
0100
0010
0100
1000
0100
0001
0010
0010
1000
0000
,  // measure 27
0201
0000
0000
0000
0310
1000
0M0M
1000
0000
0100
0010
0000
0001
0000
0100
0100
,  // measure 28
1000
0000
0000
0000
0001
0000
0100
0000
0000
0000
0000
0000
0010
0000
0000
0001
0000
0000
MM00
0000
0000
0001
0000
0000
0000
0000
0000
0100
0000
0000
0001
0000
0000
0000
0000
0000
0010
0000
0000
0M00
0000
0000
0010
0000
0000
0000
0000
0000
,  // measure 29
1000
0000
0100
0000
0010
0000
0001
0000
0000
0000
0000
0000
1000
0000
0010
0000
0100
0000
0001
0000
0000
0000
0000
0000
0010
0000
0100
0000
1000
0000
0001
0000
0000
0000
0000
0000
0100
0000
0000
00M0
0000
0000
0100
0000
0000
0000
0000
0000
,  // measure 30
1000
0010
0100
0001
1000
0100
1000
0001
0100
0010
1000
0001
0010
0100
1000
0001
,  // measure 31
0200
0000
0000
0000
0000
0000
0310
0000
0000
0000
0000
0000
1000
0000
0000
0000
0001
0000
0010
0000
0000
0000
0001
0000
0010
0000
0000
0000
0001
0000
1000
0000
0000
0000
0000
0000
0010
0000
0000
0000
0000
0000
0100
0000
0000
0001
0000
0000
,  // measure 32
1000
0000
0000
0000
0001
0000
0100
0000
00M0
0000
0100
0000
1000
0000
0000
0000
0001
0000
0010
0000
0000
0000
0001
0000
1000
0000
0000
0000
0001
0000
0010
0000
0M00
0000
0010
0000
1000
0000
0000
0100
0000
0000
0010
0000
0000
0001
0000
0000
,  // measure 33
1000
0010
1000
0001
0010
0100
0010
0001
1000
0010
0100
0001
1000
0001
0010
0100
0010
0001
1000
0010
0100
0010
1000
0001
,  // measure 34
0020
0000
0000
0000
0000
0000
0130
0000
0000
0000
1000
0000
0001
0000
0000
0000
0000
0000
0100
0000
0000
0010
0000
0000
0000
0000
0000
0100
0000
0000
0001
0000
0000
1000
0000
0000
0100
0000
0000
0000
0010
0000
0001
0000
0000
0000
0000
0000
,  // measure 35
2010
0000
0000
0000
0000
0000
0000
0000
0000
0000
0000
0000
3001
0000
0000
0000
0000
0000
1000
0000
0000
0000
0001
0000
0010
0000
0M00
0000
0010
0000
1000
0000
0000
0000
0000
0000
0100
0000
0000
0000
0000
0000
0010
0000
0000
0001
0000
0000
,  // measure 36
2200
0000
0000
3300
0000
0000
0010
0000
0000
0000
1000
0000
0000
0000
0000
0000
0100
0000
0000
0000
0000
0000
0001
0000
0000
0000
0000
0000
0100
0000
1000
0000
0000
0000
0000
0000
0001
0000
0000
0000
0000
0000
1000
0000
0000
0010
0000
0000
,  // measure 37
1100
0010
1100
0001
0100
1000
0100
0001
0010
0010
1000
0100
0001
0100
0010
0010
,  // measure 38
1000
0000
0000
0010
0000
0000
0100
0000
0000
1000
0000
0000
0100
0000
0000
0001
0000
0000
0010
0000
0000
0100
0000
0000
0001
0000
0000
0100
0000
0000
0010
0000
0000
0001
0000
0000
1000
0000
0000
0000
0010
0000
0100
0000
0000
0000
0010
0000
,  // measure 39
2200
0000
0000
0000
3300
0000
0001
0000
0000
0000
0000
0000
1000
0000
0000
0000
0010
0000
0000
0000
0000
0000
1000
0000
0000
0000
0000
0000
0100
0000
0010
0000
0000
0000
0000
0000
0001
0000
0000
0100
0000
0000
0100
0000
0000
1000
0000
0000
,  // measure 40
0020
0000
0000
0030
0000
0000
0100
0000
0000
0001
0000
0000
0000
0000
0000
0100
0000
0000
0000
0000
0000
1000
0000
0000
0000
0000
0000
0000
0100
0000
0001
0000
0000
0000
0000
0000
1000
0000
0000
0000
0000
0000
0100
0000
0000
0100
0000
0000
,  // measure 41
0001
0000
0000
0000
0000
0000
1000
0000
0000
0000
0010
0000
0100
0000
0000
0000
0000
0000
0001
0000
0000
0000
0000
0000
1000
0000
0000
0000
0001
0000
0100
0000
00M0
0000
0100
0000
1000
0000
0000
0000
0000
0000
0100
0000
0000
0010
0000
0000
,  // measure 42
0001
0000
0000
1000
0000
0000
0010
0000
0000
0100
0000
0000
0001
0000
0010
0000
0100
0000
0010
0000
0001
0000
1000
0000
0010
0000
0000
0010
0000
0000
0100
0000
0000
0100
0000
0000
0001
0000
0000
1000
0000
0000
0001
0000
0000
0000
0000
0000
,  // measure 43
1100
0000
0011
0000
1000
0100
1000
0010
0M00
0010
0001
0000
0100
0100
1000
0001
,  // measure 44
1100
0000
0000
0000
0000
0000
0010
0000
0000
1000
0000
0000
0001
0000
0000
0000
0010
0000
0000
0000
0000
0000
0001
0000
0000
0000
0000
0000
0100
0000
0010
0000
0000
0000
0000
0000
1000
0000
0000
0000
0000
0000
0100
0000
0000
0100
0000
0000
,  // measure 45
0001
1000
0001
0010
0100
0001
0100
0010
0001
1000
0010
0100
1000
0100
0001
1000
,  // measure 46
0100
0100
0010
0001
0010
0100
0001
1000
0100
0010
1000
0010
0001
0100
1000
0100
,  // measure 47
0011
0000
0000
0000
0000
0000
1000
0000
0000
0001
0000
0000
0010
0000
0000
0000
0000
0000
0100
0000
0000
0000
1000
0000
0100
0000
00M0
0000
0100
0000
0001
0000
0000
0000
0000
0000
1000
0000
0000
0000
0000
0000
0010
0000
0000
0010
0000
0000
,  // measure 48
0201
0000
0000
0300
0010
0000
0001
0000
0000
0000
0000
0000
1000
0000
0000
0000
0010
0000
0000
0000
0000
0000
0100
0000
0001
0000
0000
0000
1000
0000
0010
0000
0M00
0000
0010
0000
0001
0000
0000
0000
0000
0000
1000
0000
0000
0000
0000
0000
,  // measure 49
0001
0000
0010
0000
0100
0000
0010
0000
0000
0000
0000
0000
0001
0000
0100
0000
0010
0000
0100
0000
0000
0000
0000
0000
0010
0000
1000
0000
0001
0000
0010
0000
0000
0000
0000
0000
0100
0000
0000
1000
0000
0000
0100
0000
0000
0001
0000
0000
,  // measure 50
0100
0000
0000
1000
0000
0000
0010
0000
0000
0000
0000
0000
0100
0000
0000
0001
0000
0000
0000
0000
0000
1000
0000
0000
0000
0000
0000
0000
0001
0000
0010
0000
0000
0000
0001
0000
1000
0000
0000
0000
0010
0000
0200
0000
0000
0000
0300
0000
;
