#VERSION:0.83;
#TITLE:FUEL TANK;
#SUBTITLE:;
#ARTIST:JOYRYDE;
#TITLETRANSLIT:;
#SUBTITLETRANSLIT:;
#ARTISTTRANSLIT:;
#GENRE:Dance (Murdered);
#CREDIT:;
#MUSIC:FUEL TANK.ogg;
#BANNER:FUEL TANK.png;
#BACKGROUND:FUEL TANK-bg.png;
#CDTITLE:yosefu-.png;
#SAMPLESTART:42.240;
#SAMPLELENGTH:15.360;
#SELECTABLE:YES;
#OFFSET:0.000;
#BPMS:0.000=125.000
,8.000=250.000
,8.500=125.000
,8.750=62.500
,9.000=125.000
,15.500=250.000
,15.750=125.000
,15.875=62.500
,16.000=125.000
,23.500=250.000
,23.750=125.000
,23.875=62.500
,24.000=250.000
,24.500=125.000
,24.750=62.500
,25.000=125.000
,87.500=250.000
,87.750=125.000
,87.875=62.500
,88.000=250.000
,88.500=125.000
,88.750=62.500
,89.000=125.000
,91.500=250.000
,91.750=125.000
,91.875=62.500
,92.000=125.000
,104.000=250.000
,104.500=125.000
,104.750=62.500
,105.000=125.000
,160.500=250.000
,160.750=125.000
,160.875=62.500
,161.000=125.000
,184.000=62.500
,185.750=125.000
,185.875=62.500
,185.938=31.250
,186.000=62.500
,193.750=125.000
,193.875=62.500
,193.938=31.250
,194.000=62.500
,200.000=125.000
,240.500=250.000
,240.750=125.000
,240.875=62.500
,241.000=125.000
;
#STOPS:;
#SPEEDS:0.000=1.000=0.000=0;
#SCROLLS:0.000=1.000;
#TICKCOUNTS:0.000=4;
#TIMESIGNATURES:0.000=4=4,
184.000=2=4,
200.000=4=4
;
#LABELS:0.000=Song Start;
#COMBOS:0.000=1;
#DISPLAYBPM:62.500:125.000;
#ORIGIN:;
#PREVIEWVID:;
#JACKET:FUEL TANK-jacket.png;
#CDIMAGE:;
#DISCIMAGE:;
#BGCHANGES:;
#FGCHANGES:;

//--------------- dance-single - ----------------
#NOTEDATA:;
#STEPSTYPE:dance-single;
#DESCRIPTION:;
#DIFFICULTY:Hard;
#METER:13;
#RADARVALUES:0,0,0,0,0;
#CREDIT:-YOSEFU-;
#NOTES:
0000
0000
0000
0000
,
0000
0000
0000
0000
,
1001
0000
1000
0100
0010
0100
1000
0001
,
0100
0010
1000
0100
0010
0001
1000
MMMM
,
1001
0000
0001
0000
0100
2000
0000
0000
3100
0000
0001
0000
0010
2000
0000
0000
,
3010
0100
1000
0100
0010
0001
0100
MMMM
,
1001
0000
0001
0100
0010
1000
0100
0010
,
0001
1000
0010
0100
0001
0010
0100
0000
,
1000
0000
0001
0000
0010
2000
0000
0000
3010
0000
0001
0000
0100
2000
0000
0000
,
3100
0001
0010
0100
1000
0001
0100
0010
,
1000
0010
1000
0000
0001
0010
0001
0000
,
1000
0100
1000
0000
0001
0100
0001
0000
,
1000
0010
1000
0000
0001
0010
0001
0000
,
1000
0001
1000
0001
1000
0001
1000
0001
1000
0000
0000
0010
0000
0100
0000
0000
,
0001
0000
0000
0010
0000
0100
0000
0000
1000
0000
0000
0010
0000
0100
0000
0000
,
0001
0000
0000
1000
0000
0100
0000
0000
0010
0000
0000
0001
0000
0100
0000
0000
,
0010
0000
0000
1000
0000
0100
0000
0000
0001
0000
0000
0100
0000
1000
0000
0000
,
0001
0000
0000
0100
0000
1000
0000
0000
0100
0000
0000
0001
0000
1000
0000
0000
,
0100
0010
0100
0010
0001
1000
0001
1000
,
0010
0100
0010
0100
0001
1000
0001
1000
,
0001
0100
0001
0100
0001
0100
0001
0000
1000
0100
1000
0100
1000
0100
1000
0000
,
0001
0000
0100
0000
0010
1000
0001
0000
0100
0000
0000
0010
0000
0000
MMMM
0000
,
1001
0000
0000
0000
1000
0000
1000
0000
0100
0000
0000
0010
0001
0000
MMMM
0000
,
1000
0000
1000
0000
0010
0000
0001
0000
0010
0000
0100
0001
0000
0100
0001
0000
,
1000
0000
0100
0010
0000
2000
0000
0000
3010
0000
0001
0100
0000
2000
0000
0000
,
3100
0010
1000
0000
0001
0010
0100
0000
1000
0100
0010
0000
0001
0100
0010
0000
,
1001
0000
0000
0000
0001
0000
0001
0000
0100
0000
0000
0010
1000
0000
MMMM
0000
,
0001
0000
0001
0000
0010
0000
1000
0000
0010
0000
0001
0000
1000
0010
1000
0010
,
0100
0000
0001
0010
0000
2000
0000
0000
3010
0000
0001
0100
0000
2000
0000
0000
,
3100
0010
1000
0000
0001
0010
0100
0000
1000
0010
0100
0000
0001
0000
1000
0000
,
0100
0000
1000
0010
0000
0100
0000
0000
0001
0000
1000
0100
0000
0010
0000
0000
,
0001
0000
1000
0010
0000
0100
0000
0000
0001
0000
0010
0100
0000
1000
0001
1000
,
0001
0000
1000
0010
0000
0002
0000
0000
0013
0000
1000
0100
0000
0002
0000
0000
,
0103
0010
0001
0000
1000
0010
0100
0000
0001
0010
0100
0000
1000
0001
0100
0000
,
0010
0000
1000
0001
0000
0010
0000
0000
0100
0000
1000
0010
0000
0100
0000
0000
,
0001
0010
0100
1000
0010
0100
0001
1000
,
0100
0010
0001
0100
0010
1000
0001
0010
,
0200
0000
0000
0000
2300
0000
3001
0100
,
1000
0100
0001
0100
1000
0100
0001
0100
,
1000
0100
0001
0010
1000
0010
0001
0100
,
0101
MMMM
0001
0010
0100
0100
1000
MMMM
,
0001
0100
0001
0000
1000
0000
0100
0000
0020
0000
0000
0000
0031
0000
0100
0000
,
1000
0100
0001
0010
1000
0010
0001
1000
,
0010
0001
0010
1000
0001
0010
0100
1000
,
1001
0000
0001
0000
0100
0010
1000
0000
1000
0000
0100
0000
0100
0000
0000
0000
,
0010
0001
0010
0000
0100
1000
0100
0000
1000
0000
0010
0000
0110
0000
0000
0000
,
1001
0000
0000
0000
1000
0000
0100
0000
0010
0000
0000
0010
0000
0000
MMMM
0000
0001
0000
0001
0000
0100
0000
0100
0000
0010
0000
0000
0010
0000
0000
0000
0000
,
1000
0000
0001
0100
0000
2000
0000
0000
3100
0000
0001
0010
0000
2000
0000
0000
3010
0000
0100
0000
1000
0000
0100
0000
0010
0000
0000
0001
0000
1000
0000
0000
,
1001
0000
0000
0000
0001
0000
0100
0000
0010
0000
0000
0010
0000
0000
MMMM
0000
1000
0000
1000
0000
0100
0000
0100
0000
0010
0000
0000
0000
0010
0000
0001
0000
,
0010
0100
1000
0100
0010
0001
0100
0010
1000
0001
0010
0100
1000
0001
0100
0001
,
0010
0000
0001
0100
0000
0010
0000
0000
1000
0000
0001
0010
0000
0100
0000
0000
,
1000
0000
0001
0100
0000
0010
0000
0000
1000
0000
0100
0010
0000
0001
1000
0001
,
1000
0000
0001
0100
0000
2000
0000
0000
3100
0000
0001
0010
0000
2000
0000
0000
,
3010
0100
1000
0000
0001
0100
0010
0000
1000
0100
0010
0000
0001
1000
0010
0000
,
0100
0000
0001
1000
0000
0100
0000
0000
0010
0000
0001
0100
0000
0010
0000
0000
,
1000
0100
0010
0001
0100
0010
1000
0001
,
0010
0100
1000
0010
0100
0001
1000
0100
,
0020
0000
0000
0000
0032
0000
1003
0010
,
0001
0010
1000
0010
0001
0010
1000
0010
,
0001
0010
1000
0100
0001
0100
1000
0010
,
1010
MMMM
1000
0100
0010
0010
0001
MMMM
,
1000
0010
1000
0000
0001
0000
0010
0000
0200
0000
0000
0000
1300
0000
0010
0000
,
0001
0010
1000
0100
0001
0100
1000
0001
,
0100
1000
0100
0001
1000
0100
0010
0001
,
1001
0000
1000
0000
0010
0100
0001
0000
0001
0000
0010
0000
0010
0000
0000
0000
,
0100
1000
0100
0000
0010
0001
0010
0000
0001
0000
0100
0000
0110
0000
0000
0000
,
1001
0000
0000
0000
;

//--------------- dance-single - ----------------
#NOTEDATA:;
#STEPSTYPE:dance-single;
#DESCRIPTION:;
#DIFFICULTY:Challenge;
#METER:16;
#RADARVALUES:0,0,0,0,0;
#CHARTNAME:;
#CHARTSTYLE:Pad Singles;
#CREDIT:Yosefu (Murdered);
#NOTES:
0000
0000
0000
0000
,
0000
0000
0000
0000
,
1001
0000
0000
0000
1000
0010
0100
0000
0001
0010
0100
0000
1000
0010
0100
0000
,
0001
1000
0100
0000
0010
0001
0100
0000
0010
1000
0100
0000
1000
0000
MMMM
0000
,
1010
0000
0010
1000
0100
0002
0000
0000
0103
0000
0010
0001
0100
2000
0000
0000
,
3100
0010
1000
0100
0010
0001
0010
MMMM
,
2001
0000
0000
0000
3010
0100
0001
0000
0010
0100
1000
0000
0010
0100
0001
0000
,
1000
0100
0010
0000
0001
0100
0010
0000
1000
0100
0010
0000
0001
0000
0000
0000
,
0100
0000
0001
1000
0100
0002
0000
0000
0103
0000
1000
0001
0100
2000
0000
0000
,
3100
0010
1000
0001
0010
0100
1000
0001
,
0100
0001
1000
0000
0100
0010
0001
0000
,
0100
0001
1000
0000
0100
0010
0001
0000
,
0100
0010
1000
0000
0001
0010
0100
0000
,
1000
0001
1000
0001
1000
0001
1000
0001
1000
0001
1000
0001
0000
1000
0000
0000
,
0001
0000
1000
0010
0000
0100
0000
0000
0001
0000
0010
0100
0000
1000
0000
0000
,
0001
0000
0100
0010
0000
1000
0000
0000
0100
0000
0010
0001
0000
1000
0000
0000
,
0010
0000
0100
0001
0000
0010
0000
0000
0100
0000
1000
0010
0000
1000
0000
0000
,
0001
0000
0100
0010
0000
1000
0000
0000
0100
0000
0010
0001
0000
1000
0001
0000
,
1000
0001
1000
0001
0100
0010
0100
0010
,
1000
0100
0010
0001
0100
0010
1000
0001
,
1000
0010
1000
0010
0100
0001
0100
0001
0010
0100
0010
0100
1000
0001
1000
0001
,
0100
0000
0000
0000
0010
0000
0000
0000
1000
0001
0010
0100
0000
0000
MMMM
0000
,
1002
0000
0000
0000
0103
0000
0100
0000
0010
0000
1000
0001
0010
0000
MMMM
0000
,
0001
0000
0000
0000
0000
0000
0001
0000
0000
0000
0000
0000
0100
0000
0000
0010
0000
0000
0001
0000
0000
0000
0000
0000
0010
0000
0000
0000
0000
0000
1000
0000
0000
0001
0000
0000
0000
0000
0000
0010
0000
0000
0100
0000
1000
0000
0100
0000
,
1000
0010
1000
0001
0100
2000
0000
0000
3100
0010
1000
0001
0010
2000
0000
0000
,
3010
0100
1000
0100
0010
0001
0100
0010
1000
0010
0100
0001
0010
0100
1000
0100
,
0020
0000
0000
0000
0031
0000
0001
0000
0100
0000
0010
1000
0100
0000
MMMM
0000
,
1000
0000
1000
0000
0010
0100
1000
0000
0100
0000
0001
0100
0001
1000
0100
1000
,
0001
0010
0001
1000
0010
0002
0000
0000
0013
1000
0001
1000
0100
0002
0000
0000
,
0103
0000
0000
0010
0000
0000
0001
0000
0000
1000
0000
0000
0010
0000
0000
0100
0000
0000
0001
0000
0000
0010
0000
0000
0100
0000
0000
0010
0000
0000
0001
0000
0000
1000
0000
0000
0010
0000
0000
0000
1000
0000
0001
0000
0000
0000
1000
0000
,
0001
0010
0001
0100
0000
0010
0000
0000
1000
0100
1000
0010
0000
0100
0000
0000
,
0001
0100
0001
0010
0000
0100
0000
0000
1000
0010
1000
0100
0010
0001
1000
0001
,
1000
0010
1000
0100
0010
2000
0000
0000
3010
0100
1000
0010
0100
2000
0000
0000
,
3100
0010
1000
0001
0010
0100
1000
0001
0100
0001
1000
0100
0010
0001
1000
0010
,
0100
0001
1000
0100
0000
0010
0000
0000
0100
1000
0001
0100
0000
0010
0000
0000
,
1000
0001
0010
0100
1000
0001
0100
0001
,
1000
0000
0100
1000
0000
0100
1000
0000
0001
1000
0000
0001
1000
0001
1000
0001
0000
0000
0100
0001
0100
0001
0000
0000
,
0020
0000
0000
0000
0230
0000
1300
0010
,
0200
0001
0320
1000
0230
0010
0302
0010
,
2003
0010
3002
0100
0023
1000
0031
0100
,
1010
0000
MMMM
0000
0001
0010
0100
0000
1000
0000
1000
0000
1000
0000
MMMM
0000
,
0001
0100
1000
0100
0001
1000
0100
0000
0020
0000
0000
0000
0031
0000
0100
0000
,
0020
1000
0230
0001
0320
0001
2030
0100
,
3002
0100
2003
0010
3002
0010
1003
0010
,
0101
0000
0100
0001
0010
1000
0010
0000
0001
0000
0001
0000
0100
0000
0010
0000
,
1000
0100
0010
0001
0100
0010
1000
0001
0010
0100
1000
0001
0100
0000
0010
0000
,
1002
0000
0000
0000
0000
0000
0000
0000
0000
0000
0000
0000
0103
0000
0000
0000
0000
0000
0010
0000
0000
0000
0000
0000
1010
0000
0000
0000
0000
0000
0000
0000
0000
1000
0000
0000
0001
0000
0000
0000
0000
0000
MMMM
0000
0000
0000
0000
0000
1000
0000
0000
0000
0000
0000
1000
0000
0000
0000
0000
0000
0100
0000
0000
0000
0000
0000
0001
0000
0000
0000
0000
0000
0100
0000
0000
0010
0000
0000
0000
0000
0000
0001
0000
0000
1000
0000
0000
0000
0000
0000
0001
0000
1000
0000
0001
0000
,
1000
0000
0000
0010
0000
0000
1000
0000
0000
0100
0000
0000
0000
0000
0000
0002
0000
0000
0000
0000
0000
0000
0000
0000
0103
0000
0000
1000
0000
0000
0001
0000
0000
0100
0000
0000
0000
0000
0000
2000
0000
0000
0000
0000
0000
0000
0000
0000
3100
0000
0000
0010
0000
0000
1000
0000
0000
0001
0000
0000
0010
0000
0000
0100
0000
0000
1000
0000
0000
0001
0000
0000
1000
0000
0001
0000
1000
0000
0001
0000
0000
0000
0000
0000
0010
0000
0000
0000
0000
0000
0100
0000
0000
0000
0000
0000
,
2001
0000
0000
0000
3010
0000
0100
0000
0101
0000
0000
0001
0010
0000
MMMM
0000
0001
0000
0100
0100
0010
0000
0001
0000
0010
0100
0000
0001
1000
0001
1000
0001
,
1000
0000
0000
0001
0000
0000
0010
0000
0000
0001
0000
0000
0100
0000
0000
2000
0000
0000
0000
0000
0000
0000
0000
0000
3100
0000
0000
0001
0000
0000
1000
0000
0000
0001
0000
0000
0010
0000
0000
2000
0000
0000
0000
0000
0000
0000
0000
0000
3010
0000
0000
0100
0000
0000
0010
0000
0000
0100
0000
0000
1000
0000
0000
0001
0000
0000
1000
0000
0000
0001
0000
0000
1000
0000
0001
0000
1000
0000
0001
0000
0000
0000
0000
0000
0100
0000
0000
0000
0001
0000
1000
0000
0000
0000
0001
0000
,
1000
0100
1000
0010
0000
0100
0000
0000
0001
0010
0001
0100
0000
0010
0000
0000
,
1000
0010
1000
0100
0000
0010
0000
0000
0001
0100
0001
0010
0100
1000
0001
1000
,
0001
0100
0001
0010
0100
0002
0000
0000
0103
0010
0001
0100
0010
0002
0000
0000
,
0013
0100
0001
1000
0100
0010
0001
1000
0010
1000
0001
0010
0100
1000
0001
0100
,
0010
1000
0001
0010
0000
0100
0000
0000
0010
0001
1000
0010
0000
0100
0000
0000
,
0001
1000
0100
0010
0001
1000
0010
1000
,
0001
0000
0010
0001
0000
0010
0001
0000
1000
0001
0000
1000
0001
1000
0001
1000
0000
0000
0010
1000
0010
1000
0000
0000
,
0200
0000
0000
0000
0320
0000
0031
0100
,
0020
1000
0230
0001
0320
0100
2030
0100
,
3002
0100
2003
0010
3200
0001
1300
0010
,
0101
0000
MMMM
0000
1000
0100
0010
0000
0001
0000
0001
0000
0001
0000
MMMM
0000
,
1000
0010
0001
0010
1000
0001
0010
0000
0200
0000
0000
0000
1300
0000
0010
0000
,
0200
0001
0320
1000
0230
1000
0302
0010
,
2003
0010
3002
0100
2003
0100
3001
0100
,
1010
0000
0010
1000
0100
0001
0100
0000
1000
0000
1000
0000
0001
0000
0010
0000
,
0001
0010
1000
0010
0001
0100
1000
0100
0001
0100
0010
0000
0110
0000
0000
0000
,
1001
0000
0000
0000
;
