#TITLE:Excuse My Rudeness, but Could You Please RIP (t+pazolite Remix);
#SUBTITLE:;
#ARTIST:Calliope Mori;
#TITLETRANSLIT:;
#SUBTITLETRANSLIT:;
#ARTISTTRANSLIT:;
#GENRE:;
#CREDIT:MUINELIM;
#BANNER:Excuse My Rudeness, but Could You Please RIP (t+pazolite Remix)-jacket.png;
#BACKGROUND:Excuse My Rudeness, but Could You Please RIP (t+pazolite Remix)-bg.png;
#LYRICSPATH:;
#CDTITLE:;
#MUSIC:Excuse My Rudeness, but Could You Please RIP (t+pazolite Remix).ogg;
#OFFSET:0.188000;
#SAMPLESTART:69.512306;
#SAMPLELENGTH:14.769226;
#SELECTABLE:YES;
#DISPLAYBPM:260.000000;
#BPMS:0.000000=260.000000
;
#STOPS:
;
#BGCHANGES:;
#KEYSOUNDS:;
#ATTACKS:;

//---------------dance-single - ----------------
#NOTES:
     dance-single:
     :
     Beginner:
     6:
     0.207917,0.373384,0.079206,0.108909,0.000000,147.000000,139.000000,8.000000,11.000000,0.000000,0.000000,0.207917,0.373384,0.079206,0.108909,0.000000,147.000000,139.000000,8.000000,11.000000,0.000000,0.000000:
0000
0000
0000
0000
,
0000
0000
0000
0000
,
0000
0000
0000
0000
,
0000
0000
0000
0000
,
0000
0000
0000
0000
,
0000
0000
0000
0000
,
0000
0000
0000
0000
,
0000
0000
1000
0000
,
0000
0000
1000
0000
,
0000
0000
1000
0000
,
0000
0000
1000
0000
,
0000
0000
0001
0000
,
0000
0000
0001
0000
,
0000
0000
0001
0000
,
0000
0000
0001
0000
,
0000
0000
0100
0000
,
0000
0000
0100
0000
,
0000
0000
0100
0000
,
0000
0000
0100
0000
,
0000
0000
0010
0000
,
0000
0000
0010
0000
,
0000
0000
0010
0000
,
0000
0000
0010
0000
,
0000
0000
1000
0000
,
1000
0000
1000
0000
,
0000
0000
0001
0000
,
0001
0000
0001
0000
,
0000
0000
1000
0000
,
1000
0000
0001
0000
,
0000
1000
0000
0000
,
0001
0000
0001
0000
,
1000
0000
0010
0000
,
0010
0000
0010
0000
,
0000
0000
0100
0000
,
0100
0000
0100
0000
,
0000
0000
0010
0000
,
0010
0000
0100
0000
,
0100
0000
0010
0000
,
0100
0000
0010
0000
,
0100
0000
0020
0000
,
0000
0000
0000
0000
,
0000
0000
0000
0000
,
0000
0000
0030
0000
,
0000
0000
0010
0000
,
0000
0000
0010
0000
,
0000
0000
0010
0000
,
0000
0000
0010
0000
,
0010
0000
1000
0000
,
1000
0000
0001
0000
,
0001
0000
1000
0000
,
1000
0000
0001
0000
,
0001
0000
1000
0000
,
0001
0000
1000
0000
,
0001
0000
2002
0000
,
0000
0000
0000
0000
,
3003
0000
1000
0000
,
0000
0000
0001
0000
,
0000
0000
1000
0000
,
0000
0000
0001
0000
,
1001
0000
1000
0000
,
1000
0000
0020
0000
,
0000
0000
0000
0000
,
0000
0000
0000
0000
,
0030
0000
0001
0000
,
0001
0000
0200
0000
,
0000
0000
0000
0000
,
0000
0000
0000
0000
,
0300
0000
1000
0000
,
1000
0000
0020
0000
,
0000
0000
0000
0000
,
0000
0000
0000
0000
,
0030
0000
1001
0000
,
0000
0000
0000
0000
,
0000
0000
0010
0000
,
0000
0000
0020
0000
,
0030
0000
1000
0000
,
0100
0000
0010
0000
,
0001
0000
1000
0000
,
0100
0000
0010
0000
,
0010
0000
0001
0000
,
0100
0000
0010
0000
,
1000
0000
1001
0000
,
0000
0000
0001
0000
,
0010
0000
0100
0000
,
1000
0000
0001
0000
,
0010
0000
0100
0000
,
0100
0000
1000
0000
,
0010
0000
0001
0000
,
0010
0000
2000
0000
,
3000
0000
0100
0000
,
0010
0000
1001
0000
,
0000
0000
0001
0000
,
0100
0000
0010
0000
,
1000
0000
0001
0000
,
0100
0000
0010
0000
,
0010
0000
1000
0000
,
0100
0000
0010
0000
,
0001
0000
1001
0000
,
0000
0000
1000
0000
,
0010
0000
0100
0000
,
0001
0000
1000
0000
,
0010
0000
0100
0000
,
0100
0000
0001
0000
,
0010
0000
1000
0000
,
0010
0000
0002
0000
,
0003
0000
0100
0100
,
0100
0000
0110
0000
,
0000
0000
0220
0330
;

//---------------dance-single - ----------------
#NOTES:
     dance-single:
     :
     Easy:
     10:
     0.437049,0.533405,0.237619,0.257421,0.000000,309.000000,285.000000,24.000000,26.000000,0.000000,0.000000,0.437049,0.533405,0.237619,0.257421,0.000000,309.000000,285.000000,24.000000,26.000000,0.000000,0.000000:
// measure 0
0000
0000
0000
0000
,  // measure 1
0000
0000
0000
0000
,  // measure 2
0000
0000
0000
0000
,  // measure 3
0000
0000
0000
0000
,  // measure 4
0000
0000
0000
0000
,  // measure 5
0000
0000
0000
0000
,  // measure 6
0000
0000
0000
0000
,  // measure 7
0000
0000
1000
0001
,  // measure 8
1000
0000
0001
1000
,  // measure 9
0001
0000
1000
0001
,  // measure 10
1000
0001
1000
0001
,  // measure 11
0100
0000
0001
1000
,  // measure 12
0001
1000
0001
1000
,  // measure 13
0010
0000
1000
0001
,  // measure 14
1000
0001
0100
0010
,  // measure 15
0100
0000
0010
0100
,  // measure 16
0010
0000
0100
0010
,  // measure 17
0100
0000
0010
0100
,  // measure 18
0010
0100
0010
0100
,  // measure 19
0001
0000
0100
0010
,  // measure 20
0100
0010
0100
0010
,  // measure 21
1000
0000
0010
0100
,  // measure 22
0001
1000
0020
0000
,  // measure 23
0000
0030
0100
0010
,  // measure 24
1000
0000
0100
1000
,  // measure 25
0010
0000
0100
0001
,  // measure 26
0010
0000
0001
0100
,  // measure 27
0010
0000
1000
0001
,  // measure 28
1000
0010
0200
0300
,  // measure 29
0000
0020
0030
0000
,  // measure 30
0100
0010
0100
0002
,  // measure 31
1003
0000
1000
0010
,  // measure 32
0100
0000
0001
0010
,  // measure 33
0100
0000
1000
0100
,  // measure 34
0010
0000
0001
0100
,  // measure 35
0010
0000
1010
0000
,  // measure 36
1000
0000
1001
0000
,  // measure 37
0001
0000
0101
0000
,  // measure 38
0100
0000
0110
0000
,  // measure 39
0010
0100
0020
0000
,  // measure 40
0000
0000
0000
0000
,  // measure 41
0000
0000
0000
0000
,  // measure 42
0000
0000
0030
0000
,  // measure 43
0000
1000
0010
1000
,  // measure 44
0010
0000
1000
0000
0010
0000
0000
0010
,  // measure 45
0000
0100
0100
0001
,  // measure 46
0100
0000
0001
0000
0100
0000
0000
0100
,  // measure 47
0000
0010
0010
0000
,  // measure 48
1000
0000
0001
0000
,  // measure 49
1001
0000
0100
0000
,  // measure 50
0001
0000
1000
0000
,  // measure 51
1001
0000
0010
1000
,  // measure 52
0001
0100
0001
1000
,  // measure 53
0010
1000
2002
0000
,  // measure 54
0000
0000
0000
0000
,  // measure 55
3003
0000
0002
0000
,  // measure 56
0003
0000
2000
0000
,  // measure 57
3000
0000
0002
0000
,  // measure 58
0003
0000
2000
0000
,  // measure 59
3001
0000
1001
0000
,  // measure 60
1001
0000
1000
1000
,  // measure 61
1000
1000
1000
1000
,  // measure 62
1000
1000
1000
1000
,  // measure 63
1000
1000
1000
0000
,  // measure 64
1000
0000
0001
0001
,  // measure 65
0001
0001
0001
0001
,  // measure 66
0001
0001
0001
0001
,  // measure 67
0001
0001
1000
0001
,  // measure 68
1000
0001
0100
0100
,  // measure 69
0100
0100
0010
0010
,  // measure 70
0010
0010
0100
0010
,  // measure 71
0100
0000
0220
0000
,  // measure 72
0000
0000
0000
0000
,  // measure 73
0000
0000
0330
0000
,  // measure 74
0010
1000
0001
0100
,  // measure 75
0020
0130
0100
0001
,  // measure 76
0100
0001
0010
0001
,  // measure 77
0010
0001
0100
0001
,  // measure 78
1000
0001
0100
0001
,  // measure 79
0010
0100
1000
0010
,  // measure 80
1000
0100
1000
0010
,  // measure 81
1000
0001
2002
0000
,  // measure 82
0000
3003
1000
0010
,  // measure 83
0100
0000
1000
0100
,  // measure 84
0010
0000
0100
0001
,  // measure 85
0010
0000
0100
0010
,  // measure 86
0001
0000
0101
0000
,  // measure 87
1010
0000
1100
0000
,  // measure 88
0011
0000
2002
3003
,  // measure 89
1000
0100
0010
0010
,  // measure 90
0010
0001
0200
0000
,  // measure 91
0300
0110
0010
1000
,  // measure 92
0010
1000
0100
1000
,  // measure 93
0100
1000
0010
1000
,  // measure 94
0100
1000
0001
1000
,  // measure 95
0100
0010
0001
0100
,  // measure 96
0010
1000
0001
0010
,  // measure 97
0100
1000
2002
0000
,  // measure 98
0000
3003
0001
0100
,  // measure 99
0010
0000
0001
0010
,  // measure 100
1000
0000
0001
0100
,  // measure 101
1000
0000
0100
0010
,  // measure 102
1000
0000
1100
0000
,  // measure 103
0101
0000
0011
0000
,  // measure 104
1010
0000
2002
3003
,  // measure 105
0001
0100
0010
0001
,  // measure 106
0010
1000
0020
0000
,  // measure 107
0130
0000
2002
3003
;

//---------------dance-single - ----------------
#NOTES:
     dance-single:
     :
     Medium:
     13:
     0.676083,0.908893,0.356429,0.534643,0.039603,478.000000,442.000000,36.000000,54.000000,0.000000,0.000000,0.676083,0.908893,0.356429,0.534643,0.039603,478.000000,442.000000,36.000000,54.000000,0.000000,0.000000:
// measure 0
0000
0000
0000
0000
,  // measure 1
0000
0000
0000
0000
,  // measure 2
0000
0000
0000
0000
,  // measure 3
0000
0000
0000
0000
,  // measure 4
0000
0000
0000
0000
,  // measure 5
0000
0000
0000
0000
,  // measure 6
0001
0400
0000
0000
0000
0000
0000
0000
,  // measure 7
0310
0010
1000
0001
,  // measure 8
1000
0100
1000
0000
0001
0000
1000
0200
,  // measure 9
0000
0300
0000
0000
1000
0000
0001
0100
,  // measure 10
0001
0000
1000
0000
0001
0000
0100
0010
,  // measure 11
0000
0010
0100
0000
0001
0000
0010
0000
,  // measure 12
0001
0000
1000
0000
0001
0010
0001
0000
,  // measure 13
0020
0030
0001
1000
,  // measure 14
0100
0000
1000
0000
0010
0100
0010
0100
,  // measure 15
0020
0030
0100
0001
,  // measure 16
0010
0000
0200
0000
1300
0010
1000
0000
,  // measure 17
0004
0000
0103
0100
,  // measure 18
0010
1000
0010
1000
0010
0000
0100
0000
,  // measure 19
0001
0000
0010
0000
0100
0000
1000
0010
,  // measure 20
1000
0000
0010
0100
0000
0001
0000
0100
,  // measure 21
0010
1000
1100
0001
,  // measure 22
0011
1000
2002
0000
,  // measure 23
0000
3003
0001
1000
,  // measure 24
0010
0000
0100
0001
0000
0010
0000
0001
,  // measure 25
0100
0110
0010
1000
,  // measure 26
0001
0000
0100
0010
0000
1000
0000
0010
,  // measure 27
0100
0101
0001
1000
,  // measure 28
0010
0000
0100
0000
0001
0010
0001
0020
,  // measure 29
0030
0000
0001
1000
0001
2000
3000
0000
,  // measure 30
0100
1000
0200
0000
0310
0000
0010
0001
,  // measure 31
0100
0010
0110
0100
,  // measure 32
0001
1000
0100
0010
,  // measure 33
0001
0100
0000
1000
0000
0100
0001
0000
,  // measure 34
0010
0100
1000
0010
,  // measure 35
0100
0000
0001
0010
0001
0000
1000
0100
,  // measure 36
1000
0000
0001
0100
0001
0000
1000
0010
,  // measure 37
1000
0000
0010
0100
0020
0000
1030
0000
,  // measure 38
0200
0301
0020
1030
,  // measure 39
0200
0301
2002
0000
,  // measure 40
0000
0000
0000
0000
,  // measure 41
0000
0000
0000
0000
,  // measure 42
0000
0000
3003
0000
,  // measure 43
0000
0000
1000
0001
1000
0000
0010
0000
,  // measure 44
0100
0000
0001
0000
1000
0010
0000
0001
,  // measure 45
0000
0010
1000
0000
0100
0000
0010
0100
,  // measure 46
0010
0000
0001
0000
0100
0020
0000
2030
,  // measure 47
0000
0000
3001
0000
0001
0100
0001
0000
,  // measure 48
1000
0100
1000
0000
0001
1000
0001
1000
,  // measure 49
0002
0000
0003
0000
1000
0000
0010
1000
,  // measure 50
0000
0100
1000
0000
0001
0000
0010
0001
,  // measure 51
0000
0100
0001
0000
1000
0000
0010
0000
,  // measure 52
0001
0010
0100
1000
,  // measure 53
0100
0001
2002
0000
,  // measure 54
0000
0000
0000
3003
,  // measure 55
1001
0000
2000
3000
,  // measure 56
0020
0030
0002
0003
,  // measure 57
0200
0300
2000
3000
,  // measure 58
0020
0030
0200
0000
,  // measure 59
0310
0000
1010
0000
,  // measure 60
0101
0000
0000
0000
0001
0010
0001
0010
,  // measure 61
0001
0010
0001
0010
0001
0010
0001
0010
,  // measure 62
0001
0010
0001
0010
0001
0010
0001
0010
,  // measure 63
0001
0010
0001
0010
0002
0000
0000
0000
,  // measure 64
2000
0000
3003
0000
1000
0010
1000
0010
,  // measure 65
1000
0010
1000
0010
1000
0010
1000
0010
,  // measure 66
1000
0010
1000
0010
1000
0010
1000
0010
,  // measure 67
1000
0010
1000
0010
2000
0000
3100
0000
,  // measure 68
0020
0000
0031
0000
0001
0100
0010
1000
,  // measure 69
0010
0100
0010
1000
0100
0010
0001
0010
,  // measure 70
0100
0010
0001
0100
0010
1000
0001
0010
,  // measure 71
0100
1000
0010
0100
0002
0000
0000
0000
,  // measure 72
0000
0000
0000
0000
,  // measure 73
0000
0000
2003
0000
,  // measure 74
3010
0000
0100
0001
0000
0200
0000
0000
,  // measure 75
0310
1000
0100
0000
1100
0000
1000
0000
,  // measure 76
1001
0000
1000
0000
0100
1000
0010
1000
,  // measure 77
0200
0000
0310
0000
0100
1000
0100
0010
,  // measure 78
0001
0000
0100
0020
0030
0000
1010
0000
,  // measure 79
0110
0101
0002
0013
,  // measure 80
0200
0000
1300
0000
1000
0010
0000
0100
,  // measure 81
0001
0000
0010
0000
0220
0000
0000
0330
,  // measure 82
0000
1000
0001
0000
1000
0000
0010
0000
,  // measure 83
0001
0000
0010
0000
1000
0100
0000
0010
,  // measure 84
0000
0100
1000
0000
0001
0000
0010
0000
,  // measure 85
1000
0000
0010
0000
0001
0100
0000
0010
,  // measure 86
0000
0100
0001
0000
0011
0000
0000
0000
,  // measure 87
1010
0000
1100
0000
,  // measure 88
0101
0000
2002
3003
,  // measure 89
1000
0010
0100
0001
0100
0000
0110
0000
,  // measure 90
0010
0110
0100
0020
,  // measure 91
2030
3001
0101
0001
,  // measure 92
1001
0000
0001
0000
0100
0001
0010
0001
,  // measure 93
0100
0000
0101
0000
0001
0100
0010
1000
,  // measure 94
0100
0000
0010
0200
0300
0000
1100
0000
,  // measure 95
0011
1001
0002
0103
,  // measure 96
0020
0000
1030
0000
1000
0100
0000
0010
,  // measure 97
0001
0000
0100
0000
0110
0000
0010
2000
,  // measure 98
0000
3001
0100
0000
0010
1000
0100
0000
,  // measure 99
0001
0000
0100
0000
0010
0001
0100
0000
,  // measure 100
1000
0000
0100
0000
0001
0010
0100
0000
,  // measure 101
0001
0000
0100
0000
1000
0010
0100
0000
,  // measure 102
1000
0000
0000
0100
0000
0000
0001
0000
0010
0000
0001
0000
,  // measure 103
0010
0000
0100
0000
0010
0000
0100
0000
1000
0000
0100
0000
,  // measure 104
1000
0000
0001
0000
1000
0000
2002
0000
0000
3003
0000
0000
,  // measure 105
0001
0100
0010
1000
0001
0000
0101
0000
,  // measure 106
1010
1100
0022
0030
,  // measure 107
0203
0000
0020
0000
,  // measure 108
0330
0000
0000
0000
;

//---------------dance-single - ----------------
#NOTES:
     dance-single:
     :
     Hard:
     17:
     0.958963,1.336607,0.653452,0.683155,0.292073,678.000000,612.000000,66.000000,69.000000,0.000000,0.000000,0.958963,1.336607,0.653452,0.683155,0.292073,678.000000,612.000000,66.000000,69.000000,0.000000,0.000000:
// measure 0
0000
0000
0000
0000
,  // measure 1
0000
0000
0000
0000
,  // measure 2
0000
0000
0000
0000
,  // measure 3
0000
0000
0000
0000
,  // measure 4
0000
0000
0000
0000
,  // measure 5
0000
0000
0000
0000
,  // measure 6
0001
1000
0001
1000
0001
1000
0001
1000
,  // measure 7
0020
0130
0101
1010
,  // measure 8
1000
0100
1000
0000
0010
0200
0000
0301
,  // measure 9
0000
0001
0010
0100
1000
0100
0010
0100
,  // measure 10
1000
0000
0100
0010
0001
0000
0100
0020
,  // measure 11
0000
1000
1030
0000
1000
0100
0010
0001
,  // measure 12
0100
0010
0100
0001
0100
0010
1000
0002
,  // measure 13
0000
0103
0100
0010
1000
0010
0100
0001
,  // measure 14
0100
0000
0010
0000
1000
0000
0100
0000
0010
0000
0001
0000
1000
0010
1000
0010
,  // measure 15
1000
0200
0300
0000
1000
0010
0100
0001
,  // measure 16
0010
0100
2000
0000
3001
0100
0010
0100
,  // measure 17
0004
4003
3020
0130
,  // measure 18
0100
0001
0010
0001
0100
0010
1000
0100
,  // measure 19
0010
0000
0011
0000
1100
0000
1000
0010
,  // measure 20
0200
0000
0301
0010
0011
0000
0001
0100
,  // measure 21
0020
0000
1030
0000
1000
0010
0100
0010
,  // measure 22
1000
0001
1000
0100
0020
0000
0000
0000
,  // measure 23
0001
0000
0031
0000
0001
0100
0010
1000
,  // measure 24
0002
0000
0013
0200
0000
1300
0000
1010
,  // measure 25
0200
0000
0302
0000
0013
0100
0010
0001
,  // measure 26
0200
0000
0310
2000
0000
3001
0000
0011
,  // measure 27
0200
0000
2300
0000
3010
0100
0001
0100
,  // measure 28
0010
1000
0010
0100
0001
0010
0100
2000
,  // measure 29
3000
0100
1000
0010
0100
0002
0003
0010
,  // measure 30
0001
0000
0010
0000
0100
0000
1000
0000
0010
0000
0100
0000
0001
0010
0001
0010
,  // measure 31
0001
0100
0010
2010
0000
0001
3001
0000
,  // measure 32
0001
0100
0010
1000
0001
0000
0101
0000
,  // measure 33
0100
0020
0000
1030
0000
1000
0001
0100
,  // measure 34
0010
0100
0001
0000
1000
0100
0010
0100
,  // measure 35
1000
0001
1000
0010
0210
0300
0001
0010
,  // measure 36
0210
0300
1000
0010
0210
0300
0001
0010
,  // measure 37
0210
0300
1000
0010
0100
0001
1000
0100
,  // measure 38
0010
0001
1000
0010
0100
0001
0010
0200
,  // measure 39
0000
1000
1300
0000
2002
0000
0000
0000
,  // measure 40
0000
0000
0000
0000
,  // measure 41
0000
0000
0000
0000
,  // measure 42
0000
0000
0000
0000
,  // measure 43
3003
0000
0001
0100
0010
0001
0010
0100
,  // measure 44
0010
1000
0100
0010
0100
2000
0000
3010
,  // measure 45
0000
0010
0100
1000
0200
0000
0310
1000
,  // measure 46
0200
0000
0310
0001
0100
0020
0000
0001
,  // measure 47
0000
0000
1030
0000
1000
0100
0010
0000
,  // measure 48
0001
0100
0010
0000
1000
0100
0010
0000
,  // measure 49
0011
0000
0001
0010
0100
0000
0100
2000
,  // measure 50
0000
3010
0100
0000
0110
0000
0010
0200
,  // measure 51
0000
0301
0001
1000
0010
0100
0001
0010
,  // measure 52
0001
0100
0010
1000
0100
1000
0001
0010
,  // measure 53
0100
1000
0010
0100
0440
0000
0000
0000
,  // measure 54
0000
0000
0000
0330
,  // measure 55
2002
0000
0000
3003
0000
0000
0000
0000
0000
0000
0000
0000
0001
0000
0000
0000
0100
0000
0000
0000
0101
0000
0000
0000
,  // measure 56
1000
0000
0100
0000
1100
0000
0001
0000
0010
0000
0011
0000
,  // measure 57
1000
0000
0010
0000
1010
0000
0001
0000
0100
0000
0110
0000
,  // measure 58
1000
0000
0100
0000
0110
0000
0001
0000
0100
0000
0110
0000
,  // measure 59
2002
3003
1010
0000
,  // measure 60
0202
0000
0303
0000
0001
0100
0001
0100
,  // measure 61
0001
0000
0100
0000
0001
0000
0100
0001
0100
0000
0001
0000
0100
0000
0001
0000
,  // measure 62
0100
0000
0001
0000
0100
0001
0100
0001
0100
0000
0001
0000
0100
0000
0001
0000
,  // measure 63
0100
0001
0100
0000
0001
0100
0001
0000
0202
0000
0303
0000
0000
0000
0000
0000
,  // measure 64
2200
0000
3300
0000
1000
0100
1000
0100
,  // measure 65
1000
0000
0100
0000
1000
0000
0100
1000
0100
0000
1000
0000
0100
0000
1000
0000
,  // measure 66
0100
0000
1000
0000
0100
1000
0100
1000
0100
0000
1000
0000
0100
0000
1000
0000
,  // measure 67
0100
1000
0100
0000
1000
0100
1000
0000
1100
0000
0000
0000
0101
0000
0000
0000
,  // measure 68
0110
0000
1001
0000
0001
1000
0001
1000
,  // measure 69
0001
1000
0001
1000
0001
0000
1000
0001
1000
0001
1000
0000
0001
0000
1000
0000
,  // measure 70
0001
0000
1000
0001
1000
0000
0001
0000
1000
0001
1000
0000
0001
1000
0001
0000
,  // measure 71
1000
0001
1000
0001
1000
0001
1000
0001
2000
0000
0000
0000
0000
0000
0000
0000
,  // measure 72
0000
0000
0000
0000
,  // measure 73
0000
0000
3020
0000
,  // measure 74
0130
0001
0010
0200
0000
0320
0000
0000
,  // measure 75
0130
2000
3001
0000
0101
0000
1010
0000
,  // measure 76
1000
0100
0010
0000
0001
0100
0010
0100
,  // measure 77
0001
0000
0011
0000
1000
0100
0010
0100
,  // measure 78
2000
0000
0010
3010
0000
0000
0110
0000
,  // measure 79
1001
0110
0102
1003
,  // measure 80
2010
0000
3001
0000
0001
0002
0000
1003
,  // measure 81
2000
0000
3010
0000
0220
0000
0000
0300
,  // measure 82
0000
1000
1030
0000
1000
0100
0010
0100
,  // measure 83
1000
0001
1000
0000
0001
0100
0010
0100
,  // measure 84
0001
1000
0001
0000
1000
0010
0100
0010
,  // measure 85
0001
0010
0100
0000
0001
0100
0010
0100
,  // measure 86
1000
0000
0000
0100
0000
0000
0010
0000
0000
0000
0000
0000
1010
0000
0000
0000
1000
0000
0000
0000
0100
0000
0000
0000
,  // measure 87
0110
0000
0010
0000
0001
0000
0101
0000
0100
0000
0010
0000
,  // measure 88
1001
0000
0010
0000
0100
0000
2002
0000
0000
3003
0000
0000
,  // measure 89
0001
0100
0010
1000
1100
0000
0101
0000
,  // measure 90
1010
0011
1001
0200
,  // measure 91
0320
0000
0130
0000
0100
0001
0010
0001
,  // measure 92
1000
0100
1000
0010
0100
0001
0100
0010
,  // measure 93
1000
0010
0100
0001
1000
0100
0010
0001
,  // measure 94
0010
0100
1000
0001
1000
0000
1001
0000
,  // measure 95
0110
0000
1001
0000
0001
0100
0010
0100
,  // measure 96
1000
0100
0010
0001
0010
0100
0010
1000
,  // measure 97
0100
0010
0001
0100
0020
0000
1000
2030
,  // measure 98
0000
0000
0001
0000
3001
0000
0000
0000
0001
0100
0001
0000
0010
0000
0100
0000
,  // measure 99
0010
0000
0001
0000
0100
0000
0010
0000
1000
0100
1000
0000
0010
0000
0100
0000
,  // measure 100
0010
0000
1000
0000
0100
0000
0010
0000
0001
1000
0001
0000
0100
0000
0010
0000
,  // measure 101
1000
0000
0001
0000
0010
0000
0100
0000
1000
0001
1000
0000
0010
0000
0100
0000
,  // measure 102
0001
0000
0000
1000
0000
0000
0100
0000
0000
0010
0000
0000
0011
0000
0000
0000
0001
0000
0000
0000
0100
0000
0000
0000
,  // measure 103
0110
0000
0010
0000
1000
0000
1100
0000
0100
0000
0010
0000
,  // measure 104
1001
0000
0010
0000
0100
0000
2002
0000
0000
3003
0000
0000
,  // measure 105
1000
0100
0010
0001
0101
0000
1100
0000
,  // measure 106
0011
1010
2002
0003
,  // measure 107
3200
0000
0020
0000
,  // measure 108
0330
0000
0000
0000
;

//---------------dance-single - ----------------
#NOTES:
     dance-single:
     :
     Challenge:
     17:
     0.932089,1.229679,0.653452,0.623750,0.173264,659.000000,593.000000,66.000000,63.000000,77.000000,0.000000,0.932089,1.229679,0.653452,0.623750,0.173264,659.000000,593.000000,66.000000,63.000000,77.000000,0.000000:
0000
0000
0000
0000
,
0000
0000
0000
0000
,
0000
0000
0000
0000
,
0000
0000
0000
0000
,
0000
0000
0000
0000
,
0000
0000
0000
0000
,
0001
0100
010M
010M
010M
010M
010M
010M
,
0020
1030
1100
0011
,
0001
0100
1000
0000
0100
0002
0000
0013
,
0000
0010
0100
1000
0010
0001
0010
1000
,
0100
0000
0010
0100
1000
0000
0010
0200
,
0000
0001
0301
0000
0001
0010
0100
1000
,
0100
0001
0100
1000
0010
0001
0010
2000
,
0000
3100
0100
0010
0001
0100
1000
0100
,
0001
0010
0100
0010
0001
1000
M010
M010
,
0001
0200
0300
0000
0100
0001
0010
0100
,
0010
0001
0200
0000
0310
1000
0001
0010
,
010F
010F
F010
F010
0200
0000
1300
0000
,
1000
0010
0100
1000
0100
0010
1000
0100
,
0010
0000
0011
0000
1100
0000
1000
0010
,
0200
0000
0301
0010
0011
0000
0001
0100
,
0020
0000
1030
0000
1000
0100
0001
0100
,
1000
0010
0001
0010
2000
0000
0000
0000
,
0001
0000
3001
0000
0001
0100
0010
1000
,
1100
0000
0001
0101
0000
1010
0000
0011
,
0002
0000
2003
0000
3100
0010
0001
0100
,
0101
0000
0010
1010
0000
0011
0000
1100
,
2000
0000
3020
0000
0130
0001
1000
0010
,
0100
0000
0010
0000
1000
0000
0100
0000
0010
0000
0001
0000
1000
0000
0020
0030
,
M000
0000
0010
0000
0100
0000
1000
0000
0001
0000
0200
0300
000M
0000
0100
0000
,
0010
0001
1000
0010
0100
0001
001M
001M
,
1000
0100
0010
0012
0000
1000
1003
0000
,
1000
0100
0001
0100
1000
0000
1010
0000
,
0010
0200
0000
0301
0000
0001
0001
0010
,
1000
0010
0001
0000
0001
0100
1000
0100
,
0001
0010
0100
1000
0010
M010
0001
1000
,
0100
M200
0301
0001
0010
001M
1000
0001
,
0100
020M
1300
1000
0010
0100
0001
0010
,
1000
0001
0100
1000
0010
0001
1000
0200
,
0000
0010
0310
0000
2002
0000
0000
0000
,
0000
0000
0000
0000
,
0000
0000
0000
0000
,
0000
0000
0000
0000
,
3003
0000
0001
0100
0010
1000
0001
0010
,
0100
0001
1000
0010
0100
2000
0000
3010
,
0000
0000
0010
0000
0100
0000
0001
0000
0020
0030
000M
0000
0010
0000
1000
0000
,
0200
0300
M000
0000
0100
0000
0001
0000
0010
0000
0200
0000
0000
0000
0001
0000
,
0000
0000
0000
0000
1300
0000
0000
0000
1000
0000
0010
0000
0002
0003
00M0
0000
,
0001
0000
0100
0000
2000
3000
0M00
0000
1000
0000
0010
0000
0100
0000
0000
0000
,
0110
0000
0000
0000
0001
0000
0010
0000
2000
3000
00F0
0000
1000
0000
0200
0000
,
0000
0310
0001
0000
0110
0000
1000
0020
,
0000
0130
0100
0001
0010
1000
0010
0001
,
0010
0100
1000
0100
0001
0100
1000
0100
,
0010
0001
0100
0010
0440
0000
0000
0000
,
0000
0000
0000
0330
,
2002
0000
0000
3003
0000
0000
0000
0000
0000
0000
0000
0000
0001
0000
0000
0000
0100
0000
000M
0000
0100
0000
0000
0000
,
1000
0000
0010
M000
0010
0000
0001
0000
0100
000M
0100
0000
,
1000
0000
0010
M000
0010
0000
0001
0000
0010
000M
0010
0000
,
1000
0000
0100
M000
0100
0000
0001
0000
0010
000M
0010
0000
,
2002
3003
0101
0000
,
2020
0000
3030
0000
1000
0010
M010
M010
,
0100
0010
0M10
0M10
1000
0010
M010
M010
,
0100
0010
001M
001M
1000
0010
M010
M010
,
0001
0010
0M10
0010
0220
0330
0000
0000
,
2002
0000
3003
0000
0001
0100
010M
010M
,
0010
0100
01M0
01M0
0001
0100
010M
010M
,
1000
0100
M100
M100
0001
0100
010M
010M
,
0010
0100
01M0
0100
0110
0000
1010
0000
,
0101
0000
0110
0000
0010
0M10
0M10
0010
,
0100
01M0
01M0
0100
0010
0M10
0M10
0010
,
0100
0000
01M0
0000
01M0
0000
0100
0000
0010
0M00
0010
0000
0100
00M0
0100
0000
,
0010
0M00
0010
0000
0100
00M0
0100
0000
0002
0000
0000
0000
0000
0000
0000
0000
,
0000
0000
0000
0000
,
0000
0000
2003
0000
,
3001
0010
0100
2000
0000
3020
0000
0000
,
0230
0001
0301
0000
0011
0000
1100
0000
,
1000
0010
0001
0000
1000
0100
0001
0010
,
0100
0000
0110
0000
0001
0100
1000
0001
,
0020
0000
0100
0130
0000
0000
1010
0000
,
0101
1001
1020
0031
,
0021
0000
1030
0000
1000
0100
M100
0001
,
0010
001M
1000
0000
2002
0000
0000
0003
,
0000
3010
0110
0000
0100
0001
0010
0001
,
0100
1000
0100
0000
0010
0001
0010
1000
,
0100
0001
0100
0000
0010
1000
0010
0001
,
0100
0001
0010
0000
0100
1000
0010
1000
,
0100
0000
0000
0001
0000
0000
0100
0000
0000
0000
0000
0000
1100
0000
0000
0000
1000
0000
0000
0000
1000
0000
0000
0000
,
0101
0000
0001
0000
0001
0000
1010
0000
1000
0000
1000
0000
,
0011
0000
0001
0000
0001
0000
2002
0000
0000
3003
0000
0000
,
1000
0010
0001
0010
1000
0000
1100
0000
,
0101
0011
1010
2000
,
3002
0000
0103
0000
0100
0001
0010
0001
,
0100
0010
0001
0010
0100
0001
0010
0100
,
0001
0100
0010
0001
0100
1000
0100
0001
,
0010
1000
0010
0001
0100
0000
0110
0000
,
1010
0000
0101
0000
0100
0010
1000
0100
,
0010
1000
0010
0100
1000
0010
0100
1000
,
0100
0010
1000
0100
0010
0M10
1000
0100
,
01M0
0001
0020
0000
0130
01M0
0001
0010
,
0100
01M0
0001
0010
1000
0001
0100
1000
,
0010
0M00
0010
0000
0100
0000
01M0
0000
0001
0000
0M01
0000
0010
0000
1000
0000
,
0001
0M01
0010
1000
0100
0010
0001
0100
,
1000
0000
0000
10F0
0000
0000
0001
0000
0000
0F01
0000
0000
0010
0000
0000
0000
1010
0000
0000
0000
1100
0000
0000
0000
,
0100
0000
0110
0000
0011
0000
0001
0000
0101
0000
1010
0000
,
1100
0000
0011
0000
1001
0000
0220
0000
0000
0330
0000
0000
,
01M0
01M0
01M0
01M0
0101
0000
0011
0000
,
1010
1100
0202
0003
,
200M
3000
M020
0000
,
0330
0000
0000
0000
;
