#TITLE:Doppelgangers;
#SUBTITLE:;
#ARTIST:Alice Schach and the Magic Orchestra;
#TITLETRANSLIT:;
#SUBTITLETRANSLIT:;
#ARTISTTRANSLIT:;
#GENRE:;
#CREDIT:DESPAIRING D'N'B;
#BANNER:Doppelgangers.png;
#BACKGROUND:Doppelgangers-bg.png;
#LYRICSPATH:;
#CDTITLE:;
#MUSIC:Doppelgangers.ogg;
#OFFSET:2.300001;
#SAMPLESTART:23.073153;
#SAMPLELENGTH:12.000000;
#LASTBEATHINT:2.237735;
#SELECTABLE:YES;
#BPMS:0.000000=104.000000
,140.000000=106.300003
,144.000000=178.000000
;
#STOPS:
;
#BGCHANGES:4.000=Doppelgangers.mp4=1.000=0=0=1=====,
99999=-nosongbg-=1.000=0=0=0 // don't automatically add -songbackground-
;
#KEYSOUNDS:;
#ATTACKS:TIME=3.470000:LEN=0.400000:MODS=Blink:TIME=40.389999:LEN=0.500000:MODS=Stealth:TIME=78.470001:LEN=1.500000:MODS=Stealth;

//---------------dance-single - ----------------
#NOTES:
     dance-single:
     :
     Hard:
     14:
     0.638552,0.725715,0.365407,0.662831,0.424892,526.000000,483.000000,43.000000,78.000000,0.000000,0.000000,0.638552,0.725715,0.365407,0.662831,0.424892,526.000000,483.000000,43.000000,78.000000,0.000000,0.000000:
0000
0000
0000
0000
,
0000
0000
0000
0000
,
0000
0000
0000
0000
0220
0000
0000
0330
,
2001
0000
0000
0000
3200
0000
0000
0000
0310
0001
0000
0010
0001
0000
1000
0000
,
0020
0000
0000
0000
0230
0000
0000
0000
0301
0010
0000
0100
1000
0000
0000
0000
,
0002
0000
0000
0000
0103
0000
0100
0000
0001
0010
0000
0010
0100
0000
1000
0000
,
0010
0001
0010
1000
0200
0000
0310
0000
,
0022
0000
0000
0033
0001
0100
0010
1000
,
2020
0000
0000
0000
0000
0000
3030
0000
1000
0001
1000
0001
0010
0000
0001
0000
,
1000
0000
0010
0100
0010
0000
0100
0001
2000
0000
3200
0000
0320
0000
0031
0000
,
2002
0000
0000
0000
0000
0000
0000
0000
3003
0000
0000
0000
0001
1000
0001
1000
,
0010
0000
1000
0100
0010
0000
0001
0000
0200
0000
1000
0000
0310
0000
1000
0000
,
0001
0000
1000
0100
0010
0000
0001
0000
0100
0010
0100
0001
1000
0000
2020
0000
,
3030
0000
0001
0000
0001
0000
1000
0000
1000
0000
0100
0010
0001
0000
0100
0000
,
0100
0000
0000
0000
0010
0000
1000
0001
1000
0000
0000
0000
0001
0000
0100
0000
0010
0000
1000
0000
0100
0000
0010
0000
0001
0000
0000
0000
1000
0000
0000
0000
,
1100
0000
0001
0100
0010
0000
1000
0000
0200
0000
0302
0000
0203
0000
2300
0000
,
3010
0000
1000
0100
0010
0000
0001
0000
1000
0010
0100
0001
0010
0000
0022
0000
,
3333
0000
1000
0000
1000
0000
0001
0000
0001
0000
0100
0010
1000
0000
0100
0010
,
0001
0000
0000
0000
0000
0000
1000
0000
0000
0001
0000
0000
0100
0000
0010
0000
0100
0000
0010
0000
0100
0000
0010
0000
0200
0000
0000
0000
0000
0000
0000
0000
0000
0000
0000
0000
0000
0000
0000
0000
0000
0000
0300
0000
0000
0000
0000
0000
,
1001
0000
0000
0000
0000
0000
1000
0000
0000
0000
0000
0000
0100
0000
0000
0000
1000
0000
0000
0000
0010
0000
0000
0000
0200
0000
0000
0000
0000
0000
0000
0000
0000
0010
0000
0000
0310
0000
0000
0000
0000
0000
1000
0000
0100
0000
0010
0000
,
0002
0000
0000
0103
0010
0000
1000
0100
0010
0000
0001
1000
0001
0000
0100
0000
,
0010
1000
0010
1000
0010
1000
0001
0001
0020
0000
0230
0000
2300
0000
3001
0000
,
0202
0303
1010
1100
0011
0101
2002
3003
,
0101
0000
0000
0000
0000
0000
0001
0000
0000
0000
0000
0000
0010
0000
0000
0000
0001
0000
0000
0000
0100
0000
0000
0000
0010
0000
0000
0000
1000
0000
0000
0000
0100
0000
0000
0000
0010
0000
0000
0000
0000
0000
0001
0000
0000
1000
0000
0000
,
0001
0000
1000
3010
0100
0000
0001
0010
0200
0000
2300
0000
3010
0100
0010
0000
,
0100
0001
0100
0001
0100
0001
1000
1000
0200
0000
0320
0000
0032
0000
1003
0000
,
2020
3030
0101
0011
1100
1010
2002
3003
,
2100
0000
0000
0000
0100
0000
0000
0000
3001
0100
0010
0100
3001
0000
0000
0000
,
0102
0000
0000
0000
0100
0000
0000
0000
1003
0100
0000
0010
0001
0000
0000
0000
,
0012
0000
0000
0000
1003
0000
0000
0000
2010
0000
0000
0000
3001
0100
0000
0100
,
0010
0000
1000
0001
0020
0000
0000
0000
0130
0000
0100
0000
1000
0001
0100
0000
,
0101
0000
0000
0000
0101
0000
0000
0000
0110
0000
0000
0000
1000
0000
0100
0000
0010
0000
0000
0000
0001
0000
0100
0000
0010
0000
0000
0000
1000
0001
1000
0000
,
0010
0000
0000
0100
0000
0000
0110
0000
0000
0100
0000
0000
0101
0000
0001
0000
1000
0000
0200
0000
0000
0000
0000
0000
,
1300
0000
0000
0000
0010
0000
0000
0000
0001
0000
0000
0000
0010
0000
0000
0000
1000
0000
1000
0000
0100
0000
0100
0000
1000
0010
1000
0000
0001
0000
0000
0000
,
0001
0010
0001
0000
2000
0000
0000
0000
3020
0000
0000
0000
0032
0000
0000
0000
0203
0000
0000
0000
2300
0000
0000
0000
3002
0000
0000
0000
0003
0000
0000
0000
,
2002
0000
0000
0000
,
3003
0000
0000
0000
0000
0000
0000
0000
0001
1000
0001
1000
0001
1000
0001
1000
,
0010
0000
0000
1000
3100
0000
0020
0000
0000
0000
1030
0000
0010
0000
0002
0000
,
0000
0103
0010
0100
0001
0010
0100
1000
,
0001
0100
1300
1200
0300
0210
0330
0201
,
0303
0001
0010
0100
1000
0010
0001
0010
,
1000
0000
0100
1000
0100
0000
0010
0000
0001
0000
1000
0000
0001
0000
0010
0000
,
0001
0000
0100
0010
0100
0000
0001
0000
1000
0001
1000
0001
1000
0001
1003
0001
,
0010
0010
0100
1000
0010
0010
0100
0001
,
1000
0000
0100
0000
0001
0000
1000
0000
0010
0000
0001
0000
0100
0010
0100
0010
,
0200
0000
0301
0010
0100
1000
0310
0100
,
0102
0000
1003
0100
0010
0001
0100
0010
,
2010
0000
3001
0010
0012
0000
1033
0100
,
2100
0000
3001
0100
0201
0000
0310
0000
,
1001
0001
0010
0100
1000
0010
0100
0000
,
0101
0100
0010
1000
0100
0010
0001
0000
,
0011
0001
1000
0010
0100
0001
1000
0100
,
0001
0100
1000
0010
0100
0001
1000
0000
,
0001
0100
0001
0000
1000
0000
0001
0000
1000
0100
1000
0000
0001
0000
1000
0000
,
0020
1000
0130
0000
0200
0001
0310
0000
,
2000
0100
3002
0100
2003
0010
3002
0010
,
2003
0000
3001
0010
0100
1000
0001
0000
,
1000
0010
1000
0000
0001
0000
1000
0000
0100
0010
0100
0000
1000
0000
0001
0000
,
0200
0010
0301
0000
1000
0100
0010
0001
,
1000
0000
0001
0100
0010
0000
1000
0000
0001
0000
1000
0100
0010
0000
0001
0000
,
1000
0000
0001
0100
0001
0000
1000
0100
1000
0000
0001
0100
0010
0000
1000
0100
,
0010
0000
0000
0000
;

//---------------dance-single - ----------------
#NOTES:
     dance-single:
     :
     Medium:
     11:
     0.481949,0.518368,0.280429,0.424892,0.080729,397.000000,364.000000,33.000000,50.000000,0.000000,0.000000,0.481949,0.518368,0.280429,0.424892,0.080729,397.000000,364.000000,33.000000,50.000000,0.000000,0.000000:
0000
0000
0000
0000
,
0000
0000
0000
0000
,
0000
0000
0000
0000
0220
0000
0000
0330
,
2001
0000
3100
0010
0200
0000
0320
0000
,
0032
0000
0103
0010
0200
0000
0310
1000
,
0032
0000
0013
0100
2000
0000
3010
0100
,
0001
0001
1000
1000
0200
0000
0310
0000
,
2002
0000
3003
0000
0001
0010
0100
1000
,
0020
0000
0003
0000
0130
0100
0100
0000
,
0001
0010
0100
1000
0010
0100
0001
1000
,
2002
0000
0000
0000
0000
0000
0000
0000
3003
0000
0000
0000
0001
1000
0001
1000
,
0001
0000
0000
1000
0100
0000
0000
0000
1000
0000
0001
0000
0100
0000
0010
0000
,
1000
0000
0000
0001
0010
0000
0000
0000
0001
0000
1000
0000
0010
0000
0100
0000
,
0000
0001
0100
1000
0100
0001
0010
0100
,
1000
0000
0000
0001
0100
0000
0010
0000
1000
0000
0100
0000
1100
0000
0000
0000
,
1002
0000
0103
0010
1000
0100
0001
0100
,
1000
0010
0100
1000
0100
0001
0010
0100
,
0000
1000
0010
0001
0010
1000
0100
0010
,
0001
0000
0000
1000
0010
0000
0100
0000
0220
0000
0000
0000
0000
0000
0330
0000
,
1001
0000
0001
0000
0010
0000
0100
0000
1000
0000
0000
0010
0100
0000
0001
0000
,
2000
0000
3001
0010
0100
1000
0010
0000
,
1000
0100
0000
1000
0100
0000
1000
0001
1000
0000
0010
0000
0100
0000
0001
0000
,
0202
0303
1000
0100
0001
0010
1000
0000
,
1001
0000
1000
0000
0100
0000
0010
0000
0001
0000
0000
0100
0010
0000
1000
0000
,
0002
0000
1003
0100
0010
0001
0100
0000
,
0001
0010
0000
0001
0010
0000
0001
1000
0001
0000
0100
0000
0010
0000
1000
0000
,
2020
3030
0001
0010
1000
0100
0001
0000
,
2020
0000
0030
0000
3001
1000
0001
0000
,
0022
0000
0030
0000
1003
0001
1000
0000
,
0002
0103
0200
0310
,
0020
1030
2000
3001
,
1001
1001
1001
1000
0100
0010
0001
0000
,
0011
0000
0000
0001
0000
0000
1000
0000
0000
0010
0000
0000
1000
0000
0100
0000
0010
0000
0001
0000
0000
0000
0000
0000
,
2000
0000
3020
0000
0032
0000
2003
0000
3100
0010
0100
0000
0010
0000
0000
0000
,
1000
0100
1000
0000
0001
0100
0001
0000
0100
0000
0010
0000
0100
0000
0000
0000
,
2002
0000
0000
0000
,
3303
0000
0000
0000
0001
1000
0001
1000
,
0010
0000
1000
3200
0000
0001
0000
0310
,
0000
0010
0001
1000
0001
0100
0010
0000
,
1000
0000
0001
0200
0000
1000
0000
0310
,
0000
0100
0010
0100
0001
0010
0100
0000
,
1000
0100
1000
0000
0001
0100
0010
1000
,
0001
0100
0001
0000
1000
0100
0010
0001
,
0100
0010
0100
1000
0100
0010
0100
0001
,
1000
0100
0010
0001
0100
0010
1000
0001
,
0020
0000
0031
1000
0020
0000
0130
0001
,
0020
0000
0130
1000
0020
0000
0130
0001
,
0010
0100
1000
0010
0100
0001
1000
0100
,
0020
0031
0011
1100
,
0002
0000
0103
0010
2000
0000
3100
0010
,
0002
0000
0103
0010
2000
0000
3010
0100
,
0001
0010
0100
1000
0010
0100
0001
1000
,
0100
0010
0001
0100
0010
1000
0001
0000
,
1010
1010
1100
1100
,
0001
0010
0100
1000
0010
0100
0001
0000
,
0101
0101
0011
0011
,
2001
0000
3100
0000
1000
0001
0100
0000
,
0001
0100
0010
0100
0001
0010
0100
0000
,
1000
0100
0010
0100
1000
0010
0100
0000
,
1010
0110
0101
0110
,
1000
0100
0010
0001
0100
1000
0100
0001
,
1000
0000
0000
0000
;

//---------------dance-single - ----------------
#NOTES:
     dance-single:
     :
     Easy:
     6:
     0.257363,0.336939,0.084978,0.288926,0.000000,212.000000,202.000000,10.000000,34.000000,0.000000,0.000000,0.257363,0.336939,0.084978,0.288926,0.000000,212.000000,202.000000,10.000000,34.000000,0.000000,0.000000:
0000
0000
0000
0000
,
0000
0000
0000
0000
,
0000
0000
0000
0000
0220
0000
0000
0330
,
1000
0100
0010
0001
,
1000
0010
0200
0300
,
0001
0010
0100
1000
,
0001
0100
0020
0030
,
2000
0000
3000
1000
,
0200
0000
0300
0100
,
0010
0010
0001
0001
,
2002
0000
0000
3003
,
0001
0100
0010
0010
,
1000
0100
0010
0010
,
0000
0001
0001
0000
0001
0000
0100
0000
,
0010
0000
0010
0000
1000
0001
1000
0000
,
0000
0001
0100
0010
,
1000
0001
0010
0100
,
0000
1000
1000
0000
1000
0000
0100
0000
,
1000
0000
0001
1000
0002
0000
0000
0003
,
1000
0000
0100
0000
0010
0000
0001
0100
,
0010
0000
1000
0000
0010
0010
0010
0000
,
0000
0000
1000
0000
0001
0100
0010
0000
,
1000
0000
0001
0000
1000
0100
0010
0000
,
1001
0000
1000
0000
0001
0000
1000
0010
,
0100
0000
0001
0000
0100
0100
0100
0000
,
0000
0000
0001
0000
1000
0010
0100
0000
,
0001
0000
1000
0000
0001
0010
0100
0000
,
2000
0000
0000
3000
,
0100
0000
0010
0002
,
0103
0020
1030
0002
,
0013
0200
1300
0020
,
0130
0100
0100
0000
0001
0000
1000
0000
,
0100
0100
0100
0000
0020
0000
0030
0000
,
0001
1000
0010
0100
,
0001
0001
1000
1000
0100
0100
0010
0000
,
2002
0000
0000
0000
,
3003
0000
0000
0000
,
0001
0000
0000
0100
0000
0100
0000
0100
,
0000
0010
1000
0001
,
0010
0000
0000
0100
0000
0100
0000
0100
,
0000
1000
0001
0000
,
1000
0000
0000
0010
0000
0010
0000
0010
,
0000
1000
0010
0100
,
0001
0000
0000
0010
0000
0010
0000
0010
,
0000
0001
1000
0010
,
2000
3000
0200
0300
,
0010
0001
1000
0010
,
0200
0300
0002
0003
,
1000
0100
0010
0001
,
0200
0300
0020
0030
,
1000
0001
0010
0100
,
2000
3000
0002
0003
,
1000
0010
0100
0000
,
2002
3003
2002
3003
,
0001
0010
0100
0000
,
0220
0330
0220
0330
,
0010
0001
1000
0000
,
0001
0100
0001
0000
,
1000
0100
1000
0000
,
0001
0001
0010
0010
,
0100
1000
0010
0110
,
1001
0000
0000
0000
;

//---------------dance-single - ----------------
#NOTES:
     dance-single:
     :
     Beginner:
     3:
     0.116542,0.181429,0.016996,0.084978,0.000000,96.000000,94.000000,2.000000,10.000000,0.000000,0.000000,0.116542,0.181429,0.016996,0.084978,0.000000,96.000000,94.000000,2.000000,10.000000,0.000000,0.000000:
0000
0000
0000
0000
,
0000
0000
0000
0000
,
0000
0000
0000
0000
,
0001
0000
0000
0000
,
0100
0000
0000
0000
,
0010
0000
0000
0000
,
1000
0000
0000
0000
,
0200
0000
0300
0000
,
0200
0000
0300
0000
,
0020
0000
0000
0000
,
0030
0000
0000
0000
,
1001
0000
0001
0000
,
0100
0000
0000
0000
,
0010
0010
0010
0000
,
0010
0010
0010
0000
,
1000
0000
0000
0000
,
0001
0000
0000
0000
,
1000
1000
1000
0000
,
1000
0000
0000
0000
,
1001
0000
0001
0000
,
0100
0000
0100
0000
,
0010
0000
0010
0000
,
1000
0000
1000
0000
,
0100
0000
0100
0000
,
0010
0000
0010
0000
,
0001
0000
0001
0000
,
0001
0000
0000
0000
,
2000
0000
3000
0000
,
0020
0030
0020
0030
,
0200
0300
0200
0300
,
0002
0003
0002
0003
,
1000
1000
0000
0000
,
0010
0010
0010
0000
,
0100
0000
0100
0000
,
0001
0001
0001
0001
,
0001
0000
0000
0000
,
0000
0000
0000
0000
,
1000
0000
1000
0000
,
1000
0000
0000
0000
,
0100
0000
0100
0000
,
0100
0000
0000
0000
,
0010
0000
0010
0000
,
0010
0000
0000
0000
,
0001
0000
0001
0000
,
0001
0000
0000
0000
,
1000
0000
0000
0000
,
0010
0000
0000
0000
,
0100
0000
0100
0000
,
0100
0000
0000
0000
,
0001
0000
0000
0000
,
0010
0000
0000
0000
,
0100
0000
0100
0000
,
0100
0000
0000
0000
,
1000
0000
1000
0000
,
1000
0000
1000
0000
,
0010
0000
0010
0000
,
0010
0000
0000
0000
,
0100
0000
0100
0000
,
0100
0000
0100
0000
,
0001
0000
0001
0000
,
0001
0000
0001
0000
,
1000
0000
0000
0000
;

//---------------dance-double - ----------------
#NOTES:
     dance-double:
     :
     Hard:
     13:
     0.596063,0.646632,0.390901,0.637338,0.356909,491.000000,445.000000,46.000000,75.000000,0.000000,0.000000,0.596063,0.646632,0.390901,0.637338,0.356909,491.000000,445.000000,46.000000,75.000000,0.000000,0.000000:
00000000
00000000
00000000
00000000
,
00000000
00000000
00000000
00000000
,
00000000
00000000
00022000
00033000
,
00002000
00000000
00000000
00000000
00103000
00000000
00100000
00000000
00001000
00100000
00000000
00100000
00010000
00000000
10000000
00000000
,
00200000
00000000
00000000
00000000
01300000
00000000
01000000
00000000
00010000
00100000
00000000
01000000
10000000
00000000
00000000
00000000
,
00020000
00000000
00000000
00000000
00130000
00000000
00100000
00000000
00001000
00010000
00000000
00010000
00001000
00000000
00010000
00000000
,
00000020
00000000
00000000
00000030
00001000
00000000
00001000
00000000
00000001
00000010
00000000
00000100
00001000
00000000
00000000
00000000
,
00002020
00000000
00003030
00000000
00000001
00000100
00001000
00000000
,
00022000
00000000
00000000
00000000
00033000
00000000
00000000
00000000
00001000
00010000
00001000
00010000
01000000
00000000
00100000
00000000
,
00010000
00000000
10000000
00000000
00100000
00000000
01000000
00100000
01000000
00000000
00010000
00000000
00100000
01000000
10000000
00000000
,
20020000
00000000
00000000
00000000
00000000
00000000
00000000
00000000
00000000
00000000
30030000
00000000
10000000
00010000
10000000
00010000
,
10000000
00000000
00100000
01000000
00100000
00000000
10000000
01000000
00200000
00000000
00001000
00000000
00320000
00000000
02030000
00000000
,
03001000
00000000
00010000
00000100
00000010
00000000
00000001
00001000
00000001
00000100
00000010
00001000
00000001
00000000
00000022
00000300
,
00000033
00000000
00001033
00000000
00001000
00000000
00000001
00000100
00001000
00000000
00010000
00000000
00001000
00000000
00010000
01000000
,
10000000
00000000
00100000
10000000
00100000
00000000
10000000
01000000
00010000
00001000
00010000
00001000
00000100
00000000
00000110
00000000
,
00000001
00000000
00000100
00000010
00000100
00000000
00000001
00000010
00000200
00000030
00002300
00000000
00003020
00000000
00020030
00000000
,
00031000
00000000
00100000
01300000
00100000
00000000
00010000
10000000
00010000
01000000
00100000
10000000
00010000
00000000
00220000
00000000
,
33330000
00000000
33010000
00000000
00010000
00000000
10000000
00100000
00010000
00000000
00001000
00000000
00010000
00000000
00001000
00000010
,
00000001
00000000
00000000
00001000
00000000
00000000
00000010
00000100
00000010
00000100
00000010
00000100
00000020
00000000
00000000
00000000
00000000
00000000
00000030
00000000
00000000
00000000
00000000
00000000
,
00001001
00000000
00000000
00000000
00000000
00000000
00001000
00000000
00000000
00000000
00000000
00000000
00000010
00000000
00000000
00000000
00001000
00000000
00000000
00000000
00000100
00000000
00000000
00000000
00020000
00000000
00000000
00000000
00000000
00000000
00000000
00000000
00000000
00031000
00000000
00000000
01000000
00000000
00000000
00000000
00000000
00000000
00010000
00000000
00000000
10000000
00000000
00000000
,
00100000
00000000
10000000
00010000
10000000
00000000
00010000
00100000
01000000
00000000
10000000
00000000
20100000
00000000
00000000
00000000
,
30010000
00100000
00000000
00010000
10000000
00010000
10000000
00100000
02000000
00000000
03002000
00000000
00023000
00000000
00030200
00000000
,
00001300
00000000
00010100
00011000
01001000
01100000
20020000
30030000
,
10100000
00000000
00000000
00000000
00000000
00000000
00100000
00000000
00000000
00000000
00000000
00000000
10000000
00000000
00000000
00000000
00010000
00000000
00000000
00000000
00100000
00000000
00000000
00000000
00001000
00000000
00000000
00000000
00010000
00000000
00000000
00000000
00000010
00003000
00000000
00000000
00000100
00000000
00000000
00000000
00000000
00000000
00000001
00000000
00000000
00000000
00000000
00000000
,
00001000
00000000
00000010
00001000
00000010
00000000
00001000
00000100
00000010
00000000
00000001
00000000
00000102
00000000
00000000
00000000
,
00001003
00000100
00000000
00001000
00000001
00001000
00000001
00000100
00000020
00000000
00020030
00000000
00032000
00000000
00203000
00000000
,
00310000
00000000
00101000
00011000
00010010
00000110
00002002
00003003
,
00000201
00001300
00002100
00013000
,
00021000
01030000
02010000
13000000
,
10200000
10000000
00310000
00000000
00120000
00100000
00031000
00000000
,
00012000
00010000
00003010
00000000
00001020
00001000
00000031
00000000
,
00000101
00000000
00000101
00000000
00000110
00000000
00001000
00000001
00001000
00000000
00000100
00010000
00001000
00000000
00010000
00001000
,
00010000
00000000
00000000
00001000
00000000
00000000
01001000
00000000
00000000
01000000
00000000
00000000
00100000
00000000
00100000
00000000
00100000
00000000
20000000
00000000
00000000
00000000
00000000
00000000
,
30020000
00000000
00230000
00000000
00302000
00000000
00023000
00000000
00030010
00000100
00000010
00000100
00000002
00000000
00002003
00000000
,
00003100
00010000
00001000
00100000
00010000
01000000
00100000
10000000
00020000
00000000
00230000
00000000
20300000
00000000
30200000
00000000
,
00302000
00000000
00000000
00000000
,
00003000
00000000
00000000
00000000
00000000
00000000
00000000
00000000
00010000
00001000
00010000
00001000
00010000
00001000
00010000
00001000
,
00010000
00000000
00000000
00000010
00001000
00000000
00001010
00000000
00000000
00000000
00000110
00000000
00000000
00000000
00000102
00000000
,
00000000
00001003
00000100
00000010
00000100
00000001
00000100
00001000
,
00000010
00000000
00000000
00010000
00001030
00000000
00101000
00000000
00000000
00000000
01100000
00000000
00000000
00000000
21000000
00000000
,
00000000
30010000
01000000
10000000
01000000
00100000
10000000
01000000
,
00100000
00000000
00001000
00010000
00001000
00000000
00000000
00000000
00010000
00000000
00000010
00000000
00000100
00000000
00000001
00000000
,
00001000
00000000
00000001
00000010
00000001
00000000
00000000
00000000
00001000
00000000
00000001
00000000
00001000
00000000
00000001
00000000
,
00000100
00000100
00000010
00001000
00000100
00000100
00010000
00001000
,
00100000
00100000
00010000
10000000
00100000
01000000
00100000
01000000
,
00020000
00000000
10030000
01000000
00100000
00010000
01000000
00001000
,
00020000
00000000
00030100
00001000
00000010
00000100
00000001
00001000
,
00000200
00000001
00002300
00000010
,
00003002
00000000
00000103
00001000
00000100
00000010
00001000
00000001
,
00002000
00000000
00003001
00000010
00000100
00001000
00000010
00010000
,
00002000
00000000
00103000
00010000
01000000
00100000
10000000
00010000
,
00200000
10000000
00320000
01000000
,
20030000
00000000
30100000
00010000
00100000
01000000
00010000
10000000
,
12000000
00000000
03100000
10000000
00100000
00010000
01000000
00000000
,
01002000
00000000
00013000
00000100
00000010
00000001
00000100
00000000
,
00000101
00000110
00001010
00000110
,
00002001
00000000
00003100
00000010
00000001
00000100
00000010
00001000
,
00000100
00000100
00010000
00001000
01000000
01000000
00010000
10000000
,
00200000
00000000
01300000
00010000
10000000
00010000
00100000
00000000
,
00100000
00000000
00010000
10000000
00010000
00000000
00000000
00000000
10000000
00000000
00100000
00000000
01000000
00000000
00001000
00000000
,
00010000
00000000
00000100
00010000
00000100
00000000
00010000
00001000
00010000
00000000
00000010
00000000
00000100
00000000
00000001
00000000
;

//---------------dance-double - ----------------
#NOTES:
     dance-double:
     :
     Medium:
     10:
     0.415180,0.465575,0.135965,0.450385,0.029742,342.000000,326.000000,16.000000,53.000000,0.000000,0.000000,0.415180,0.465575,0.135965,0.450385,0.029742,342.000000,326.000000,16.000000,53.000000,0.000000,0.000000:
// measure 0
00000000
00000000
00000000
00000000
,  // measure 1
00000000
00000000
00000000
00000000
,  // measure 2
00000000
00000000
00022000
00033000
,  // measure 3
00020000
00000000
00030200
00000000
00000310
00000001
00000010
00000000
,  // measure 4
00000002
00000000
00000203
00000000
00000310
00001000
00000010
00000000
,  // measure 5
00002000
00000000
00003200
00000000
00010300
00001000
00010000
00000000
,  // measure 6
00002000
00000000
02003000
00000000
03010000
10000000
00010000
00000000
,  // measure 7
20200000
00000000
30300000
00000000
10000000
00010000
00100000
00000000
,  // measure 8
00202000
00000000
00303000
00000000
00001000
00010000
00000010
00000000
,  // measure 9
00002010
00000000
00003002
00000000
00000013
00000100
00000010
00000100
,  // measure 10
00002000
00000000
00000000
00000000
00000000
00000000
00000000
00000000
00003000
00000000
00000000
00000000
00000001
00001000
00000001
00001000
,  // measure 11
00000001
00000100
00000010
00001000
00000200
00000000
00010300
00001000
,  // measure 12
00010000
00001000
01000000
00100000
10000000
00010000
00100000
00100000
,  // measure 13
00000000
00001000
00010000
00000100
00000100
00010000
00001000
01000000
,  // measure 14
01000000
00000000
00000000
00001000
00010000
00000000
00001000
00000000
00100000
00000000
00010000
00000000
10000000
00000000
00000000
00000000
,  // measure 15
10010000
00010000
10000000
00010000
00200000
00000000
00301000
00010000
,  // measure 16
00001000
00010000
00000010
00000100
00000001
00001000
00000100
00000100
,  // measure 17
00000000
00010000
00001000
00100000
00100000
00001000
00010000
00000010
,  // measure 18
00000100
00000000
00000001
00000000
00001000
00000001
00001000
00000001
00001000
00000000
00000000
00000000
00000000
00000000
00000000
00000000
,  // measure 19
00001001
00000000
00000001
00000000
00000100
00000000
00000010
00001000
00000020
00000000
00000000
00000000
00001030
00000000
00000100
00000000
,  // measure 20
00010000
00010000
00001000
01000000
00100000
10000000
00010000
00100000
,  // measure 21
00001000
00010000
00001000
00010000
00100000
00010000
00001000
00100000
,  // measure 22
00020000
00000000
10000000
10000000
01000000
01000000
10030000
00000000
,  // measure 23
10010000
00000000
10000000
00000000
00100000
00000000
01000000
00010000
02000000
00000000
00000000
00000000
03010000
00000000
00100000
00000000
,  // measure 24
00001000
00001000
00010000
00000010
00000100
00000001
00001000
00000100
,  // measure 25
00010000
00001000
00010000
00001000
00000100
00001000
00010000
00000100
,  // measure 26
00002000
00000000
00000001
00000001
00000010
00000010
00003001
00000000
,  // measure 27
00002001
00003020
00000001
00001000
,  // measure 28
00000001
00000000
00002030
00000000
00003200
00000000
00010300
00001000
,  // measure 29
00200000
00010000
10000000
00010000
,  // measure 30
10000000
00000000
00320000
00000000
10030000
00100000
01000000
00000000
,  // measure 31
00010000
10000000
00010000
10000000
02000000
00000000
03200000
00000000
,  // measure 32
00301000
00010000
00001000
00010000
00000010
00000100
00000001
00000000
,  // measure 33
00001000
00000100
00000001
00000100
00001000
00000010
00000100
00001000
,  // measure 34
00020000
00000000
00031000
00001000
00100000
00100000
01000000
00000000
,  // measure 35
20020000
00000000
00000000
00000000
,  // measure 36
30030000
00000000
00000000
00000000
10000000
00010000
10000000
00010000
,  // measure 37
20000000
00000000
00000000
00100000
00000000
00100000
00000000
30100000
,  // measure 38
00000000
10000000
01000000
00000000
00100000
00000000
00001000
00000000
,  // measure 39
00020000
00000000
00000000
00000010
00000000
00000010
00000000
00030010
,  // measure 40
00000000
00010000
00000100
00000000
00000010
00000001
00000010
00000000
,  // measure 41
00000002
00000000
00000000
00001000
00000000
00001000
00000000
00001003
,  // measure 42
00000000
00000001
00000100
00000000
00000010
00000100
00000010
00000000
,  // measure 43
00001000
00000010
00001000
00000000
00000100
00010000
00000100
00000000
,  // measure 44
00010000
00001000
00010000
00001000
00010000
00001000
00010000
00000000
,  // measure 45
00201000
00000000
00310000
00000000
00100000
00010000
00100000
00000000
,  // measure 46
00020000
00000000
10030000
00000000
00010000
01000000
00010000
00000000
,  // measure 47
20000000
00100000
30020000
00100000
,  // measure 48
02030000
00000000
03001000
00000000
00010000
00001000
00010000
00000000
,  // measure 49
00010200
00000000
00001300
00000000
00000001
00001000
00000001
00000000
,  // measure 50
00002000
00000000
00003010
00000000
00000100
00000010
00000100
00000000
,  // measure 51
00000002
00000023
00000230
00020300
,  // measure 52
00032000
00203000
00320000
01030000
,  // measure 53
10010000
00000000
10100000
00000000
10000000
00010000
00100000
00000000
,  // measure 54
00110000
00000000
00101000
00000000
00100000
00001000
00010000
00000000
,  // measure 55
00000100
00000100
00000010
00000010
,  // measure 56
00002002
00000000
00003003
00000000
00000001
00000100
00000010
00000000
,  // measure 57
00001000
00000001
00001000
00000000
00000001
00000100
00000001
00000000
,  // measure 58
00001000
00000100
00001000
00000000
00000010
00010000
00000010
00000000
,  // measure 59
00010000
00001000
00100000
00010000
,  // measure 60
10000000
00010000
10000000
00010000
01000000
00100000
01000000
00100000
;

//---------------dance-double - ----------------
#NOTES:
     dance-double:
     :
     Easy:
     6:
     0.263433,0.335558,0.067983,0.416394,0.000000,217.000000,209.000000,8.000000,49.000000,0.000000,0.000000,0.263433,0.335558,0.067983,0.416394,0.000000,217.000000,209.000000,8.000000,49.000000,0.000000,0.000000:
// measure 0
00000000
00000000
00000000
00000000
,  // measure 1
00000000
00000000
00000000
00000000
,  // measure 2
00000000
00000000
00022000
00033000
,  // measure 3
00002000
00103000
00010000
10000000
,  // measure 4
00200000
01300000
00002000
00003000
,  // measure 5
00020000
00030100
00001000
00000010
,  // measure 6
00000200
00000301
00001000
00000100
,  // measure 7
00020000
00000000
00030000
00001000
,  // measure 8
00002000
00000000
02003000
00000000
,  // measure 9
03100000
00100000
10000000
01000000
,  // measure 10
00200000
00000000
00300000
01100000
,  // measure 11
10020000
00000000
01030000
00000000
00001000
00000000
00010000
00010000
,  // measure 12
00000100
00000000
00000010
00000000
00000001
00000000
00001000
00001000
,  // measure 13
00000000
00000001
00000200
00000000
00000320
00000000
00002030
00000000
,  // measure 14
00003200
00000000
00020300
00000000
00031000
00100000
00010000
00000000
,  // measure 15
20020000
00000000
30030000
00000000
00010000
00000000
01000000
01000000
,  // measure 16
00001000
00010000
00000010
00000100
,  // measure 17
00000001
00000001
00000010
00000000
00000100
00000100
00010000
00000000
,  // measure 18
00001000
00010000
00001000
00010000
00001000
00000000
00000000
00000000
,  // measure 19
00011000
00100000
00200000
00310000
,  // measure 20
20000000
00000000
30100000
00000000
10000000
10000000
00010000
00000000
,  // measure 21
20000000
00000000
32000000
00000000
03100000
00100000
00001000
00001000
,  // measure 22
00020000
00000000
00030010
00000000
00000100
00000100
00000001
00000000
,  // measure 23
00002002
00003003
00000002
00000013
,  // measure 24
00000200
00000000
00001300
00000000
00000010
00000010
00010000
00000000
,  // measure 25
00001000
00001000
00100000
00100000
00010000
00000000
10000000
00000000
,  // measure 26
00200000
00000000
01300000
00000000
01000000
00010000
10000000
00000000
,  // measure 27
20000000
30000000
02000000
03000000
,  // measure 28
00200000
00300000
00002000
00003000
,  // measure 29
00020000
00030000
00000020
00000030
,  // measure 30
00000200
00000300
00000002
00000003
,  // measure 31
00001000
00000001
00001000
00000000
00000100
00000000
00000100
00000000
,  // measure 32
00010000
00001000
01000000
00100000
,  // measure 33
10000000
10000000
10000000
10000000
10000000
00000000
00100000
00000000
,  // measure 34
01000000
00000000
00001000
00000000
00010000
00010000
00010000
00000000
,  // measure 35
00022000
00000000
00000000
00000000
,  // measure 36
00333000
00000000
00000000
00000000
,  // measure 37
00011000
00000000
00000000
00010000
00000000
00010000
00000000
00000100
,  // measure 38
00000000
00010000
00000100
00000010
,  // measure 39
00000001
00000000
00000000
00001000
00000000
00001000
00000000
00000010
,  // measure 40
00000000
00001000
00000001
00000100
,  // measure 41
00000010
00000000
00000000
00010000
00000000
00010000
00000000
00001000
,  // measure 42
00000000
00010000
00001000
00100000
,  // measure 43
00010000
00010000
10000000
10000000
,  // measure 44
00100000
01000000
00010000
00000000
,  // measure 45
20000000
30000000
02000000
03000000
,  // measure 46
00100000
00001000
00100000
00001000
,  // measure 47
00020000
00030000
00000020
00000030
,  // measure 48
00001000
00000010
00000100
00000000
,  // measure 49
00000002
00000003
00000020
00000030
,  // measure 50
00000100
00010000
00000100
00010000
,  // measure 51
00002000
00003000
00200000
00300000
,  // measure 52
00010000
10000000
00010000
00000000
,  // measure 53
10000000
00100000
01000000
00010000
,  // measure 54
00100000
01000000
00100000
00000000
,  // measure 55
00001000
00001000
00010000
00010000
,  // measure 56
00000020
00000030
00000200
00000300
,  // measure 57
00000001
00001000
00000001
00000000
,  // measure 58
00001000
00000100
00010000
00000000
,  // measure 59
00001000
00001000
01000000
01000000
,  // measure 60
00100000
10000000
00010000
10000000
;
