#VERSION:0.83;
#TITLE:Dokkin♢魔法つかいプリキュア!;
#SUBTITLE:;
#ARTIST:北川理恵;
#TITLETRANSLIT:Dokkin - Mahou Tsukai Pretty Cure!;
#SUBTITLETRANSLIT:;
#ARTISTTRANSLIT:Kitagawa Rie;
#GENRE:;
#CREDIT:;
#MUSIC:audio.ogg;
#BANNER:bn.png;
#BACKGROUND:bg.png;
#CDTITLE:create_cdtitle.png;
#SAMPLESTART:10.465;
#SAMPLELENGTH:12.273;
#SELECTABLE:YES;
#OFFSET:-0.238;
#BPMS:0.000=176.000;
#STOPS:;
#SPEEDS:0.000=1.000=0.000=0;
#SCROLLS:0.000=1.000,
153.000=0.000,
153.167=1.330,
153.667=0.000,
153.833=1.330,
154.333=0.000,
154.500=1.330,
155.000=0.000,
155.167=1.330,
155.667=0.000,
155.833=1.330,
156.333=0.000,
156.500=1.330,
157.000=0.000,
157.167=1.330,
157.667=0.000,
157.833=1.330,
158.333=0.000,
158.500=1.330,
159.000=1.000
;
#TIMESIGNATURES:0.000=4=4;
#JACKET:jacket.png;
#JACKET:;
#BGCHANGES:-0.698=video.mp4=1.000=1=0=0=StretchNoLoop==CrossFade==,
99999.000=-nosongbg-=1.000=0=0=0=StretchNoLoop====
;
#FGCHANGES:;

//--------------- dance-single - ----------------
#NOTEDATA:;
#STEPSTYPE:dance-single;
#DESCRIPTION:XO FS JU XMOD-;
#CHARTNAME:Witchy;
#CREDIT:Create!;
#DIFFICULTY:Challenge;
#METER:13;
#RADARVALUES:0,0,0,0,0;
#NOTES:
0000
0000
0000
0000
,
0000
0000
0001
0100
0001
0000
1000
0100
,
1000
0001
1000
0010
0100
0010
1000
0001
,
0010
0110
1000
1000
,
1000
0000
0010
1000
0100
1000
0010
0100
,
0001
0010
0001
0100
0001
0010
0001
0100
,
0010
1000
0100
1000
0010
1000
0100
0000
,
0100
0000
0110
0000
0001
1000
0000
0010
,
0100
0000
2000
0000
3000
0000
0100
0000
0001
0000
1000
0000
0100
00M0
0100
0000
,
0010
0000
0002
0000
0003
0000
0010
0000
1000
0000
0001
0000
0010
0M00
0010
0000
,
1000
0100
0000
0010
0001
1000
0010
0100
,
0001
0000
0020
0000
0000
0000
0001
0000
0100
0000
0031
0000
1000
0000
0001
0100
,
0010
0000
0002
0000
0003
0000
0010
0000
1000
0000
0001
0000
0010
0M00
0010
0000
,
0100
0000
2000
0000
3000
0000
0100
0000
0001
0000
1000
0000
0100
00M0
0100
0000
,
0001
1000
0010
0100
0010
0000
1001
1000
,
0001
0011
0000
1100
0000
1001
0101
0000
,
1000
0000
0100
1000
0010
0001
0010
1000
,
0100
0001
0000
0100
1000
0100
0010
0100
,
1000
0001
0200
0000
0310
0001
0010
1000
,
0100
0110
0000
0011
0000
1001
0000
0110
,
0110
0000
1000
0001
0010
1000
0010
0001
,
0100
1000
0100
0001
1000
0010
0100
0001
,
1000
0000
0010
0000
0001
0000
0010
0000
1000
0000
0001
0010
0001
0000
0100
0000
,
0010
1010
1000
1001
0000
1000
0000
0001
,
1000
0100
0001
0000
0100
0010
1000
0010
,
0001
0000
1000
0010
1000
0001
0010
0100
,
1000
0010
0002
0000
0013
0100
2000
0000
,
0000
0000
3100
0001
1000
0100
0000
0010
,
0001
0100
1000
0000
0100
0010
0001
0010
,
1000
0000
0001
0010
0100
1000
0001
1000
,
0001
0000
0100
0000
2000
0000
3100
0000
0001
0000
0010
0000
0100
0000
1000
0001
,
1000
0000
0040
0000
0000
0000
1030
0000
0001
0000
0010
0000
0100
1000
0001
0100
,
0010
0000
1000
0001
0010
0000
0100
0000
1000
0000
0010
0000
0100
0000
0010
0000
,
1000
0001
0010
0100
0010
0001
0100
1000
,
0100
0000
0001
1000
0001
0000
0010
0000
0001
0000
0100
0000
0010
0000
0100
0000
,
0001
0000
1000
0100
1000
0000
0001
0000
0100
0000
0010
0000
1000
0000
0001
0100
,
0010
0000
1000
0001
0010
0000
0100
0000
1000
0000
0100
0000
0010
0000
0001
0000
,
1000
0001
1000
0010
0100
0010
1000
0001
,
1000
0000
0000
1100
0000
1001
0000
1020
0000
0130
0000
0010
,
0000
0100
0000
0101
0000
1001
0000
1100
0000
2001
0000
0000
,
0000
0000
3001
0010
0100
1000
0001
0100
,
0010
0000
0002
0000
0003
0000
0010
0000
1000
0000
0001
0000
0010
0M00
0010
0000
,
0100
0000
2000
0000
3000
0000
0100
0000
0001
0000
1000
0000
0100
00M0
0100
0000
,
0001
0010
0000
0100
1000
0001
0100
0010
,
1000
0000
0200
0000
0000
0000
1000
0000
0010
0000
1300
0000
0001
0000
1000
0010
,
0100
0000
2000
0000
3000
0000
0100
0000
0001
0000
1000
0000
0100
00M0
0100
0000
,
0010
0002
0003
0010
1000
0001
1000
0010
,
1000
0001
0011
0001
1000
0010
0110
0100
,
0000
0000
0101
0000
0000
0000
1001
0000
0001
0000
0010
0000
0001
0000
1000
0010
,
0100
0000
2000
0000
3000
0000
0100
0000
0001
0000
1000
0000
0100
00M0
0100
0000
,
0010
0000
0002
0000
0003
0000
0010
0000
1000
0000
0001
0000
0010
0M00
0010
0000
,
1000
0100
0000
0010
0001
1000
0100
0010
,
0001
0000
0200
0000
0000
0000
0001
0000
0010
0000
0301
0000
1000
0000
0001
0010
,
0100
0000
0002
0000
0003
0000
0100
0000
1000
0000
0001
0000
0100
00M0
0100
0000
,
0010
2000
3000
0010
0001
1000
0001
0010
,
0001
1000
0010
0100
0010
0000
1001
0001
,
1000
1100
0000
0011
0000
1001
1010
0000
,
1100
0000
0001
1000
0010
1000
0100
0010
,
0001
0100
0001
0010
0001
0100
0001
0010
,
0100
1000
0010
1000
0100
1000
0010
0000
,
0010
0110
0001
0001
,
0001
0000
0010
0001
0100
0001
0010
0100
,
1000
0010
1000
0100
1000
0010
1000
0100
,
0010
0001
0100
0001
0010
0001
0100
0000
,
0100
0110
0000
0000
;
