#VERSION:0.83;
#TITLE:Der Wald(kors k Remix);
#SUBTITLE:;
#ARTIST:エレハモニカ remixed by kors k;
#TITLETRANSLIT:;
#SUBTITLETRANSLIT:;
#ARTISTTRANSLIT:Eleharmonica remixed by kors k;
#GENRE:DARK OPERA REMIX;
#CREDIT:;
#MUSIC:Der Wald(kors k Remix).ogg;
#BANNER:Der Wald(kors k Remix).png;
#BACKGROUND:Der Wald(kors k Remix)-bg.png;
#CDTITLE:;
#SAMPLESTART:48.000;
#SAMPLELENGTH:15.000;
#SELECTABLE:YES;
#OFFSET:0.000;
#BPMS:0.000=170.000;
#STOPS:;
#TIMESIGNATURES:0.000=4=4;
#BGCHANGES:0.000=../BGAs/06cl.mp4=1.000=0=0=0=StretchNoLoop====,
99999.000=-nosongbg-=1.000=0=0=0=StretchNoLoop====
;
#FGCHANGES:;

//--------------- dance-single - kaystar ----------------
#NOTEDATA:;
#STEPSTYPE:dance-single;
#DESCRIPTION:kaystar;
#DIFFICULTY:Beginner;
#METER:3;
#RADARVALUES:0,0,0,0,0;
#CREDIT:kaystar;
#NOTES:
0000
0000
0000
0000
,
0000
0000
0000
0000
,
0000
0000
0000
0000
,
0000
0000
0000
0000
,
0000
0000
0000
0000
,
0000
0000
0000
0000
,
1000
0000
0000
0000
,
0000
0000
0000
0000
,
0001
0000
0000
0000
,
0000
0000
0000
0000
,
1000
0000
0000
0000
,
0100
0000
0000
0000
,
0010
0000
0000
0000
,
0001
0000
0000
0000
,
1000
0000
0000
0000
,
0010
0000
0000
0000
,
0100
0000
0000
0000
,
0001
0000
0000
0000
,
1000
0000
1000
0000
,
1000
0000
0000
0000
,
0001
0000
0001
0000
,
0001
0000
0000
0000
,
1000
0000
1000
0000
,
1000
0000
0000
0000
,
0001
0000
0001
0000
,
0001
0000
0000
0000
,
1000
0000
0100
0000
,
1000
0000
0000
0000
,
0001
0000
0100
0000
,
0001
0000
0000
0000
,
0010
0000
0010
0000
,
0010
0000
0000
0000
,
0020
0000
0000
0000
,
0030
0000
0000
0000
,
0001
0000
0100
0000
,
0010
0000
0010
0000
,
1000
0000
1000
0000
,
0100
0000
0000
0000
,
1000
0000
0100
0000
,
0010
0000
0010
0000
,
0001
0000
0001
0000
,
0100
0000
0000
0000
,
0001
0000
0010
0000
,
0100
0000
0100
0000
,
1000
0000
1000
0000
,
0010
0000
0000
0000
,
1000
0000
0010
0000
,
0100
0000
0100
0000
,
0001
0000
0010
0000
,
0100
0000
0000
0000
,
2000
0000
0000
0000
,
0000
0000
0000
0000
,
3000
0000
0000
0000
,
0000
0000
0000
0000
,
0001
0000
0001
0000
,
0001
0000
0000
0000
,
1000
0000
1000
0000
,
1000
0000
0000
0000
,
0001
0000
0010
0000
,
0001
0000
0000
0000
,
1000
0000
0010
0000
,
1000
0000
0000
0000
,
0100
0000
0100
0000
,
0100
0000
0000
0000
,
0200
0000
0000
0000
,
0300
0000
0000
0000
,
1000
0000
0010
0000
,
0100
0000
0001
0000
,
0010
0000
0010
0000
,
0100
0000
0100
0000
,
1000
0000
0010
0000
,
0001
0000
0010
0000
,
1000
0000
0010
0000
,
0001
0000
0010
0000
,
1000
0000
0100
0000
,
0010
0000
0001
0000
,
0100
0000
0100
0000
,
0010
0000
0010
0000
,
1000
0000
0100
0000
,
0001
0000
0100
0000
,
1000
0000
0100
0000
,
0001
0000
0100
0000
,
1000
1000
1000
0000
,
0001
0001
0001
0000
,
1000
1000
1000
0000
,
0001
0000
1001
0000
;

//--------------- dance-single - kaystar ----------------
#NOTEDATA:;
#STEPSTYPE:dance-single;
#DESCRIPTION:kaystar;
#DIFFICULTY:Easy;
#METER:7;
#RADARVALUES:0,0,0,0,0;
#CREDIT:kaystar;
#NOTES:
0000
0000
0000
0000
,
0000
0000
0000
0000
,
0000
0000
0000
0000
,
0000
0000
0000
0000
,
0000
0000
0000
0000
,
0000
0000
0000
0000
,
1000
0000
0010
0000
,
0100
0000
0001
0000
,
1000
0000
0100
0000
,
0010
0000
0001
0000
,
1000
0010
1000
0000
,
0010
0100
0010
0000
,
0100
0001
0100
0000
,
0001
0000
1000
0000
,
0001
0010
0001
0000
,
0010
0100
0010
0000
,
0100
1000
0100
0000
,
2000
0000
0000
0000
,
3001
0100
0001
0000
,
0010
0100
1000
0000
,
0010
1000
0010
0000
,
0100
0001
1000
0000
,
1000
0100
1000
0000
,
0010
0100
0001
0000
,
0010
0001
0010
0000
,
0100
1000
0001
0000
,
1000
0010
0100
0000
,
0010
0100
0001
0000
,
1000
0100
0010
0000
,
0100
0010
0001
0000
,
1000
1000
0010
0010
,
0100
0100
0001
0001
,
0020
0000
0000
0000
,
0130
0000
0000
0000
,
1000
0010
1000
1000
,
0001
0100
0001
0001
,
1000
0100
0001
0100
,
2000
0000
3001
0000
,
0001
0010
0001
0001
,
1000
0100
1000
1000
,
0001
0100
1000
0100
,
0002
0000
1003
0000
,
1000
0100
0001
0100
,
1000
1000
0020
0000
,
0130
0001
1000
0100
,
0010
0010
0100
1000
,
0001
0100
1000
0100
,
0001
0001
0020
0000
,
0130
1000
0001
0001
,
2002
0000
3003
0000
,
1000
0010
1000
0000
,
0010
1000
0010
0000
,
1000
0000
1000
0000
,
0200
0000
0310
0000
,
0001
0010
0001
0000
,
0010
0001
0010
0000
,
0001
0000
0001
0000
,
0100
0100
0010
0000
,
1000
0100
1000
0000
,
0001
0010
0001
0000
,
1000
0010
0100
0000
,
0100
0010
1000
0000
,
0001
0100
0001
0000
,
1000
0010
1000
0000
,
0001
0010
0100
1000
,
0020
0000
0000
0000
,
1030
0100
0001
0100
,
1000
0100
0001
0100
,
2000
0000
3001
0001
,
0100
0010
1000
1000
,
0001
0010
1000
0010
,
0001
0010
1000
0010
,
0001
0100
1000
0100
,
0001
1000
0002
0000
,
1003
0100
0001
0100
,
1000
0010
0001
0010
,
1000
0001
0010
1000
,
0010
0001
0100
0010
,
1000
1000
0100
0100
,
0010
0010
0001
0001
,
0200
0000
0320
0000
,
1030
1000
0001
0001
,
1001
0000
0110
0000
,
1001
0000
0110
0110
,
1001
0000
0110
0000
,
1001
0110
1001
0000
;

//--------------- dance-single - Extraordiberry ----------------
#NOTEDATA:;
#STEPSTYPE:dance-single;
#DESCRIPTION:Extraordiberry;
#DIFFICULTY:Medium;
#METER:12;
#RADARVALUES:0,0,0,0,0;
#CREDIT:Extraordiberry;
#NOTES:
0000
0000
0000
0000
,
0000
0000
0000
0000
,
0000
0000
0000
0000
,
0000
0000
0000
0000
,
0000
0000
0000
0000
,
0000
0000
0000
0000
,
1000
0100
0010
0000
,
0001
0100
0010
0000
,
1000
0100
0010
0001
,
1000
0000
0001
0000
0100
0010
0100
0000
,
0001
1000
0100
0010
,
0100
1000
0001
0000
,
1000
0001
0100
0010
,
0100
0001
1000
1000
,
0001
0010
0100
1000
,
0001
0010
0100
1000
,
0001
0100
0010
1000
,
0001
0001
1000
0000
,
1001
0000
0001
0100
0010
0000
1000
0100
,
0010
0001
1001
1000
,
0001
0100
0010
0100
0001
0000
1000
0100
,
0010
0000
0100
1000
0001
0000
1000
0000
,
1001
0000
0001
0100
0010
0000
1000
0100
,
0010
0001
1001
0110
,
1000
0010
0100
0010
1000
0000
0001
0010
,
0100
0000
1000
0010
0100
0000
0001
0000
,
0101
0010
1010
1000
,
1100
0100
0011
1001
,
0001
0100
0010
1000
0001
0000
1000
0000
,
1100
0001
0011
1000
,
0001
0100
0001
0100
0010
1000
0010
0000
,
0010
1000
0010
1000
0001
0100
0001
0000
,
0001
0001
0100
0100
0010
0010
1000
1000
,
0002
0000
0000
0000
,
1003
0100
1000
0100
0020
0000
0130
1000
,
0002
0000
0103
0010
2000
0000
3001
0010
,
0100
1000
0100
1000
0001
0000
0100
0010
,
1000
0100
0010
0001
,
1000
0010
0100
0010
2000
0000
0010
0000
,
3001
0000
1000
0100
0010
0001
1000
0000
,
0002
0010
1003
0001
,
0100
0010
1000
0001
1000
0000
1001
0000
,
0001
0010
0001
0010
0200
0000
0310
0001
,
2000
0000
3010
0100
0002
0000
1003
0100
,
0010
0001
0010
0001
1000
0000
0010
0100
,
0001
0010
0100
1001
,
0001
0100
0010
1000
0001
1000
0100
0000
,
1000
0100
0010
0001
1000
0001
0100
0000
,
0002
0203
2300
3200
,
0302
1000
1000
1003
,
2002
0000
0000
0000
,
0000
0000
3003
0000
,
1000
0000
0100
0010
0001
0000
0100
0000
,
0001
1000
0100
0010
0100
0000
1000
0000
,
0001
0000
0100
0010
1000
0000
0100
0010
,
0000
0100
1000
0001
0100
0000
0010
0000
,
2000
0010
0100
3010
,
1000
1000
0100
0010
0001
1000
0001
0000
,
1000
0000
0010
0100
0001
0000
0010
0100
,
0000
0010
0001
1000
0010
0000
0100
0000
,
0002
0023
0230
2300
,
3020
0230
0302
1003
,
0220
0330
2001
0000
,
3001
1000
0100
0010
0001
0000
1000
0000
,
0001
0001
1000
1000
0001
0100
0010
1000
,
0002
0203
2300
3200
,
0301
1000
0100
0010
0001
0010
0100
1000
,
0001
0100
0110
0010
,
1000
0100
0010
0001
1000
0000
0001
0000
,
0100
0010
1000
0000
0100
0010
0001
0000
,
1000
0001
0100
0010
1000
0001
0100
0010
,
1000
0001
0010
0100
1000
0001
0010
0100
,
2000
3001
0200
0310
,
1000
0000
0000
0000
1000
0000
0000
0000
0001
0000
0000
0001
1000
0000
0000
0000
,
0001
0100
0010
1000
0001
0100
0010
1000
,
0001
1000
0100
0010
0001
1000
0100
0010
,
0001
1000
0010
0100
0001
1000
0010
0100
,
0001
0001
1000
1000
,
0001
0010
0001
0010
0100
1000
0100
1000
,
0001
0100
0001
0100
0010
1000
0010
1000
,
0001
0010
1000
0010
0001
0010
1000
0010
,
0001
0001
1000
1000
0010
0010
0100
0000
,
1001
0100
0110
0010
,
1001
0100
1001
0110
,
1001
0100
0110
0010
,
1001
0000
1000
0001
1001
0000
0000
0000
;

//--------------- dance-single - kay+Extra ----------------
#NOTEDATA:;
#STEPSTYPE:dance-single;
#DESCRIPTION:kay+Extra;
#DIFFICULTY:Hard;
#METER:15;
#RADARVALUES:0,0,0,0,0;
#CREDIT:kay+Extra;
#NOTES:
0000
0000
0000
0000
,
0000
0000
0000
0000
,
0000
0000
0000
0000
,
0000
0000
0000
0000
,
0000
0000
0000
0000
,
0000
0000
0000
0000
,
0001
0100
0010
1000
,
0001
1000
0010
0100
,
0001
1000
0100
0010
,
0001
0000
0000
0000
1000
0000
0000
0000
0100
0000
1000
0100
1000
0000
1000
0000
,
0001
0000
1000
0010
0100
0001
1000
0000
,
1000
0001
0100
0010
1000
0000
0001
0000
,
1000
0000
0001
0010
0100
1000
0001
0000
,
0001
0000
1000
0000
0100
0000
0010
0000
0001
0000
0001
0010
0001
0000
1000
0000
,
0001
0000
0001
0100
0010
0100
1000
0000
,
1000
0100
0010
0100
0001
0000
1000
0000
,
0001
0000
1000
0100
0010
0100
0001
0000
,
0001
0100
0010
0100
2000
0000
3000
0000
,
1001
0000
0001
0100
0110
0000
1000
0100
,
0120
0032
0203
0310
,
1000
0100
0010
0001
0102
0000
1003
0100
,
2100
0000
3001
0100
0020
0000
1030
0000
,
1001
0000
1000
0100
0110
0000
0001
0100
,
0120
2030
3200
0310
,
0001
0100
0010
1000
2100
0000
3001
0100
,
0102
0000
1003
0100
0120
0000
0031
0000
,
1000
0010
0100
0010
1000
0100
0010
0100
,
1000
0001
0100
0010
0120
0000
1030
0000
,
0001
0010
0100
0010
0001
0100
0010
0100
,
0001
1000
0100
0010
0120
0000
0031
0000
,
1000
1000
0010
0010
0100
0100
0001
0001
,
0010
0010
0100
0100
1000
1000
0001
0001
,
1000
0010
1000
0000
0010
0100
0010
0000
0100
0001
0100
0000
0001
1000
0001
1000
,
0002
0000
0000
0000
,
1003
0100
0010
0100
1000
0001
0100
0010
,
2010
0000
3100
0010
0012
0000
1003
1000
,
0001
0100
0010
0100
0001
1000
0100
0010
,
0012
0103
2010
3100
,
1000
0100
1000
0000
0100
0000
0010
0000
0001
0010
0001
0000
0010
0000
0100
0000
,
1000
0001
0100
0010
1000
0100
2100
0000
,
3001
0100
0001
0000
0100
0000
0010
0000
1000
0010
1000
0000
0010
0000
1000
0000
,
0001
0010
0100
1000
0010
0000
1001
0000
,
1000
0010
0100
0000
0001
0000
0010
0000
0100
0000
0010
0000
0001
0000
1000
0000
,
1020
0000
0130
0001
0021
0000
0130
1000
,
0001
0100
0010
0000
1000
0000
0100
0000
0010
0000
0100
0000
1000
0000
0001
0000
,
0201
0310
1200
0310
,
0001
0100
0010
0000
1000
0000
0001
0000
1000
0100
0010
0000
0001
0000
1000
0000
,
0010
0100
0010
0001
0010
1000
0002
0000
,
1003
0100
1000
0000
0001
0010
0001
0000
1000
0010
1000
0000
0001
0000
0010
0000
,
0012
0010
1000
0103
,
0101
0000
0001
0100
0010
0000
2000
0000
,
0000
0000
3100
0010
0100
1000
0001
0000
0000
1000
0000
0000
,
0010
0000
0100
0001
1000
0000
0100
0000
,
0010
0001
0100
0100
,
0001
0000
1000
0100
0010
0000
0002
0000
,
0000
0000
0103
0010
0100
0001
1000
0000
0000
0001
0000
0000
,
1000
0200
0001
0000
1300
0200
0001
0000
,
1300
0000
1000
0100
1000
0000
0001
0000
0100
0000
1000
0000
0100
0000
0001
0000
,
1000
0000
1000
0100
0010
0000
0011
0000
,
0001
1000
0001
1000
0010
1000
0010
0100
0001
1000
0000
0000
,
0002
0010
2003
0010
,
3002
0023
0230
0302
,
2003
3000
0220
0330
,
1000
0001
1000
0001
0010
0001
0010
0100
1000
0001
0000
0000
,
1000
0010
1000
0010
0001
0010
0100
0010
,
2010
0010
0001
3100
,
1000
0000
0100
0010
0000
0001
0010
0000
0001
1000
0000
0001
0100
0000
0010
1000
,
0010
0000
1000
0001
0000
1000
0100
0000
0010
0001
0000
1000
0010
0000
0100
0000
,
0002
0000
0000
0023
0000
0000
2030
0000
0000
3020
0000
0000
0031
0000
1000
0000
,
0001
0001
0100
0100
0010
1000
1001
0000
,
1000
0100
0010
0000
0001
0010
0100
0000
1000
0100
0010
0000
0001
0000
1000
0000
,
0001
0100
0010
0000
1000
0010
0100
0000
0001
0100
0010
0000
1000
0000
0001
0000
,
1000
0100
0001
1000
0010
0001
1001
0000
,
0001
0000
0100
0010
0000
0000
1000
0000
0100
0010
0000
0001
1000
0000
1000
0000
,
0001
0000
1000
0100
0000
1000
0010
0000
0100
0001
0000
0010
0001
0000
1000
0001
,
1000
0000
0001
0100
0000
0001
0010
0000
0100
1000
0000
0010
1000
0000
0001
1000
,
0001
0000
0010
0100
0000
0010
1000
0000
0010
0100
0000
0010
0001
0000
1000
0000
,
0002
0203
2300
3002
0023
2030
3001
1000
,
0001
0001
0010
0010
0100
0100
1000
1000
,
0001
0001
0100
0100
0010
0010
1000
1000
,
0001
0010
0100
0000
1000
0100
0010
0000
0001
0010
0100
0000
1000
0001
1000
0000
,
0001
0100
0010
0000
1000
0010
0100
0000
0001
0010
0100
1000
0100
0010
0001
0000
,
1001
0000
1000
0010
0210
0000
0301
0010
,
0210
0000
1300
0001
1001
0000
0110
0000
,
1001
0000
0001
0100
0120
0000
1030
0100
,
0120
0000
0031
1000
1001
0000
0000
0000
;

//--------------- dance-double - kaystar ----------------
#NOTEDATA:;
#STEPSTYPE:dance-double;
#DESCRIPTION:kaystar;
#DIFFICULTY:Easy;
#METER:7;
#RADARVALUES:0,0,0,0,0;
#CREDIT:kaystar;
#NOTES:
00000000
00000000
00000000
00000000
,
00000000
00000000
00000000
00000000
,
00000000
00000000
00000000
00000000
,
00000000
00000000
00000000
00000000
,
00000000
00000000
00000000
00000000
,
00000000
00000000
00000000
00000000
,
10000000
00000000
01000000
00000000
,
00100000
00000000
00010000
00000000
,
01000000
00000000
00100000
00000000
,
00010000
00000000
00001000
00000000
,
00100000
00000000
00010000
00000000
,
00001000
00000000
00000100
00000000
,
00010000
00000000
00001000
00000000
,
00000100
00000000
00000010
00000000
,
00001000
00000000
00000100
00000000
,
00000010
00000000
00000001
00000000
,
00000200
00000000
00000000
00000000
,
00000000
00000000
00000000
00000000
,
00001300
00010000
00001000
00010000
,
00000010
00000000
00000010
00000000
,
00010000
00001000
00010000
00001000
,
01000000
00000000
01000000
00000000
,
00001000
00010000
00001000
00010000
,
00000100
00000000
00000100
00000000
,
00010000
00001000
00010000
00001000
,
00100000
00000000
00100000
00000000
,
00010000
10000000
00100000
00000000
,
01000000
00010000
10000000
00000000
,
01000000
00100000
00010000
00000000
,
00100000
00001000
00010000
00000000
,
00000100
00000100
00001000
00001000
,
00000001
00000001
00000100
00000100
,
00002000
00000000
00000000
00000000
,
00013000
00000000
00000000
00000000
,
00001000
01000000
00010000
00010000
,
10000000
01000000
00020000
00000000
,
01030000
10000000
00010000
00010000
,
02000000
00000000
03001000
00000000
,
00010000
00000100
00001000
00001000
,
00000001
00000100
00002000
00000000
,
00003100
00000001
00001000
00001000
,
00000200
00000000
00010300
00000000
,
00001000
01000000
00010000
01000000
,
00100000
00100000
20000000
00000000
,
31000000
00100000
00001000
00010000
,
00100000
00010000
00002000
00000000
,
00013000
00000100
00001000
00000100
,
00000010
00000010
00000002
00000000
,
00001003
00000010
00000100
00001000
,
00022000
00000000
00033000
00000000
,
00010000
00000000
00100000
00000000
,
10000000
00000000
01000000
00000000
,
00010000
00001000
00010000
00000000
,
00002000
00000000
00013000
00000000
,
00001000
00000000
00000010
00000000
,
00000001
00000000
00000100
00000000
,
00001000
00001000
00010000
00010000
,
00002000
00000000
00013000
00000000
,
00001000
01000000
00010000
00000000
,
00100000
00001000
00010000
00000000
,
00001000
01000000
00010000
00000000
,
10000000
01000000
00010000
00010000
,
00002000
00000000
00013000
00000000
,
00000010
00010000
00001000
00000000
,
00010000
00000100
00001000
00000000
,
00002002
00000000
00003003
00000000
,
00000001
00000100
00001000
00000100
,
00000001
00000100
00001000
00000100
,
00000002
00000000
00001003
00000010
,
00010000
00001000
01000000
00010000
,
10000000
01000000
00010000
01000000
,
10000000
01000000
00010000
01000000
,
10000000
00100000
00010000
00100000
,
10000000
00100000
02000000
00000000
,
03001000
00010000
01000000
00010000
,
00001000
00010000
00100000
00010000
,
00001000
00000010
00001000
00010000
,
00001000
00000100
00000001
00001000
,
00000001
00000001
00001000
00001000
,
00000010
00000010
00010000
00010000
,
00002000
00000000
02003000
00000000
,
03010000
00100000
01000000
10000000
,
10010000
00000000
01100000
00000000
,
10010000
00000000
00011000
00011000
,
00011000
00000000
00001001
00000000
,
00001001
00000110
00001001
00000000
;

//--------------- dance-double - Extraordiberry ----------------
#NOTEDATA:;
#STEPSTYPE:dance-double;
#DESCRIPTION:Extraordiberry;
#DIFFICULTY:Medium;
#METER:12;
#RADARVALUES:0,0,0,0,0;
#CREDIT:Extraordiberry;
#NOTES:
00000000
00000000
00000000
00000000
,
00000000
00000000
00000000
00000000
,
00000000
00000000
00000000
00000000
,
00000000
00000000
00000000
00000000
,
00000000
00000000
00000000
00000000
,
00000000
00000000
00000000
00000000
,
00010000
00001000
01000000
00010000
,
10000000
01000000
00100000
00000000
,
00001000
00010000
00000100
00001000
,
00000001
00000000
00000100
00000000
00000010
00001000
00000010
00000000
,
00010000
00001000
00100000
00010000
,
10000000
00100000
01000000
00000000
,
00001000
00010000
00000010
00001000
,
00000001
00000010
00000100
00000100
,
00010000
00001000
00010000
00100000
,
10000000
00010000
10000000
00000000
,
01000000
00010000
00001000
00000010
,
00000001
00001000
00000010
00000000
,
00011000
00001000
00011000
00010000
,
00002000
02003000
03020000
10030000
,
10010000
00010000
10010000
10000000
,
02000000
03200000
00302000
00013000
,
00011000
00000010
00001001
00001000
,
00000020
00020030
00032000
00013000
,
00011000
00100000
10010000
00010000
,
00200000
00000000
00301000
00010000
00001000
00000000
00010000
00000000
,
00011000
00001100
00000110
00000010
,
00000001
00001000
00000010
00010000
,
00011000
01010000
01100000
00100000
,
10000000
00010000
10000000
00010000
00100000
00000000
00001000
00000000
,
00010000
00001000
00010000
00001000
00000010
00001000
00000010
00000000
,
00000001
00000100
00000001
00000100
00001000
00000100
00001000
00000000
,
00010000
00010000
00001000
00001000
00010000
00010000
00001000
00001000
,
00022000
00000000
00000000
00033000
,
00001000
00010000
00001000
00010000
00001000
00000000
01000000
00010000
,
10000000
00000000
01000000
00100000
00010000
00100000
00010000
00100000
,
00001000
00010000
00001000
00000010
,
00000011
00000001
00001001
00001000
,
00000001
00000100
00000001
00000100
00000020
00000000
00000100
00000000
,
00001000
00010030
00001000
00011000
,
00010000
00100000
00010000
00100000
20000000
00000000
00100000
00000000
,
00010000
31000000
00100000
00011000
,
00010000
00001000
00010000
00001000
00010000
00000000
00000100
00001000
,
00000001
00000000
00000100
00000010
00001000
00000010
00001000
00000010
,
00010000
00001000
00010000
00100000
,
10100000
10000000
10010000
00010000
,
10000000
01000000
10000000
01000000
00010000
01000000
00010000
00001000
,
00010000
00001000
00011000
00010000
,
00002000
00003020
00000032
00000203
,
00002300
00000100
00010000
00013000
,
00022000
00000000
00000000
00000000
,
00000000
00000000
00033000
00000000
,
00001000
01000000
00010000
10000000
,
01000000
00100000
00001000
00000000
,
00010000
00000000
00000000
00000100
00000000
00001000
00000100
00000000
00000000
00000010
00000000
00000000
,
00000000
00000000
00000001
00000100
00000000
00000000
00000010
00000000
00000000
00010000
00000000
00000000
,
00011000
00000010
00011000
00100000
,
00001000
00010000
00001000
01000000
00010000
00000000
10010000
00000000
,
10000000
00000000
00000000
00010000
00000000
10000000
00010000
00000000
00000000
00100000
00000000
00000000
,
00000000
00000000
00001000
00010000
00000000
00000000
00000100
00000000
00000000
00001000
00000000
00000000
,
00000001
00000000
00001000
00000001
00000200
00000000
00002300
00000000
,
00023000
00032000
00003020
00000031
,
00002002
00003003
00000220
00000330
,
00000001
00000000
00001000
00000010
00000000
00010000
00001000
00000000
00000000
00011000
00000000
00000000
,
00010000
00010000
00001000
00001000
00100000
00010000
00100000
00001000
,
00020000
00100000
00001000
00031000
,
00010000
00001000
00010000
00001000
00000010
00001000
00000010
00000001
,
00001000
00000001
00000100
00000010
,
00001010
00000100
00000101
00000001
,
00000100
00001000
00000100
00001000
00010000
00001000
00010000
00100000
,
10000000
00010000
10000000
00010000
00100000
01000000
00100000
00000000
,
01000000
00010000
01000000
00010000
00001000
00010000
00001000
00000000
,
01000000
00000000
00010000
00000000
01010000
00000000
10000000
00010000
,
00100000
00000000
00000000
00000000
01000000
00000000
00000000
00000000
11000000
00000000
00000000
10000000
01000000
00000000
00000000
00000000
,
10000000
01000000
10000000
01000000
00010000
01000000
00010000
01000000
,
00010000
00001000
00010000
00001000
00000010
00001000
00000010
00000001
,
00001000
00000001
00000101
00001000
,
00000010
00010000
00011000
00011000
,
00001000
00010000
00001000
00010000
01000000
00010000
01000000
00010000
,
01000000
10000000
01000000
10000000
00010000
01000000
00010000
01000000
,
00100000
00010000
00100000
00010000
00001000
00010000
00001000
00010000
,
00001000
00001000
00010000
00010000
00001000
00001000
00010000
00000000
,
00011000
00001000
00000110
00001000
,
00011000
00010000
01100000
10010000
,
00011000
00001000
00000110
00000001
,
00001001
00001000
00100010
00000000
;

//--------------- dance-double - kay+Extra ----------------
#NOTEDATA:;
#STEPSTYPE:dance-double;
#DESCRIPTION:kay+Extra;
#DIFFICULTY:Hard;
#METER:15;
#RADARVALUES:0,0,0,0,0;
#CREDIT:kay+Extra;
#NOTES:
00000000
00000000
00000000
00000000
,
00000000
00000000
00000000
00000000
,
00000000
00000000
00000000
00000000
,
00000000
00000000
00000000
00000000
,
00000000
00000000
00000000
00000000
,
00000000
00000000
00000000
00000000
,
00001000
00010000
00100000
10000000
,
00010000
10000000
00100000
00100000
,
00010000
00001000
00000010
00000001
,
00001000
00000000
00000000
00000000
00000001
00000000
00000000
00000000
00000010
00000000
00000100
00001000
00000100
00000000
00010000
00000000
,
00001000
00000000
00010000
00100000
01000000
00100000
10000000
00000000
,
10000000
00010000
01000000
00100000
10000000
00000000
01000000
00000000
,
00010000
00000000
00001000
00000010
00000100
00000010
00000001
00000000
,
00000001
00000000
00001000
00000000
00000100
00000000
00000010
00000000
00000001
00000000
00001000
00000010
00001000
00000000
00000010
00000000
,
00010000
00000000
00001000
00010000
00100000
10000000
00010000
00000000
,
00010000
01000000
00100000
10000000
00010000
00000000
00100000
00000000
,
00001000
00000000
00010000
00001000
00000010
00000001
00001000
00000000
,
00001000
00000001
00000100
00000010
00000200
00000000
00001300
00000000
,
00011000
00000000
00010000
00100000
01100000
00000000
10000000
00000000
,
20010000
32000000
03020000
00031000
,
00010000
00001000
00000010
00000001
00001001
00000000
00001000
00000010
,
00000120
00000000
00000130
00001000
00020000
00000000
00031000
00000000
,
00011000
00000000
00010000
01000000
01100000
00000000
10000000
00010000
,
20010000
30200000
00320000
00031000
,
00010000
00001000
00000100
00000001
00001001
00000000
00001000
00000100
,
00000210
00000000
00000310
00001000
00020000
00000000
00031000
00000000
,
00011000
01010000
10100000
11000000
,
00110000
00011000
00001100
00000011
,
00000001
00000100
00000010
00001000
00010000
01000000
00100000
00000000
,
10000000
01000000
00100000
00010000
00001000
00000100
00000010
00000000
,
00000001
00000001
00000100
00000100
00001000
00001000
00010000
00010000
,
00100000
00100000
10000000
10000000
00010000
00100000
00001000
00010000
,
00001000
00010000
00001000
00000000
00000010
00001000
00000010
00000000
00000001
00000010
00000001
00000000
00001000
00000001
00001000
00000001
,
00000200
00000000
00000000
00000000
,
00001300
00010000
00100000
01000000
00100000
00010000
00001000
01000000
,
01020000
00000000
00000000
00000000
00130000
00000000
01000000
00000000
21000000
00000000
00000000
00000000
30100000
01000000
00100000
00000000
,
00010000
00001000
00000010
00000100
00000010
00001000
00010000
00000100
,
00002100
00003010
00000102
00000013
,
00000001
00000100
00001000
00010000
00000010
00001000
00010000
01000000
,
00001000
00010000
00100000
10000000
00010000
01000000
01020000
00000000
,
10030000
01000000
00010000
00001000
00100000
00010000
00001000
00000100
,
00010000
00001000
00000010
00000001
00001000
00000100
00001200
00000000
,
00010300
00001000
00000100
00000001
00000100
00001000
00010000
00000010
,
00002010
00000000
00000000
00000000
00003100
00000000
00000010
00000000
00000012
00000000
00000000
00000000
00000103
00000010
00000100
00000000
,
00001000
00010000
01000000
10000000
01000000
00010000
00001000
00100000
,
00120000
01030000
20100000
31000000
,
10000000
01000000
10000000
00000000
01000000
00000000
00010000
00000000
00001000
00010000
00001000
00000000
00000100
00000000
00000001
00000000
,
00001000
00000001
00000010
00001000
00010000
00000000
00011000
00000000
,
00001000
00010000
00001000
00000000
00010000
00100000
00010000
00000000
00100000
10000000
00100000
00000000
10000000
00000000
01000000
00000000
,
12000000
03010000
00011000
00011000
,
00012000
00000000
00100000
00000000
,
00003010
00000000
00000001
00000000
00001000
00000000
00000010
00000000
00000000
00000100
00000000
00000000
,
00000001
00000000
00001000
00000100
00000010
00000000
00000001
00000000
,
00001000
00000000
00001000
00000100
00010000
00000100
00010000
00000000
,
00021000
00000000
00000010
00000000
,
00130000
00000000
10000000
00000000
00010000
00000000
00100000
00000000
00000000
00010000
00000000
00000000
,
00120000
00001000
00100000
00031000
,
00001000
00000000
00000100
00001000
00000100
00000000
00000010
00000000
00000001
00000000
00001000
00000000
00000010
00000000
00010000
00000000
,
00021000
00000000
00000010
00000000
,
00130000
00000000
10000000
00010000
10000000
01000000
00100000
00010000
00100000
00001000
00000000
00000000
,
00012000
01000000
00023000
01000000
,
00032000
00003200
00000302
00000023
,
00002030
00003000
00000220
00000330
,
00001000
00000000
00000001
00001000
00000001
00000100
00000010
00001000
00000010
00010000
00000000
00000000
,
00001000
00001000
01000000
01000000
00010000
10000000
01000000
00010000
,
00002000
00013000
00011000
00011000
,
00001000
00000000
00010000
00000100
00000000
00001000
00000100
00000000
00000010
00000100
00000000
00000010
00000001
00000000
00001000
00000000
,
00000001
00000000
00000100
00000010
00000000
00000100
00001000
00000000
00010000
00001000
00000000
00010000
00100000
00000000
01000000
00000000
,
00010000
00000000
10000000
01000000
00000000
00100000
00010000
00000000
00002000
00000100
00000000
00000000
00013000
00000000
00100000
00000000
,
00002000
00000000
00013000
00100000
00010000
00001000
00011000
00000000
,
00010000
00001000
00010000
00000000
00001000
00000010
00001000
00000000
00000010
00000001
00000010
00000000
00000001
00000000
00001000
00000000
,
00000001
00000100
00000001
00000000
00000100
00001000
00000100
00000000
00001000
00010000
00001000
00000000
00010000
00000000
00001000
00000000
,
00100000
00010000
00001000
00010000
00100000
01000000
00100000
00010000
,
10000000
00000000
00100000
01000000
00000000
00000000
00001000
00000000
00010000
00001000
00000000
00000000
00012000
00000000
00000000
00000000
,
00013000
00000000
00001000
00100000
00000000
00010000
00100000
00000000
01000000
00100000
00000000
01000000
10000000
00000000
00010000
00000000
,
10000000
00000000
00100000
01000000
00000000
00100000
00010000
00000000
00001000
00010000
00000000
00001000
00000100
00000000
00000100
00000000
,
00000001
00000010
00001000
00010000
00000100
00001000
00010000
00100000
,
00001000
00000000
00010000
00000000
01000000
00000000
10000000
00000000
00010000
01000000
00010000
00000000
10000000
00100000
10000000
00000000
,
00010000
00010000
10000000
10000000
00100000
00100000
00010000
00010000
,
00001000
00001000
00000100
00000100
00000001
00000001
00001000
00001000
,
00000001
00000010
00000001
00000000
00000010
00001000
00000010
00000000
00001000
00010000
00001000
00000000
00010000
01000000
00010000
00000000
,
01000000
00000000
10000000
00000000
00010000
00000000
00100000
00000000
00001000
00010000
00001000
00010000
00001000
00010000
00001000
00000000
,
00011000
00000000
00010000
00001000
00011000
00000000
00001000
00010000
,
00011000
00000000
00001000
00000010
00000110
00000000
00001001
00000000
,
00011000
00000000
00010000
00001000
00011000
00000000
00001000
00010000
,
00011000
00000000
00010000
00100000
10010000
00000000
00000000
00000000
;
