#VERSION:0.83;
#TITLE:Demon March;
#SUBTITLE:;
#ARTIST:Nhato;
#TITLETRANSLIT:;
#SUBTITLETRANSLIT:;
#ARTISTTRANSLIT:;
#GENRE:CINEMATIC BREAKCORE;
#CREDIT:;
#MUSIC:Demon March.ogg;
#BANNER:Demon March.png;
#BACKGROUND:Demon March-bg.png;
#CDTITLE:./CDTitles/bm IIDX 31 EPOLIS.png;
#SAMPLESTART:34.131;
#SAMPLELENGTH:15.000;
#SELECTABLE:YES;
#OFFSET:1.379;
#BPMS:0.000=174.000
,143.500=348.000
,144.000=174.000
;
#STOPS:143.500=0.086;
#TIMESIGNATURES:0.000=4=4;
#DISPLAYBPM:174.000;
#BGCHANGES:4.000=Demon March.mp4=1.000=0=0=0=StretchNoLoop====,
99999.000=-nosongbg-=1.000=0=0=0=StretchNoLoop====
;
#FGCHANGES:;

//--------------- dance-single - Queen Extra + Empress Pamela ----------------
#NOTEDATA:;
#STEPSTYPE:dance-single;
#DESCRIPTION:Queen Extra + Empress Pamela;
#DIFFICULTY:Beginner;
#METER:5;
#RADARVALUES:0,0,0,0,0;
#CREDIT:Queen Extra + Empress Pamela;
#NOTES:
0000
0000
0000
0000
,
0000
0000
0000
0000
,
0000
0000
0000
0000
,
0000
0000
0000
0000
,
0000
0000
0000
0000
,
0000
0000
0000
0000
,
1000
0000
0000
0000
,
0001
0000
0000
0000
,
1000
0000
0000
0000
,
1001
0000
0000
0000
,
0001
0000
0100
0000
,
0001
0000
0000
0000
,
1000
0000
0010
0000
,
1000
0000
0000
0000
,
0001
0000
0010
0000
,
0001
0000
0000
0000
,
1000
0000
0100
0000
,
0010
0000
0001
0001
,
0002
0000
0000
0000
,
0000
0000
0003
0000
,
0200
0000
0000
0000
,
0000
0000
0300
0000
,
0020
0000
0000
0000
,
0000
0000
0030
0000
,
1000
0000
0001
0000
,
0010
0010
0010
0000
,
0001
0000
0100
0000
,
0010
0000
0000
0000
,
1000
0000
0100
0000
,
0010
0000
0000
0000
,
0001
0000
0100
0000
,
0010
0000
1000
0000
,
0001
0000
0000
0000
,
1000
1000
1000
1000
,
0001
0000
0000
0000
,
0000
0000
0000
0000
,
1000
0000
0000
0000
,
0100
0000
0000
0000
,
0010
0000
0001
0000
,
1000
0000
0000
0000
,
0001
0000
0000
0000
,
0100
0000
0000
0000
,
0010
0000
1000
0000
,
0001
0000
0001
0000
,
1000
0000
0000
0000
,
0000
0000
0000
0000
,
0001
0000
0100
0000
,
0010
0000
0000
0000
,
1000
0000
0100
0000
,
0010
0000
0001
0000
,
0100
0000
1000
0000
,
0100
0000
0000
0000
,
0002
0000
0000
0000
,
0000
0000
0003
0000
,
2000
0000
0000
0000
,
0000
0000
3000
0000
,
0200
0000
0000
0000
,
0000
0000
0300
0000
,
0010
0000
0001
0000
,
1000
0001
1000
0000
,
0001
0000
0000
0000
,
0100
0000
0000
0000
,
1000
0000
0000
0000
,
0100
0000
0000
0000
,
0001
0000
0000
0000
,
1000
1000
1000
0000
,
0100
0000
0010
0000
,
0001
0001
0001
0000
,
1000
0000
0000
0000
,
0010
0000
0000
0000
,
0001
0000
0000
0000
,
0010
0000
0000
0000
,
1000
0000
0000
0000
,
0001
0000
0000
0000
,
1000
0000
0001
0001
,
0001
0001
0001
0001
,
1000
0000
0000
0000
,
0000
0000
0000
0000
,
0001
0000
0100
0000
,
0010
0000
0000
0000
,
1000
0000
0100
0000
,
0010
0000
0001
0000
,
0100
0000
1000
0000
,
0100
0000
0001
0000
,
2000
0000
0000
0000
,
0000
0000
0000
0000
,
3000
0000
0000
0000
;

//--------------- dance-single - Queen Extra + Empress Pamela ----------------
#NOTEDATA:;
#STEPSTYPE:dance-single;
#DESCRIPTION:Queen Extra + Empress Pamela;
#DIFFICULTY:Easy;
#METER:9;
#RADARVALUES:0,0,0,0,0;
#CREDIT:Queen Extra + Empress Pamela;
#NOTES:
0000
0000
0000
0000
,
0000
0000
0000
0000
,
0000
0000
0000
0000
,
0000
0000
0000
0000
,
0000
0000
0000
0000
,
0000
0000
0000
0000
,
2000
0000
0000
3000
,
0002
0000
0000
0003
,
2000
0000
0000
3000
,
1001
0000
0001
1000
0000
0001
1000
0000
,
0001
0000
0100
0000
0010
0100
0010
0000
,
1000
0000
0001
0000
0010
0100
0010
0000
,
0001
0000
1000
0000
0010
0100
0010
0000
,
0100
0001
1001
1000
,
0001
0000
0010
0000
0100
0010
0001
0000
,
0100
0000
0010
0000
0100
0010
1000
0000
,
0001
0000
1000
0000
0100
0010
0001
0000
,
1000
0000
0001
0000
0100
0010
0100
0000
,
2002
0000
0000
0000
,
0000
3003
1000
0100
,
0220
0000
0000
0000
,
0000
0330
0010
0001
,
2200
0000
0000
0000
,
3300
0000
0000
0000
0002
0000
0000
0003
,
2000
0000
0000
0000
0000
0000
0000
3000
,
0001
0000
1000
0000
1001
0000
0001
1000
,
0001
1000
0100
0001
,
0100
0000
1000
0000
0001
0000
1000
0001
,
1000
0001
0100
1000
,
0100
0000
0001
0000
1000
0000
0100
0010
,
0001
0010
1000
0010
,
0001
0100
0010
0010
,
1000
0001
1000
0000
0001
1000
0001
0000
,
0100
0010
0100
0010
0100
0000
0001
0000
,
2000
0000
0000
0000
,
0000
0000
0000
3000
,
0001
0000
1000
0000
0001
0100
0010
0000
,
1000
0000
0010
0100
0001
0000
1000
0000
,
0100
0000
0010
0100
0010
0100
2000
0000
,
0000
0000
3001
0000
,
1000
0000
0001
0000
1000
0010
0100
0000
,
0001
0000
0100
0010
1000
0000
0001
0000
,
1000
0000
0100
0010
0000
0001
1000
0000
,
0010
0100
0000
0000
0110
0000
1001
0000
,
0002
0000
0000
0000
,
0000
0000
0000
0003
,
1000
0000
0001
0010
0000
0100
1000
0000
,
0001
1000
0000
0010
0100
0000
0001
0000
,
1000
0000
0001
0010
0100
0000
1000
0000
,
0010
0100
0001
0000
1000
0001
1000
0000
,
1001
0000
0000
0110
0000
0000
1001
0000
,
0000
0220
0000
0000
0000
0000
0330
0000
,
2000
0000
0000
0000
,
0000
0000
0000
3000
,
0002
0000
0000
0000
,
1000
0000
1003
0000
0001
1000
0001
0000
,
1000
0010
0001
0010
,
1000
0100
0010
0010
,
0001
1000
0001
0000
1000
0001
1000
0000
,
0100
0010
0100
0010
0200
0000
0000
0300
,
1000
0000
0000
0001
0000
0000
1000
0000
0000
0001
0000
0000
0100
0000
0000
0000
,
0001
0000
0000
1000
0000
0000
0001
0000
0000
1000
0000
0000
0100
0000
0000
0000
,
1000
0000
0000
0001
0000
0000
1000
0000
0000
0001
0000
0000
0100
0000
0000
0000
,
0010
0000
0000
0100
0000
0000
0000
0000
0010
0000
0000
0000
1000
0000
0000
0000
,
2001
0000
0000
3000
0001
1000
0001
0000
,
0010
0000
0100
0000
1000
0001
1000
0000
,
0002
0000
0000
0003
1000
0001
1000
0000
,
0100
0000
0010
0000
0001
1000
0001
0000
,
1000
0000
0000
0010
0000
0000
0200
0000
0000
0000
0300
0000
0001
0000
0000
0000
,
0001
0000
0000
0010
0000
0000
0200
0000
0000
0000
0300
0000
1000
0000
0000
0000
,
1000
0000
0000
0010
0000
0000
0200
0000
0000
0000
0300
0000
0001
0000
0000
0000
,
0001
0000
0000
0010
0000
0000
0000
0000
0110
0000
0000
0000
1001
0000
0000
0000
,
0001
0000
0000
0100
0000
0000
0010
0000
0000
1000
0000
0000
0001
0000
0000
0000
,
1000
0000
0000
0100
0000
0000
0010
0000
0000
0001
0000
0000
1000
0000
0000
0000
,
0001
0000
2000
3000
0020
0030
0200
0300
,
0002
0003
2000
3000
0200
0300
0010
0000
,
1001
0000
0000
0110
0000
0000
1001
0000
,
0000
0110
0000
0000
1001
0000
0000
0000
,
0001
0000
1000
0001
1000
0001
1000
0000
,
0010
0010
0100
0000
,
0001
0000
1000
0100
1000
0100
1000
0000
,
0001
0100
0001
0100
0001
0000
1000
0000
,
0001
0000
0010
1000
0000
0010
0001
0000
,
0100
1000
0000
0000
0200
0000
0000
0000
,
0302
0000
0003
0020
0000
0030
0200
0000
,
0300
2000
0000
0000
0000
0000
0000
0000
,
3000
0000
0000
0000
;

//--------------- dance-single - Queen Extra + Empress Pamela ----------------
#NOTEDATA:;
#STEPSTYPE:dance-single;
#DESCRIPTION:Queen Extra + Empress Pamela;
#DIFFICULTY:Medium;
#METER:14;
#RADARVALUES:0,0,0,0,0;
#CREDIT:Queen Extra + Empress Pamela;
#NOTES:
0000
0000
0000
0000
,
0000
0000
0000
0000
,
0000
0000
0000
0000
,
0000
0000
0000
0000
,
0000
0000
0000
0000
,
0000
0000
0000
0000
,
0002
0000
0000
0003
,
0200
0000
0000
0300
,
0020
0000
0000
0030
,
2000
0000
3001
0020
0000
0130
2000
0000
,
3010
0000
1001
0000
0001
0100
1000
0000
,
0100
0001
1000
0010
1000
0001
0100
0000
,
0010
0000
1001
0000
1000
0100
0001
0000
,
0100
1000
0001
0010
0001
1000
0100
0000
,
0010
0000
1001
0000
1000
0010
0001
0000
,
0010
1000
0001
0010
0001
1000
0010
0000
,
0100
0000
1001
0000
0001
0010
0100
0000
,
1100
0000
0000
0000
0011
0000
0000
0000
0001
1000
0001
1000
0001
0000
0000
0000
,
0200
0000
0000
0000
0000
0300
0010
1000
0020
0000
0000
0000
0000
0000
0000
0000
,
1000
0000
1030
0000
0002
0000
0013
0100
,
2000
0000
0000
0000
0000
3000
0001
0100
0002
0000
0000
0000
0000
0000
0000
0000
,
0010
0013
2002
3003
,
2000
0000
0000
0000
0000
3000
0010
0100
0020
0000
0000
0000
0000
0000
0000
0000
,
1000
0000
1030
0000
0001
0100
0010
0000
,
2000
0000
0100
0000
0001
0001
0001
0000
,
3010
0000
0000
0100
0001
0000
0100
0000
0010
0000
0000
0000
1000
0001
1000
0001
,
2000
0000
0000
0000
3100
0000
1000
0100
2000
0000
0000
0000
3010
0000
0000
0000
,
1000
0000
0001
0000
0100
0000
0010
0000
0200
0000
0000
0000
0301
0000
0100
0001
,
0200
0000
0000
0000
0301
0000
0010
0001
0020
0000
0000
0000
0130
0000
0000
0000
,
0110
0000
1001
0000
0001
0100
1000
0000
,
0100
0000
0001
0000
0100
0000
0010
0100
0010
0000
1000
0000
0010
0000
0000
0000
,
1000
0100
1000
0001
0010
0100
0010
0000
,
0001
0100
0001
0100
0010
1000
0100
0010
,
0001
0000
0001
0000
0001
0000
1000
0000
0010
0000
0000
0000
0100
0010
0100
0010
,
0200
0000
0000
0000
,
0001
0000
0001
0001
0300
1000
0010
0000
,
1001
0000
1000
0010
0100
0010
0001
0000
,
0010
0100
0010
1000
0001
1000
0100
0000
,
0110
0000
0100
0001
0000
0100
1000
0000
,
0001
0000
0100
0001
0100
0000
0001
0000
2000
0000
0000
0000
0000
0000
3000
0000
,
1001
0000
0001
0010
0100
0010
1000
0000
,
0010
0001
0100
0001
0010
0100
1000
0000
,
1010
0000
0010
0110
0000
0100
0101
0000
,
0001
0000
0000
1000
0000
0000
0001
0000
0000
0000
0000
0000
1000
0000
0000
0000
0000
0000
0000
0000
0000
0000
0000
0000
0010
0000
0000
0000
0100
0000
0000
0000
0001
0000
0000
0000
0100
0000
0000
0000
0000
0000
0020
0000
0000
0000
0000
0000
,
0000
0000
0000
0000
,
0000
0000
0000
0030
,
1000
0001
1000
0001
0100
0010
1000
0100
,
0010
0100
0001
0100
1000
1000
1000
0001
,
0100
0010
0100
0010
1000
0010
0001
0010
,
1000
0000
0000
0001
1000
0000
0001
0000
0100
0001
0100
0000
0010
0000
0000
0000
,
1001
0000
0001
0011
0000
0010
0110
0000
,
0100
1100
0000
1000
0002
0000
2003
0000
,
3200
0000
0000
0000
0000
0300
0010
0001
0020
0000
0000
0000
0000
0000
0000
0000
,
0000
0000
0000
0000
0000
0000
0000
0000
0032
0000
0000
0000
1003
0000
0010
1000
,
0020
0000
0000
0000
0000
0030
0100
0001
0200
0000
0000
0000
0000
0000
0000
0000
,
0001
0000
0001
0000
0301
1000
1001
0000
,
1000
0100
1000
0100
0010
0001
0100
0010
,
1000
0001
1000
0001
0010
0100
1000
0001
,
0100
0100
0100
0010
1000
1000
1000
0001
,
0020
0000
0000
0030
0100
0010
0100
0010
0200
0000
0000
0000
0300
0000
0000
0000
,
1000
0000
0010
1000
0000
0010
1000
0000
0001
0100
0000
0001
0200
0000
0000
0000
,
0301
0000
0010
0001
0000
0010
0001
0000
1000
0100
0000
1000
0200
0000
0000
0000
,
0310
0000
0001
1000
0000
0001
1000
0000
0010
0100
0000
0010
0200
0000
0000
0000
,
0301
0000
1000
0001
0000
1000
0001
0000
0010
0000
0100
0000
1000
0000
0001
0000
,
0020
0000
0030
0000
0001
0001
0100
1000
,
0100
0001
1000
0001
0010
1000
0010
0001
,
2000
0000
3002
0000
1003
1000
0100
0001
,
0100
1000
0001
1000
0010
0001
0010
1000
,
0002
0000
0003
0020
0000
0030
0200
0000
0300
2000
0000
3000
0001
1000
0001
0000
,
2000
0000
3000
0020
0000
0030
0200
0000
0300
0002
0000
0003
0010
0001
0010
0000
,
0002
0000
0003
0020
0000
0030
0200
0000
0300
2000
0000
3000
0001
1000
0001
0000
,
2000
0000
3000
0020
0000
0030
0200
0000
0302
0000
2003
0000
3001
1000
0001
0000
,
0020
0000
0030
0200
0000
0300
2000
0000
3000
0002
0000
0003
0100
0010
0100
0000
,
0002
0000
0003
2000
0000
3000
0200
0000
0300
0020
0000
0030
0001
1000
0001
0000
,
1000
0000
0000
0000
0020
0000
0030
0000
0200
0000
0300
0000
0002
0000
0000
0003
,
2000
0000
0000
3000
0200
0000
0000
0000
0320
0000
0000
0000
0031
0000
0000
0000
,
0101
0000
1000
1100
0000
0001
0011
0000
,
1000
1010
0000
0100
2002
0000
3003
0000
,
1000
0000
0100
0000
0001
0000
0100
0000
1000
0100
1000
0000
0001
0000
0010
0000
,
0100
0010
0100
0000
1000
0000
0001
0000
0100
0000
0100
0000
0100
0000
0000
0000
,
0001
0000
0010
0000
1000
0000
0010
0000
0001
0010
0001
0000
0100
0000
0001
0000
,
0100
0010
0100
0000
0010
0000
1000
0000
0100
0000
1000
0001
1000
0000
0000
0000
,
1100
0000
0001
0101
0000
1000
1010
0000
,
0001
0011
0000
0100
2002
0000
3003
0000
,
2000
0000
0000
3020
0000
0000
0230
0000
,
0000
0302
0000
0000
0000
0000
0000
0000
,
0003
0000
0000
0000
;

//--------------- dance-single - Queen Extra + Empress Pamela ----------------
#NOTEDATA:;
#STEPSTYPE:dance-single;
#DESCRIPTION:Queen Extra + Empress Pamela;
#DIFFICULTY:Hard;
#METER:17;
#RADARVALUES:0,0,0,0,0;
#CREDIT:Queen Extra + Empress Pamela;
#NOTES:
0000
0000
0000
0000
,
0000
0000
0000
0000
,
0000
0000
0000
0000
,
0000
0000
0000
0000
,
0000
0000
0000
0000
,
0000
0000
0000
0000
,
2000
0000
0000
0000
,
3020
0000
0000
0000
,
0230
0000
0000
0300
,
1002
0000
0013
0021
0000
0130
2100
0000
,
3001
0000
1000
0000
0010
0000
0100
0000
0001
0100
0010
0000
0100
0010
1000
0001
,
1000
0000
0001
0000
0010
0000
0100
0000
1000
0100
0010
0000
0100
0010
0001
1000
,
0001
0000
1000
0000
0010
0000
0100
0000
0001
0100
0010
0000
0100
0010
1000
0001
,
1000
0000
0001
0000
0010
0000
0100
0000
1000
0100
0010
0000
0100
0010
0001
1000
,
0010
0000
1000
0000
0001
0000
0100
0000
0001
0100
0010
1000
0001
1000
0100
0000
,
0010
0000
0001
0000
1000
0000
0100
0000
1000
0100
0010
0001
1000
0001
0100
0000
,
0010
0000
1000
0000
0001
0000
0100
0000
0001
0100
0010
1000
0001
1000
0100
0000
,
1000
0000
0001
0000
0102
0000
0000
0000
1003
0100
0010
0100
0001
0000
0100
0010
,
0002
0000
0000
0000
0000
0000
1003
0010
2000
0000
0010
0000
0000
0000
0000
0000
,
0001
0000
0000
0000
0000
0000
3001
0000
0010
0000
0100
0000
1000
0001
1000
0001
,
0200
0000
0000
0000
0000
0000
0301
0100
0002
0000
0100
0000
0000
0000
0000
0000
,
1000
0000
0000
1003
0200
0000
0000
0300
,
2001
0000
0000
0000
0000
0000
3001
1000
0020
0000
1000
0000
0000
0000
0000
0000
,
0100
0000
0000
0130
0002
0000
0010
0000
,
0103
0010
0100
0010
1000
0001
1000
0001
,
0010
0000
0100
0010
0001
0000
0100
0000
0110
0000
0000
0000
0010
0100
0010
0100
,
0001
0000
1000
0000
0010
0000
0100
0001
1000
0000
0100
0000
0010
0000
0001
0000
,
0011
0000
1000
0000
0010
0000
2010
0000
0000
0000
3100
0000
0010
0001
0010
0001
,
1000
0000
0010
0000
0100
0000
0010
1000
0001
0000
0010
0000
0100
0000
1000
0000
,
1100
0001
1000
0010
0110
0100
2001
0000
,
3001
0000
1000
0000
0100
0000
0001
0100
1000
0000
0001
0000
0100
0000
0010
0000
,
0110
1000
0100
0010
0110
0001
2000
0000
,
3010
0100
0001
0000
0100
0010
1000
0000
0001
0010
0100
0000
1000
0100
0010
0000
,
0001
0100
0001
0100
0010
1000
0010
1000
0001
0100
0010
1000
0001
0010
0100
1000
,
0020
0000
0000
0000
,
1000
0000
0000
0000
0100
0000
0000
0000
1030
0000
0010
1000
0001
0000
0000
0000
,
2000
0000
0100
0000
3002
0000
0100
0000
1003
0010
1000
0000
0001
0000
0100
0010
,
1000
0000
1000
0100
0001
0000
0100
0000
1000
0001
0010
0001
1000
0100
1000
0000
,
1002
0000
0000
0000
0103
0001
1000
0000
0100
0000
0010
0001
1000
0000
0010
0000
,
0100
0000
1000
0100
0001
0000
0100
0010
2000
0000
0000
0000
0000
0000
3000
0000
,
1001
0000
0001
0010
0100
0000
0010
0000
0001
1000
0010
0000
0100
0000
0010
1000
,
0001
0000
0001
0010
1000
0000
0010
0000
0001
1000
0010
1000
0001
0100
0001
0000
,
1001
0000
1000
0100
0010
0000
1001
0000
0001
0100
0010
0000
1001
0000
1000
0100
,
0010
0000
0000
0100
0000
0000
0001
0000
0000
0100
0000
0000
0010
0000
0000
0000
0000
0000
0001
0000
0000
1000
0000
0000
0001
0000
0000
0000
0100
0000
0000
0000
0010
0000
0000
0000
1000
0000
0000
0000
0000
0000
0000
0000
0000
0000
0000
0000
,
2002
0000
0000
0000
,
0000
0000
0000
3003
,
1000
0010
0100
0000
0001
1000
0000
0100
0010
0000
0001
1000
0000
0010
0100
0000
,
0001
1000
0100
1000
0001
0000
1000
0000
0001
0010
0001
0010
0100
1000
0100
1000
,
0001
0100
0001
0000
0100
0010
0000
1000
0100
0000
0010
0001
0000
0100
0010
0000
,
1000
0001
0010
0001
1000
0000
0010
0000
0100
0001
0100
0001
1000
0010
0100
0000
,
0110
0000
0001
0010
0100
0000
0110
0000
1000
0010
0100
0000
0110
0000
0010
1000
,
0001
0000
1001
0000
1000
0100
0001
0000
0200
0000
2300
0000
3002
0000
0203
0000
,
0320
0000
0000
0000
0000
0030
0100
0001
0200
0000
0000
0000
0000
0000
0000
0000
,
0001
0000
0000
0000
0001
0000
0000
0000
0320
0000
0000
0000
1030
0001
1000
0000
,
0200
0000
0000
0000
0300
0000
0010
0001
0020
0000
0000
0000
0030
0000
0000
0000
,
1001
0000
0110
0000
1001
1001
1001
0000
,
0001
0000
1000
0000
0100
0000
0010
0001
0100
0000
0001
0000
1000
0000
0010
0000
,
1010
1000
0001
0011
1000
0010
1001
0000
,
0001
1000
0100
1000
0001
0000
0100
0000
0001
1000
0010
1000
0001
0000
0010
0000
,
0100
1000
0001
0100
0001
1000
0100
1000
0010
0100
0001
1000
0020
0000
0000
0000
,
1030
0000
1000
0100
0000
0100
0001
0000
0100
1000
0000
1000
0001
0010
0100
1000
,
0001
0000
0001
0100
0000
0100
1000
0000
0100
0001
0000
0001
0010
0100
0010
0001
,
1000
0000
1000
0100
0000
0100
0001
0000
0100
1000
0000
1000
0001
0100
0010
1000
,
0001
0000
0001
0010
0000
0010
1000
0000
0010
0000
0001
0000
0100
0010
1000
0001
,
0020
0000
0000
0000
0030
0000
0000
0000
0001
0100
0010
1000
0001
1000
0100
0000
,
1000
0100
0010
0000
0100
0010
0001
0000
1000
0010
0100
0001
1000
0001
0010
0000
,
0200
0000
0000
0000
0000
0000
0000
0000
1300
0100
0010
0001
1000
0001
0100
0000
,
0001
0100
0010
0000
0100
0010
1000
0000
0001
0010
0100
1000
0001
1000
0010
0100
,
0002
0000
0003
0200
0000
0300
0020
0000
0030
2000
0000
3000
0001
0010
0100
1000
,
0002
0000
0003
0200
0000
0300
0020
0000
0030
2000
0000
3000
0001
0010
0001
1000
,
0002
0000
0003
0200
0000
0300
0020
0000
0030
2000
0000
3000
0001
0010
0100
1000
,
0002
0000
0003
0200
0000
0300
2000
0000
3200
0000
0302
0000
0103
0010
0100
0001
,
1000
0000
1000
0100
0000
0100
0010
0000
0010
0001
0000
1000
0001
0100
0010
1000
,
0001
0000
0001
0010
0000
0010
0100
0000
0100
1000
0000
0001
0100
0010
1000
0100
,
0010
0000
0000
0000
0002
0000
0003
0000
0020
0000
0030
0000
0200
0000
0000
0300
,
2000
0000
0000
3000
0020
0000
0000
0000
0230
0000
0000
0000
0301
0000
0000
0000
,
1001
1000
0100
1100
0001
0010
1001
0001
,
0100
0101
1000
0010
0220
0000
0330
0000
,
1000
0100
1000
0001
0100
0000
0001
0010
0100
0000
1000
0010
0100
0000
0110
0000
,
0010
1000
0001
1000
0010
0000
0100
0000
0001
0010
0001
1000
0001
0010
0001
1000
,
0100
0010
0001
0100
0010
0000
1000
0001
0010
0000
0001
1000
0010
0000
0110
0000
,
0100
0001
1000
0100
1000
0001
0100
0001
0010
0100
1000
0100
0010
0001
0010
0001
,
0200
0310
1000
0010
0100
0001
0020
0130
1000
0100
0010
0001
0200
0310
1000
0010
,
0100
0001
0020
0000
0130
1000
0100
0001
0200
0000
2300
0000
3020
0000
0230
0000
,
0302
0000
0000
0023
0000
0000
0230
0000
,
0000
2300
0000
0000
0000
0000
0000
0000
,
3000
0000
0000
0000
;

//--------------- dance-double - Queen Extra + Empress Pamela ----------------
#NOTEDATA:;
#STEPSTYPE:dance-double;
#DESCRIPTION:Queen Extra + Empress Pamela;
#DIFFICULTY:Easy;
#METER:9;
#RADARVALUES:0,0,0,0,0;
#CREDIT:Queen Extra + Empress Pamela;
#NOTES:
00000000
00000000
00000000
00000000
,
00000000
00000000
00000000
00000000
,
00000000
00000000
00000000
00000000
,
00000000
00000000
00000000
00000000
,
00000000
00000000
00000000
00000000
,
00000000
00000000
00000000
00000000
,
00020000
00000000
00000000
00030000
,
00002000
00000000
00000000
00003000
,
00020000
00000000
00000000
00030000
,
00011000
00000000
00001000
00010000
00000000
00001000
00010000
00000000
,
00001000
00000000
01000000
00000000
00010000
10000000
00010000
00000000
,
10000000
00000000
01000000
00000000
00100000
01000000
00100000
00000000
,
00001000
00000000
00010000
00000000
00000100
00001000
00000100
00000000
,
00001000
00000001
00001001
00001000
,
00000001
00000000
00000100
00000000
00001000
00010000
00001000
00000000
,
00010000
00000000
00100000
00000000
10000000
00100000
10000000
00000000
,
00010000
00000000
10000000
00000000
01000000
00100000
01000000
00000000
,
00010000
00000000
00001000
00000000
00010000
00001000
00010000
00000000
,
00022000
00000000
00000000
00000000
,
00000000
00033000
00010000
00000100
,
00002200
00000000
00000000
00000000
,
00000000
00003300
00001000
00000001
,
00002002
00000000
00000000
00000000
,
00003003
00000000
00000000
00000000
00000002
00000000
00000000
00000003
,
00002000
00000000
00000000
00000000
00000000
00000000
00000000
00003000
,
00000001
00000000
00001000
00000000
00001001
00000000
00000001
00001000
,
00000001
00000100
00000010
00010000
,
00001000
00000000
00010000
00000000
00011000
00000000
00001000
00010000
,
00001000
00100000
00010000
10000000
,
00100000
00000000
01000000
00000000
00010000
10000000
00010000
10000000
,
00010000
10000000
01000000
00010000
,
00001000
00000000
00000010
00000000
00000002
00000000
00000000
00000003
,
00001000
00000001
00001000
00000000
00000001
00001000
00000001
00000000
,
00000100
00000010
00000100
00000010
00000100
00000000
00001000
00000000
,
00020000
00000000
00000000
00000000
,
00000000
00000000
00000000
00030000
,
00001000
00000000
00100000
00000000
00010000
10000000
00010000
00000000
,
10000000
00000000
00100000
01000000
00100000
00000000
10000000
00000000
,
00010000
00000000
00100000
01000000
00100000
00000000
00001000
00000000
,
00020000
00000000
00001000
00031000
,
00010000
00000000
00000010
00000000
00001000
00000001
00001000
00000000
,
00000001
00000000
00000010
00000100
00000010
00000000
00000001
00000000
,
00001000
00000000
00000001
00000100
00000000
00001000
00000100
00000000
,
00001000
00010000
00000000
00000000
00011000
00000000
00010000
00000000
,
00002000
00000000
00000000
00000000
,
00000000
00000000
00000000
00003000
,
00010000
00000000
00001000
00010000
00001000
00000000
01000000
00000000
,
00010000
10000000
01000000
00000000
,
00010000
00000000
00000100
00000000
00001000
00000001
00001000
00000000
,
00000001
00000000
00000100
00000010
00000100
00000010
00000100
00000000
,
00000001
00000000
00000100
00000010
00000000
00000100
00001000
00000000
,
00010000
00001000
00000000
00010000
00002000
00000000
00000000
00003000
,
00020000
00000000
00000000
00000000
,
00000000
00000000
00000000
00030000
,
00000200
00000000
00000000
00000000
,
00001000
00000000
00001300
00000000
00000001
00001000
00000001
00001000
,
00000001
00000100
00001000
00010000
,
00100000
00000000
10000000
00000000
00020000
00000000
00000000
00030000
,
10000000
01000000
00100000
00001000
,
00010000
00001000
00010000
00001000
00020000
00000000
00000000
00030000
,
00001000
00000000
00000000
00010000
00000000
00000000
00001000
00000000
00000000
01000000
00000000
00000000
00010000
00000000
00000000
00000000
,
10000000
00000000
00000000
01000000
00000000
00000000
10000000
00000000
00000000
00010000
00000000
00000000
00100000
00000000
00000000
00000000
,
00001000
00000000
00000000
00010000
00000000
00000000
00000100
00000000
00000000
00001000
00000000
00000000
00000100
00000000
00000000
00000000
,
00001000
00000000
00000000
00000001
00000000
00000000
00000000
00000000
00000200
00000000
00000000
00000300
00002000
00000000
00000000
00003000
,
00020000
00000000
00000000
00030000
00001000
00010000
00001000
00000000
,
00010000
00000000
00000010
00000000
00001000
00000010
00001000
00000000
,
00000002
00000000
00000000
00000003
00001000
00000001
00001000
00000000
,
00000001
00000000
00000100
00000000
00000010
00001000
00000010
00000000
,
00010000
00000000
00000000
00001000
00000000
00000000
02000000
00000000
00000000
00000000
03000000
00000000
00010000
00000000
00000000
00000000
,
00010000
00000000
00000000
10000000
00000000
00000000
02000000
00000000
00000000
00000000
03000000
00000000
00100000
00000000
00000000
00000000
,
00100000
00000000
00000000
00001000
00000000
00000000
00020000
00000000
00000000
00000000
00030000
00000000
00001000
00000000
00000000
00000000
,
00001000
00000000
00000000
00010000
00000000
00000000
00000000
00000000
00000010
00000000
00001000
00000000
00000010
00000000
00000000
00000000
,
00001000
00000000
00000000
00000100
00000000
00000000
00000010
00000000
00000000
00000001
00000000
00000000
00001000
00000000
00000000
00000000
,
00000001
00000000
00000000
00000100
00000000
00000000
00000010
00000000
00000000
00001000
00000000
00000000
00000001
00000000
00000000
00000000
,
00001001
00001000
00000001
00000100
,
00001000
00010000
00100000
10000000
,
10010000
00000000
00000000
01100000
00000000
00000000
10010000
00000000
,
00000000
01100000
00000000
00000000
10010000
00000000
00000000
00000000
,
10000000
00000000
01000000
00100000
01000000
00000000
00010000
00000000
,
00001000
00010000
00001000
00000000
00010000
00000000
00010000
00000000
,
00001000
00000000
00010000
00000000
00000100
00001000
00000100
00000000
,
00001000
00000000
00000001
00000100
00000001
00000000
00001000
00000000
,
00000001
00000000
00000100
00001000
00000000
00010000
00001000
00000000
,
00010000
00100000
00000000
00000000
10020000
00000000
00030000
00000000
,
20000000
00000000
30000000
02000000
00000000
03000000
00020000
00000000
,
00030000
00002000
00000000
00000000
00000000
00000000
00000000
00000000
,
00003000
00000000
00000000
00000000
;

//--------------- dance-double - Queen Extra + Empress Pamela ----------------
#NOTEDATA:;
#STEPSTYPE:dance-double;
#DESCRIPTION:Queen Extra + Empress Pamela;
#DIFFICULTY:Medium;
#METER:14;
#RADARVALUES:0,0,0,0,0;
#CREDIT:Queen Extra + Empress Pamela;
#NOTES:
00000000
00000000
00000000
00000000
,
00000000
00000000
00000000
00000000
,
00000000
00000000
00000000
00000000
,
00000000
00000000
00000000
00000000
,
00000000
00000000
00000000
00000000
,
00000000
00000000
00000000
00000000
,
00020000
00000000
00000000
00030000
,
00002000
00000000
00000000
00003000
,
00020000
00000000
00000000
00030000
,
00000020
00000000
00001000
00002030
00000000
00000001
00003001
00000000
,
00001000
00000100
00001000
00000001
00001000
00000010
00010000
00001000
,
01000000
00010000
10000000
01000000
00100000
01000000
10000000
00000000
,
00010000
01000000
00010000
10000000
00010000
00100000
00001000
00010000
,
00000100
00001000
00000001
00000100
00000010
00010000
00001000
00000000
,
00010000
00001000
00000010
00000100
00010000
00001000
00000010
00000001
,
00001000
00000001
00000100
00000010
00000100
00001000
00010000
00000000
,
00001000
00010000
00100000
01000000
00001000
00010000
00100000
10000000
,
00010000
00000000
10000000
00000000
01000000
00000000
00010000
00000000
00001000
00010000
00001000
00010000
00001000
00000000
00000000
00000000
,
00021000
00000000
00000000
00031000
02000000
00000000
00000000
00000000
,
00001000
00010000
03020000
10000000
,
20030000
00000000
00000000
00000000
00000000
30000000
01000000
00000000
00200000
00000000
00000000
00000000
00000000
00000000
00000000
00000000
,
00010000
00001000
00302000
00010000
,
00023000
00000000
00000000
00000000
00000000
00030000
00000010
00000000
00002000
00000000
00000000
00000000
00000000
00000000
00000000
00000000
,
00000010
00010000
00023000
01000000
,
02030000
00000000
00100000
00010000
,
03001000
00000000
00011000
00000000
00011000
00000000
00001000
00001000
,
00010000
00000000
00001000
00000000
01000000
00000000
00010000
01000000
00010000
00000000
01000000
00000000
00100000
00000000
10000000
00000000
,
00020000
00000000
00100000
00000000
00031000
00000000
00000100
00010000
,
00001000
00000000
00010000
00000000
00000100
00000000
00001000
00000100
00001000
00000000
00000100
00000000
00000010
00000000
00000001
00000000
,
00002000
00000000
00000010
00000000
00013000
00010000
01000000
00000000
,
00010000
00000000
10000000
00000000
01000000
00000000
00010000
01000000
00020000
00000000
00000000
00000000
01000000
00000000
00000000
00000000
,
00001000
00000000
00000010
00000000
00031000
00010000
00010000
00000000
,
00001000
00000010
00001000
00000010
00000001
00000100
00000001
00000100
,
00002000
00000000
00000000
00003000
00020000
00000000
00000000
00030000
00001000
00010000
00001000
00010000
00001000
00000000
00000000
00000000
,
00020000
00000000
00000000
00000000
,
00000000
00000000
00000000
00031000
,
00010000
00001000
01000000
00010000
01000000
10000000
01000000
00100000
,
01000000
00010000
01000000
00001000
00020000
00000000
00000000
00000000
,
00031000
00010000
00100000
10000000
00010000
10000000
00100000
00000000
,
00010000
00000000
00001000
00010000
00001000
00000000
00000000
00000000
00020000
00000000
00000000
00000000
00000000
00000000
00000000
00000000
,
00031000
00010000
00000100
00001000
00000100
00000010
00000100
00000001
,
00000100
00001000
00000100
00010000
00002000
00000000
00013000
00000000
,
00011000
00000000
01000000
01010000
00000000
00100000
10100000
00000000
,
10000000
00000000
00000000
10010000
00000000
00000000
00000000
00000000
00000000
00010000
00000000
00000000
10000000
00000000
01000000
00000000
00100000
00000000
00010000
00000000
00000000
00100000
00000000
00000000
,
00002000
00000000
00000000
00000000
,
00000000
00000000
00003000
00011000
,
00010000
00001000
00000010
00000001
00001000
00000001
00000010
00000000
,
00000100
00001000
00000000
00000100
00001000
00000000
00000100
00010000
00000000
00000100
00010000
00000000
00001000
00000000
00000000
00000000
,
00010000
00001000
00100000
00010000
00100000
01000000
00100000
10000000
,
00100000
00000000
00010000
00000000
00100000
00000000
00001000
00000000
00010000
00000000
00000000
00000000
00001000
00010000
00001000
00000000
,
00011000
00000000
00000100
00001100
00000000
00000010
00000011
00000000
,
00000001
00002001
00000000
00003001
00000100
00001000
00020000
00000000
,
00032000
00000000
00000000
00000000
,
00000000
00000000
00010000
01000000
,
00023000
00000000
00000000
00030000
,
00011000
00000000
00001100
00000000
00000100
00000010
00000001
00000000
,
00001000
00000000
00000001
00000000
00000100
00000000
00001000
00000100
00002000
00000000
00000000
00000000
00000100
00000000
00000000
00000000
,
00010000
00000000
00100000
00000000
00013000
00001000
00001000
00000000
,
00010000
00100000
00010000
00100000
10000000
01000000
10000000
01000000
,
00020000
00000000
00000000
00030000
00001000
00010000
00001000
00010000
00002000
00000000
00000000
00000000
00000000
00000000
00000000
00000000
,
00013000
00000000
00001000
00010000
00000000
00001000
01000000
00000000
00010000
01000000
00000000
00100000
20000000
00000000
00000000
00000000
,
30010000
00000000
10000000
01000000
00000000
00100000
01000000
00000000
00100000
00010000
00000000
00100000
00001000
00000000
00010000
00000000
,
00001000
00000000
00010000
00000100
00000000
00001000
00000100
00000000
00000010
00000100
00000000
00000010
00000002
00000000
00000000
00000000
,
00001003
00000000
00000001
00000100
00000000
00000010
00001000
00000000
00000010
00000000
00010000
00000000
00001000
00000000
00001000
00000000
,
00020000
00000000
00000000
00000000
01030000
10000000
00010000
00000000
,
00010000
00100000
00010000
10000000
00010000
01000000
00001000
00010000
,
00002000
00000000
00000000
00000000
00003010
00000001
00001000
00000000
,
00001000
00000010
00001000
00000001
00001000
00001000
00000100
00000100
,
00020000
00000000
00030000
00002000
00000000
00003000
02000000
00000000
03000000
00020000
00000000
00030000
10000000
00010000
10000000
00000000
,
02000000
00000000
03000000
00020000
00000000
00030000
00002000
00000000
00003000
00020000
00000000
00030000
00000010
00001000
00000010
00000000
,
00002000
00000000
00003000
00000002
00000000
00000003
00000020
00000000
00000030
00000200
00000000
00000300
00010000
00001000
00010000
00000000
,
00002000
00000000
00003000
00020000
00000000
00030000
00200000
00000000
20300000
00000000
30020000
00000000
10030000
00010000
10000000
00000000
,
02000000
00000000
03000000
00020000
00000000
00030000
00002000
00000000
00003000
00000020
00000000
00000030
00000001
00001000
00000001
00000000
,
00000200
00000000
00000300
00002000
00000000
00003000
00020000
00000000
00030000
00200000
00000000
00300000
10000000
00010000
10000000
00000000
,
00010000
00000000
00000000
00000000
20000000
00000000
30000000
00000000
02000000
00000000
03000000
00000000
00020000
00000000
00000000
00030000
,
00002000
00000000
00000000
00003000
00000020
00000000
00000000
00000000
00000032
00000000
00000000
00000000
00001003
00000000
00000000
00000000
,
00001001
00000000
00000000
00001010
00000000
00000000
00011000
00000000
,
00000000
00001010
00000000
00000000
00000101
00000000
00001000
00000010
,
00010000
00001000
00000100
00000001
00001000
00000001
00000100
00000000
,
00000010
00001000
00000000
00000010
00001000
00000000
00000010
00010000
00000000
00000010
00010000
00000000
00001000
00010000
00001000
00000000
,
00010000
00000000
00001000
00000000
00100000
00000000
00010000
00000000
00100000
01000000
00100000
00000000
10000000
00000000
00100000
00000000
,
01000000
00100000
01000000
00000000
00100000
00000000
00010000
00000000
00100000
00000000
00001000
00000000
00010000
00001000
00010000
00000000
,
00011000
00000000
00000100
00001100
00000000
00000010
00000011
00000000
,
00000001
00001002
00000000
00000000
00002003
00000000
00000000
00000000
,
00003002
00000000
00000000
00000203
00000000
00000000
00002300
00000000
,
00000000
00020000
00000000
00000000
00000000
00000000
00000000
00000000
,
00033000
00000000
00000000
00000000
;

//--------------- dance-double - Queen Extra + Empress Pamela ----------------
#NOTEDATA:;
#STEPSTYPE:dance-double;
#DESCRIPTION:Queen Extra + Empress Pamela;
#DIFFICULTY:Hard;
#METER:17;
#RADARVALUES:0,0,0,0,0;
#CREDIT:Queen Extra + Empress Pamela;
#NOTES:
00000000
00000000
00000000
00000000
,
00000000
00000000
00000000
00000000
,
00000000
00000000
00000000
00000000
,
00000000
00000000
00000000
00000000
,
00000000
00000000
00000000
00000000
,
00000000
00000000
00000000
00000000
,
00020000
00000000
00000000
00000000
,
00032000
00000000
00000000
00000000
,
02003000
00000000
00000000
03000000
,
01020000
00000000
10030000
21000000
00000000
30010000
00100000
00001000
,
00010000
00000000
00100000
00000000
10000000
00000000
00100000
00000000
00010000
00000000
00001000
00000000
00000100
00000001
00000100
00000000
,
00001000
00000000
00000100
00000000
00000001
00000000
00000100
00000000
00001000
00000000
00010000
00000000
00100000
10000000
00100000
00000000
,
00010000
00000000
00001000
00000000
00000010
00000000
00000001
00000000
00000010
00000000
00001000
00000000
00010000
00001000
00010000
00000000
,
01000000
00000000
10000000
00000000
01000000
00000000
00010000
00000000
00001000
00000000
00000010
00000000
00000001
00001000
00000001
00000100
,
00000010
00000000
00000100
00000000
00000001
00000000
00000100
00000000
00000010
00001000
00000010
00010000
00001000
00010000
00001000
00000000
,
00010000
00000000
00000010
00000000
00001000
00000000
00000010
00000000
00010000
00001000
00010000
00001000
01000000
00000000
00010000
10000000
,
01000000
00000000
00100000
00000000
01000000
00000000
10000000
00000000
01000000
00100000
00010000
00100000
00001000
00010000
00001000
00000000
,
00010000
00000000
00001000
00000000
00100000
00000000
00001000
00000000
00010000
00001000
00000010
00000001
00001000
00000000
00000001
00001000
,
00000020
00000000
00000000
00000000
00000000
00000000
00001030
00000010
00020000
00000000
00000010
00000000
00000000
00000000
00000000
00000000
,
00001000
00000000
00000000
00000000
00000000
00000000
00130000
00000000
10000000
00000000
00010000
00000000
10000000
01000000
10000000
01000000
,
00200000
00000000
00000000
00000000
00000000
00000000
00310000
00100000
00002000
00000000
00100000
00000000
00000000
00000000
00000000
00000000
,
00010000
00000000
00000000
00003010
00000001
00001000
00000002
00000000
,
00000203
00000000
00000000
00000000
00000000
00000000
00000310
00000100
00002000
00000000
00000100
00000000
00000000
00000000
00000000
00000000
,
00010000
00000000
00000000
00003010
00000002
00001000
00000000
00000000
,
00000203
00000000
00000000
00000001
00000000
00000010
00000000
00001300
,
00010000
00000000
00001000
00010000
00100000
00000000
10000000
00000000
10010000
00000000
00000000
00000000
00010000
10000000
00010000
10000000
,
00010000
00000000
10000000
00000000
01000000
00000000
00010000
00001000
00010000
00000000
01000000
00000000
10000000
00000000
01000000
00000000
,
00010000
00000000
00001000
00000000
00100000
00000000
00010000
00000000
00001000
00000000
00000100
00000000
00010000
00001000
00010000
00000100
,
00001000
00000000
00000001
00000000
00000100
00000000
00001000
00010000
00001000
00000000
00000100
00000000
00000001
00000000
00000100
00000000
,
00001000
00010000
00000010
00001000
00100000
01000000
01100000
00000000
,
00010000
00000000
10000000
00000000
00100000
00000000
00010000
00001000
00010000
00000000
00100000
00000000
10000000
00000000
00010000
00000000
,
10000000
01000000
00010000
00001000
00000010
00001000
00010000
01000000
,
10000000
00100000
10000000
00000000
00100000
00010000
00100000
00000000
00010000
00001000
00010000
00000000
00001000
00000100
00001000
00000000
,
00000100
00000001
00000100
00000001
00001000
00000010
00001000
00000010
00010000
00001000
00010000
00001000
01000000
00010000
10000000
00100000
,
02000000
00000000
00000000
00000000
,
00000000
00000000
00000000
00000000
00000000
00000000
00000000
00000000
03010000
00000000
10000000
00010000
10000000
00000000
00000000
00000000
,
10010000
00000000
00010000
00000000
10000000
00000000
01000000
00000000
00010000
00001000
00100000
00000000
00010000
00000000
10000000
01000000
,
00100000
00000000
00010000
00001000
00010000
00000000
00001000
00000100
00001000
00000100
00000010
00000000
00000001
00001000
00000001
00000000
,
00000100
00000000
00000010
00000000
00001000
00000010
00010000
00000000
00001000
00000000
00000010
00000100
00001000
00000000
00000001
00000000
,
00000100
00000010
00000100
00000010
00000100
00000000
00000001
00000000
00002000
00000000
00000000
00000000
00000000
00000000
00000000
00000000
,
00003001
00000000
00001000
00000000
00000001
00000000
00000100
00000000
00001000
00010000
00000010
00000000
00001000
00000000
00000001
00000100
,
00000010
00000000
00001000
00010000
00001000
00000000
00010000
01000000
00010000
01000000
00100000
00000000
10000000
00010000
10000000
00000000
,
00010000
00000000
00100000
00010000
00100000
00001000
00010000
00000000
00001000
00010000
00001000
00010000
01000000
00000000
10000000
01000000
,
00010000
00000000
00000000
00001000
00000000
00000000
00010000
00000000
00000000
01000000
00000000
00000000
10000000
00000000
00000000
00000000
00000000
00000000
00010000
00000000
00000000
00000000
00000000
00000000
10000000
00000000
00000000
00000000
00100000
00000000
00000000
00000000
00010000
00000000
00000000
00000000
00001000
00000000
00000000
00000000
00000000
00000000
00010000
00000000
00000000
00000000
00000000
00000000
,
00002000
00000000
00000000
00000000
,
00000000
00000000
00000000
00000000
00000000
00003000
00011000
00000000
,
00010000
00000010
00001000
00000000
00000001
00000100
00000000
00000010
00001000
00000000
00010000
01000000
00000000
00100000
10000000
00000000
,
00010000
00100000
00001000
00010000
00001000
00000000
00010000
00001000
01000000
00010000
01000000
00000000
00100000
00000000
10000000
00000000
,
00010000
00100000
01000000
00000000
10000000
01000000
00000000
00010000
01000000
00000000
00010000
00001000
00000000
00000010
00001000
00000000
,
00000010
00000001
00001000
00000001
00000100
00000000
00000010
00001000
00000010
00000000
00001000
00000000
00010000
00001000
00010000
00001000
,
00010000
01000000
00010000
10000000
01000000
00000000
10000000
01000000
00010000
00001000
00010000
00000000
00001000
00000010
00000001
00001000
,
00000001
00001000
00000001
00000100
00002000
00000000
00000000
00000000
,
00023000
00000000
00000000
00000000
,
00000000
00000000
00230000
10300000
,
20010000
00000000
00000000
00000000
,
30010000
00000000
00001000
00000000
00001001
00000001
00001001
00000000
,
00001000
00000000
00000001
00000000
00000010
00000000
00001000
00010000
00001000
00000000
00000010
00000000
00000001
00000000
00001000
00000000
,
00000001
00000100
00001000
00010000
00100000
00010000
00001000
00000100
,
00000001
00000010
00000001
00000000
00000010
00001000
00000010
00000000
00001000
00010000
00001000
00000000
00010000
01000000
00010000
00000000
,
01000000
10000000
00010000
00100000
00001000
00010000
00000100
00001000
00000001
00000010
00000001
00000010
00000002
00000000
00000000
00000000
,
00001003
00000000
00000001
00000100
00000000
00000100
00001000
00000000
00010000
00002000
00000000
00000000
00003010
00001000
00010000
00000000
,
00001000
00000000
00010000
00100000
00000000
00100000
10000000
00000000
00010000
00200000
00000000
00000000
10300000
00100000
00010000
10000000
,
00010000
00000000
10000000
01000000
00000000
01000000
00010000
00000000
00001000
00020000
00000000
00000000
00130000
00010000
00001000
00000000
,
00010000
00000000
00001000
00000010
00000000
00000010
00000001
00000000
00001000
00000000
00000010
00000000
00000001
00000010
00000100
00000010
,
00002000
00000000
00003002
00000000
00001003
00000001
00000100
00001000
,
00010000
00001000
00000100
00000001
00000100
00001000
00010000
00100000
,
20000000
00000000
30020000
00000000
10030000
01000000
00010000
00001000
,
00010000
00000000
01000000
00000000
10000000
00000000
01000000
00000000
00010000
00001000
00010000
00000000
00001000
00000010
00001000
00000000
,
00000010
00000000
00000001
00000100
00000000
00000100
00001000
00000000
00010000
00002000
00000000
00000000
00003010
00001000
00010000
00000000
,
00001000
00000000
00010000
00100000
00000000
00100000
10000000
00000000
00010000
00200000
00000000
00000000
10300000
00100000
00010000
10000000
,
00010000
00000000
10000000
00100000
00000000
00100000
00010000
00000000
00001000
00020000
00000000
00000000
01030000
00010000
00001000
00000000
,
00010000
00000000
00001000
00000100
00000000
00000100
00000001
00000000
00001000
00000000
00000100
00000000
00000001
00000100
00001000
00000001
,
00000100
00000000
00000001
00000100
00000000
00000100
00001000
00000000
00010000
00001000
00000000
00001000
00000010
00000100
00001000
00000000
,
00000001
00000000
00000100
00001000
00000000
00001000
00010000
00000000
00001000
00000010
00000000
00000010
00001000
00010000
00001000
00100000
,
00010000
00000000
00000000
00000000
20000000
00000000
30000000
00000000
02000000
00000000
03000000
00000000
00020000
00000000
00000000
00030000
,
00002000
00000000
00000000
00003000
00000020
00000000
00000000
00000000
00000032
00000000
00000000
00000000
00001003
00000000
00000000
00000000
,
00001001
00000000
00000100
00000101
00000000
00001000
00001010
00000000
,
00010000
00011000
00000000
01000000
01010000
00000000
00010000
10000000
,
00010000
00100000
01000000
00000000
10000000
01000000
00000000
00100000
00010000
00000000
00001000
00000100
00000000
00000010
00000001
00000000
,
00001000
00000010
00000100
00000010
00000001
00000000
00000010
00000100
00000010
00001000
00000001
00000000
00000010
00000000
00000100
00000000
,
00001000
00000001
00000100
00000010
00001000
00000000
00010000
01000000
00100000
10000000
00010000
00000000
10000000
01000000
00100000
00010000
,
10000000
00000000
00010000
10000000
01000000
00100000
00010000
00000000
00001000
00010000
00001000
00010000
00001000
00010000
00001000
00000100
,
00000010
00000001
00001000
00000001
00000100
00000000
00001000
00010000
00100000
10000000
00010000
00000000
10000000
01000000
00010000
00001000
,
00000010
00000001
00002000
00000000
00000000
00000000
00000000
00000000
00000010
00000000
00000000
00000000
00000000
00000000
00000000
00000000
,
00003002
00000000
00000000
00000023
00000000
00000000
00002030
00000000
,
00000000
00020000
00000000
00000000
00000000
00000000
00000000
00000000
,
00033000
00000000
00000000
00000000
;
