#VERSION:0.83;
#TITLE:Dead to Me;
#SUBTITLE:;
#ARTIST:Sex Whales and Fraxo feat. Chatterbox;
#TITLETRANSLIT:;
#SUBTITLETRANSLIT:;
#ARTISTTRANSLIT:;
#GENRE:;
#CREDIT:;
#MUSIC:Sex Whales & Fraxo - Dead To Me - feat. Lox Chatterbox - goblin cut.mp3;
#BANNER:;
#BACKGROUND:;
#CDTITLE:;
#SAMPLESTART:42.191;
#SAMPLELENGTH:25.878;
#SELECTABLE:YES;
#OFFSET:-0.029;
#BPMS:0.000=148.000;
#STOPS:;
#BGCHANGES:;
#FGCHANGES:;

//--------------- dance-single - SPACE GOBLIN!!! ----------------
#NOTEDATA:;
#STEPSTYPE:dance-single;
#DESCRIPTION:SPACE GOBLIN!!!;
#DIFFICULTY:Hard;
#METER:13;
#RADARVALUES:0,0,0,0,0;
#NOTES:
0000
0000
0000
0000
,
0000
0000
0000
0000
,
0000
0000
0000
0000
,
0000
0000
0000
0000
,
0000
0000
0000
0000
0000
0000
0000
0000
0000
0000
0000
0000
0000
0000
0000
0000
1000
0000
0200
0300
0000
0000
0010
0000
,
0002
0000
1003
0002
0003
0100
0020
0000
0000
2030
0000
0000
,
0010
0000
0000
0000
0000
0000
3002
0000
0000
0000
0000
0000
1000
0000
0000
0000
0000
0000
0203
0300
0000
0000
0000
0000
,
0002
0003
0000
0000
0000
0000
2000
0000
3000
0000
0000
0000
0020
0030
0000
0000
0200
0300
0000
0000
0000
0000
0000
0000
,
2000
0000
0000
0000
0000
0000
3001
0000
1000
0200
0300
0010
,
0002
0003
0010
0002
0003
1000
0020
0000
0000
2030
0000
0000
,
3002
0000
0000
0000
0000
0000
1003
0000
0000
0000
0100
0000
0020
0030
0000
0000
0001
0000
1000
0000
0000
0000
0001
0000
,
0100
0000
00M0
0000
0100
0000
2000
3000
0000
0000
0001
0000
2000
3000
0000
0000
0100
0000
0020
0000
0000
0000
0000
0000
,
0032
0003
1000
0020
0000
0000
0130
0000
0000
0002
0003
1000
,
0100
0000
000M
0000
0100
0000
0002
0003
0000
0000
1000
0000
0002
0000
0000
0000
0000
0000
0203
0000
0000
0000
0000
0000
,
0320
0000
0000
1030
0000
0001
0020
0000
0000
0130
0000
1000
,
0002
0000
0000
0000
0000
0000
0203
0000
0300
0000
0010
0000
2000
0000
0000
3000
0001
0000
0020
0000
0000
0000
0000
0000
,
0130
0000
0000
0000
0000
0000
2000
3000
0000
0000
0000
0000
0002
0003
0000
0000
0000
0000
2000
3000
0000
0000
0000
0000
,
0100
0000
0000
00M0
0000
0000
0100
0000
0000
0000
0000
0000
0002
0000
0000
0000
0003
0000
1000
0000
0000
0000
0100
0000
,
0020
0000
0030
0000
0001
0000
2000
0000
0000
3000
0001
0000
0200
0000
0300
0000
0010
0000
2000
0000
3000
0000
0001
0000
,
0100
0000
0000
M000
0000
0000
0100
0000
0000
0000
0000
0000
2000
0000
3000
0000
0000
0000
0001
0000
0000
0000
0010
0000
,
0100
0000
1000
0001
0000
1000
0100
00M0
0100
0001
0000
0100
,
0020
0000
0000
0000
0000
0030
0000
0000
0000
0000
0000
0000
0000
0000
0000
0000
0000
0000
0000
0000
0000
0000
0000
0000
2000
0000
0000
0000
0000
3000
0000
0000
0000
0000
0000
0000
0000
0000
0000
0000
0002
0000
0000
0000
0003
0000
0000
0000
0000
0000
0000
0000
0000
0000
0000
0000
0000
0000
0000
0000
0000
0000
0000
0000
2000
0000
0000
0000
3000
0000
0000
0000
0000
0000
0000
0000
0000
0000
0000
0000
0000
0000
0000
0000
0000
0000
0000
0000
0100
0000
0000
0000
0000
0000
0000
0000
,
0002
0003
0000
0000
0000
0000
0200
0300
0000
0000
0000
0000
0020
0030
0000
0000
0001
0000
0000
0000
0000
0000
1000
0000
,
0002
0003
0000
0000
0000
0000
0200
0300
0000
0000
0001
0000
0200
0300
M000
0000
0100
0000
2000
0000
0000
0000
0000
0000
,
0001
0000
0000
3001
0000
1000
0100
0000
0010
0002
0000
0000
,
2003
0000
0000
0000
0000
0000
3020
0000
0030
0000
0100
0000
0010
0000
0000
0000
1000
0000
0002
0000
0000
0003
0000
0000
,
1000
0000
0001
0000
0010
0000
0002
0000
0000
0000
0000
0003
1000
0000
0010
0000
1000
0000
0020
0000
0000
0030
0000
0000
,
0100
0010
1000
0002
0003
0000
2000
3000
0000
MMMM
0000
0000
,
2000
0000
3000
0000
0010
0000
0200
0000
0000
0300
0000
0000
0002
0000
0003
0000
1000
0000
0200
0000
0300
0000
0010
0000
,
0002
0003
1000
0002
0003
1000
0100
00M0
0100
0000
0001
0000
,
1000
0000
0000
0000
0100
00M0
0200
0000
0000
0300
0000
0000
0001
0000
0000
0000
0100
00M0
0200
0000
0000
0300
0000
0000
,
1000
0000
0100
0020
0030
0000
0002
0003
0000
0001
0000
1000
,
0200
0300
0010
0002
0003
0000
1000
0000
0010
0100
0000
0001
,
2000
3000
0000
0000
0000
0000
0000
0000
0000
0000
0000
0000
0000
0000
0000
0000
0000
0000
0000
0000
0000
0000
0000
0000
,
0001
1000
0001
0100
00M0
0100
1000
0001
1000
0100
00M0
0100
,
0001
0000
1000
0010
0000
0100
0002
0003
0000
MMMM
0000
0000
,
1000
0010
0100
0002
0003
0001
1000
0100
0010
0002
0003
1000
,
0001
1000
0001
1000
0001
1000
0100
00M0
0100
0000
0001
0000
,
1000
0000
0000
0000
0010
0000
0200
0000
0300
0000
0000
0000
0001
0000
0000
0000
1000
0000
0200
0300
0000
0000
0010
0000
,
0001
0000
1000
0000
0010
0000
0200
0000
0000
0300
0000
0000
0001
0000
0000
0000
1000
0000
0010
0000
0100
0000
0001
0000
,
0100
0000
0000
M000
0000
0000
0100
0000
0000
0000
1000
0000
0100
0000
0000
00M0
0000
0000
0100
0000
0000
0000
0000
0000
,
0001
0000
0000
0000
,
2000
3000
0010
0200
0300
0000
0002
0000
0003
1000
0000
0100
,
0020
0030
0001
1000
0001
1000
0002
0003
0000
1000
0010
0100
,
0002
0000
0000
0003
0000
0000
1000
0000
0000
0000
0100
0000
0002
0000
0003
0000
0100
0000
1000
0000
0000
0000
0001
0000
,
0100
0000
1000
0100
0000
0001
1000
0000
0010
1000
0001
0010
,
0200
0000
0000
0000
0300
0000
0000
0000
0001
0000
1000
0000
0100
0000
00M0
0000
0100
0000
0002
0000
0000
0003
0000
0000
,
1000
0000
0000
0000
0000
0000
0001
0000
1000
0000
0001
0000
0100
0000
0000
00M0
0000
0000
0100
0000
0000
0000
0000
0000
,
2000
0000
0000
0000
0000
0000
3001
0000
0000
0000
1000
0000
0200
0300
0000
0000
0010
0000
0002
0003
0000
0000
1000
0000
,
0020
0030
0000
0000
0100
0000
0002
0003
0000
0000
0000
0000
1000
0000
0000
0000
0100
0000
0020
0000
0000
0030
0000
0000
,
0001
0000
1000
0100
0000
0010
0001
0000
1000
0010
0000
0100
,
0001
0000
1000
0001
0000
0100
0010
1000
0001
0010
0001
1000
,
0200
0000
0000
0310
0000
0000
0001
0000
0010
0001
0000
0000
,
1000
0000
0010
1000
0001
0100
0010
1000
0001
0010
0100
0000
,
1000
0000
0001
1000
0000
0001
1000
0000
0000
0100
000M
0100
,
0000
0000
0001
0000
1000
0000
0200
0300
0000
0000
0010
0000
0001
0000
1000
0000
0010
0000
0200
0000
0000
0300
0000
0000
,
0001
0000
1000
0000
0100
0000
0020
0030
0000
0000
0001
0000
2000
0000
3000
0000
0001
0000
0100
0000
0000
0000
0010
0000
,
2000
3000
0001
0010
0000
0100
0010
0000
0001
0000
1000
0000
,
0002
0000
0000
0000
0000
0000
1003
0000
1000
0200
0300
0010
,
0002
0003
0010
0002
0003
1000
0020
0000
0000
2030
0000
0000
,
3002
0000
0000
0000
0000
0000
1003
0000
0000
0000
0100
0000
0020
0030
0000
0000
0001
0000
1000
0000
0000
0000
0001
0000
,
0100
0000
00M0
0000
0100
0000
2000
3000
0000
0000
0001
0000
2000
3000
0000
0000
0100
0000
0020
0000
0000
0000
0000
0000
,
0032
0003
1000
0020
0000
0000
0130
0000
0000
0002
0003
1000
,
0100
0000
000M
0000
0100
0000
0002
0003
0000
0000
1000
0000
0002
0000
0000
0000
0000
0000
0203
0000
0000
0000
0000
0000
,
0320
0000
0000
1030
0000
0001
0020
0000
0000
0130
0000
1000
,
0002
0000
0000
0000
0000
0000
0203
0000
0300
0000
0010
0000
2000
0000
0000
3000
0001
0000
0020
0000
0000
0030
0000
0000
,
0000
0000
0000
0000
0000
0000
MMMM
MMMM
MMMM
MMMM
MMMM
MMMM
MMMM
0000
0000
0000
0000
0000
2000
3000
0000
0000
0000
0000
,
0100
0000
0000
00M0
0000
0000
0100
0000
0000
0000
0000
0000
0002
0000
0000
0000
0003
0000
1000
0000
0000
0000
0100
0000
,
0020
0000
0030
0000
0001
0000
2000
0000
0000
3000
0001
0000
0200
0000
0300
0000
0010
0000
2000
0000
3000
0000
0001
0000
,
0100
0000
0000
M000
0000
0000
0100
0000
0000
0000
0000
0000
2000
0000
3000
0000
0000
0000
0001
0000
0000
0000
0010
0000
,
0100
0000
1000
0001
0000
1000
0100
00M0
0100
0001
0000
0100
,
0020
0000
0000
0000
0000
0030
0000
0000
0000
0000
0000
0000
0000
0000
0000
0000
0000
0000
0000
0000
0000
0000
0000
0000
2000
0000
0000
0000
0000
3000
0000
0000
0000
0000
0000
0000
0000
0000
0000
0000
0002
0000
0000
0000
0003
0000
0000
0000
0000
0000
0000
0000
0000
0000
0000
0000
0000
0000
0000
0000
0000
0000
0000
0000
2000
0000
0000
0000
3000
0000
0000
0000
0000
0000
0000
0000
0000
0000
0000
0000
0000
0000
0000
0000
0000
0000
0000
0000
0100
0000
0000
0000
0000
0000
0000
0000
,
0002
0003
0000
0000
0000
0000
0200
0300
0000
0000
0000
0000
0020
0030
0000
0000
0001
0000
0000
0000
0000
0000
1000
0000
,
0002
0003
0000
0000
0000
0000
0200
0300
0000
0000
0001
0000
0200
0300
M000
0000
0100
0000
2000
0000
0000
0000
0000
0000
,
0001
0000
0000
3001
0000
1000
0100
0010
0001
1000
0000
0000
,
0002
0003
0000
0000
0000
0000
0100
0000
0000
00M0
0000
0000
0100
0000
0000
0000
0000
0000
2000
0000
0000
0000
3000
0000
,
0001
0000
0000
0000
0100
0000
0020
0000
0030
0000
1000
0000
0002
0000
0000
0003
1000
0000
0200
0000
0300
0000
0010
0000
,
0002
0000
0003
0000
1000
0000
0100
0000
0000
M000
0000
0000
0100
0000
0000
0000
0000
0000
0002
0000
0003
0000
0000
0000
,
1000
0000
0010
0100
0000
0001
1000
0000
0001
0100
00M0
0100
,
1000
0000
0000
0000
0000
0000
0000
0000
0000
0000
0000
0000
0000
0000
0000
0000
0001
0000
0000
0000
0000
0000
0000
0000
0020
0000
0000
0000
0000
0030
0000
0000
0000
0000
0000
0000
0000
0000
0000
0000
0000
0000
0000
0000
0000
0000
0000
0000
0200
0000
0000
0000
0300
0000
0000
0000
0000
0000
0000
0000
0000
0000
0000
0000
2000
0000
0000
0000
3000
0000
0000
0000
0000
0000
0000
0000
0000
0000
0000
0000
0000
0000
0000
0000
0000
0000
0000
0000
0002
0000
0000
0000
0003
0000
0000
0000
,
1000
0000
0000
0000
0000
0000
0020
0030
0000
0000
0000
0000
0200
0300
0000
0000
0000
0000
2000
3000
0000
0000
0000
0000
,
0001
0000
0000
0000
0000
0000
0100
0000
0000
0000
0010
0000
2000
3000
0000
0000
0001
0000
2000
0000
0000
3000
0000
0000
,
0001
0000
0000
0000
MMM0
M00M
M00M
M000
M000
M000
M000
0000
0000
0M00
0000
0M00
0M00
0M00
0M00
0000
0000
0MMM
0M0M
0M0M
,
0MM0
0M00
0M00
0M00
0000
0000
0000
0000
0MM0
0000
0000
M00M
0MM0
0000
0000
0000
0000
0000
0000
0000
0000
0000
0000
0000
;

//--------------- dance-single - SPACE GOBLIN!!! ----------------
#NOTEDATA:;
#STEPSTYPE:dance-single;
#DESCRIPTION:SPACE GOBLIN!!!;
#DIFFICULTY:Challenge;
#METER:14;
#RADARVALUES:0,0,0,0,0;
#NOTES:
0000
0000
0000
0000
,
0000
0000
0000
0000
,
0000
0000
0000
0000
,
0000
0000
0000
0000
,
0000
0000
0000
0000
0000
0000
0000
0000
0000
0000
0000
0000
0000
0000
0000
0000
1000
0000
0200
0300
0000
0000
0010
0000
,
0002
0000
1003
0002
0003
0100
0020
0000
0000
2030
0000
0000
,
0010
0000
0000
0000
0000
0000
3002
0000
0000
0000
0000
0000
1000
0000
0000
0000
0000
0000
0203
0300
0000
0000
0000
0000
,
0002
0003
0000
0000
0000
0000
2000
0000
3000
0000
0000
0000
0020
0030
0000
0000
0200
0300
0000
0000
0000
0000
0000
0000
,
2000
0000
0000
0000
0000
0000
3001
0000
1000
0200
0300
0010
,
0002
0003
0010
0002
0003
1000
0020
0000
0000
2030
0000
0000
,
3002
0000
0000
0000
0000
0000
1003
0000
0000
0000
0100
0000
0020
0030
0000
0000
0001
0000
1000
0000
0000
0000
0010
0000
,
0100
0000
00M0
0000
0100
0000
0020
0030
0000
0000
0001
0000
2000
3000
0000
0000
0100
0000
0020
0000
0000
0000
0000
0000
,
0032
0003
1000
0020
0000
0000
0130
0000
0000
0002
0003
0100
,
0010
0000
000M
0000
0010
0000
0200
0300
0000
0000
1000
0000
0002
0000
0000
0000
0000
0000
0203
0000
0000
0000
0000
0000
,
0320
0000
0000
1030
0000
0001
0020
0000
0000
0130
0000
1000
,
0002
0000
0000
0000
0000
0000
0203
0000
0300
0000
0010
0000
2000
0000
0000
3000
0001
0000
0020
0000
0000
0000
0000
0000
,
0130
0000
0000
0000
1000
0000
0010
0000
0000
0000
0000
0000
2000
0000
3000
0000
0001
0000
0020
0000
0030
0000
0100
00M0
,
0200
0000
0000
0000
0000
0000
0302
0000
0000
0000
0000
0000
2003
0000
3000
0000
0001
0000
0100
M000
0100
0000
0010
0000
,
0002
0000
0003
0000
1000
0000
0200
0000
0000
0300
0001
0000
0200
0000
0300
0000
1000
0000
0002
0000
0000
0000
0103
0000
,
2000
0000
3000
0000
0000
0000
0200
0000
0300
0000
0000
0000
0002
0000
0000
0000
0003
0000
1000
0000
0010
000M
0010
0000
,
0100
0000
1000
0001
0000
1000
0100
000M
0100
0001
0000
0100
,
2000
3000
0000
0000
0000
0000
0200
0300
0000
0000
0002
0003
0000
0000
0000
0000
2000
3000
0000
0000
0000
0000
0100
0000
,
0002
0003
0000
0000
0000
0000
0200
0300
0000
0000
0000
0000
0020
0030
0000
0000
0001
0000
0000
0000
0000
0000
1000
0000
,
0002
0003
0000
0000
0000
0000
0200
0300
0000
0000
0010
0000
0200
0300
M000
0000
0100
0000
0020
0000
0000
0000
0000
0000
,
0001
0000
0000
0031
0000
1000
0100
0000
0010
0002
0000
0000
,
2003
0000
0000
0000
0000
0000
3020
0000
0030
0000
0100
0000
0010
0000
0000
0000
1000
0000
0002
0000
0000
0003
0000
0000
,
1000
0000
0001
0000
0010
0000
0002
0000
0000
0003
1000
0000
0010
0000
0100
0000
0001
0000
1000
0000
0100
0000
0010
0000
,
0001
1000
0001
0100
0010
1000
0002
0003
0000
MMMM
0000
0000
,
2000
3000
0010
0100
0010
1000
0001
0010
0100
2000
3000
0100
,
0010
0001
1000
0010
0100
0001
0100
00M0
0100
0000
1000
0000
,
0001
0010
0100
0010
0001
1000
0010
0100
0010
1000
0001
0010
,
0100
1000
0001
2000
3001
0100
0020
0000
0030
1000
0001
1000
,
0100
0000
0010
0001
1000
0010
0100
0001
1000
0001
0010
0100
,
2000
3000
0000
0000
0000
0000
0001
0000
0000
0000
0100
0000
0010
0000
0000
0000
1000
0000
0100
0000
00M0
0000
0100
0000
,
0001
0000
1000
0000
0100
0000
0010
0000
0100
M000
0100
0000
0001
0000
0100
0000
0010
0000
1000
0000
0100
00M0
0100
0000
,
0001
1000
0100
0010
0000
0001
2000
3000
0000
MMMM
0000
0000
,
1000
0000
0010
0000
0100
0000
0001
0000
1000
0001
1000
0000
0100
0000
0010
0000
0001
0000
1000
0000
0001
0000
0010
0000
,
0100
1000
0001
0100
0010
1000
0001
0000
0100
00M0
0100
0000
,
1000
0100
0010
0001
1000
0010
0100
0001
1000
0200
0300
0010
,
0001
1000
0010
0200
0000
0000
0301
0000
1000
0010
0100
0001
,
1000
0000
0000
0000
0100
0000
0010
0000
0100
M000
0100
0000
0001
0000
0100
M000
0100
0000
1000
0000
0000
0000
0000
0000
,
1001
0000
0000
0000
,
2000
3000
0010
0200
0300
0001
2000
0000
0000
3001
0010
0100
,
2000
0000
3000
0000
0001
0000
0100
0000
0001
0000
1000
0000
0100
0000
1000
0000
0001
0000
0200
0300
0010
0000
1000
0000
,
0002
0000
0000
0003
0000
0000
1000
0000
0000
0000
0100
0000
0002
0000
0003
0000
0100
0000
1000
0000
0000
0000
0001
0000
,
0100
0000
1000
0100
0000
0001
0010
1000
0010
0001
1000
0001
,
0200
0000
0000
0000
0300
0000
0000
0000
0001
0000
1000
0000
0010
0000
0100
M000
0100
0000
2000
0000
0000
0000
0000
0000
,
3001
0000
0000
0000
0000
0000
1000
0000
0001
0000
0010
M000
0010
0000
1000
0000
0000
0000
0002
0000
0000
0000
0000
0000
,
2003
0000
0000
0000
0000
0000
3001
0000
0000
0000
1000
0000
0200
0300
0000
0000
0010
0000
0002
0003
0000
0000
1000
0000
,
0020
0030
0000
0000
0100
0000
0002
0003
0000
0000
1000
0000
0001
0000
1000
0000
0100
0000
0020
0000
0000
0030
0000
0000
,
0001
1000
0001
0100
0001
1000
0100
1000
0100
1000
0001
0010
,
0100
0000
0010
0000
0100
M000
0100
0000
0010
0000
0100
0000
0010
0000
1000
0000
0100
0000
0010
0000
0001
0000
1000
0000
,
0020
0000
0000
0130
0000
0000
0001
0010
0001
1000
0010
1000
,
0010
0000
0100
0000
0010
0000
1000
0000
0001
0000
0010
0000
0100
0000
1000
0000
0001
0000
1000
0000
0100
00M0
0100
0000
,
0001
0100
0010
1000
0001
0010
0100
1000
0001
0100
0000
0010
,
0100
0000
0010
0000
1000
0000
0002
0003
0000
0000
0010
0000
0001
0000
1000
0000
0010
0000
0200
0000
0000
0300
0000
0000
,
0001
0000
1000
0000
0100
0000
0020
0030
0000
0000
0001
0000
2000
0000
3000
0000
0001
0000
0100
0000
0000
0000
0010
0000
,
2000
3000
0001
0010
0000
0100
0010
0000
0001
0000
1000
0000
,
0002
0000
0000
0000
0000
0000
0000
0000
0000
0000
0000
0000
1003
0000
0000
0000
0001
0000
0200
0300
0000
0000
0010
0000
,
2000
0000
3001
0020
0030
0100
2000
0000
0000
3002
0000
0000
,
0010
0000
0000
2003
0000
0000
0010
0000
0000
3001
0000
1000
,
0200
0300
0010
0002
0003
0010
0002
0003
1000
0020
0000
0000
,
2030
0000
0000
0000
0000
0000
3002
0000
0000
0000
0000
0000
1003
0000
0000
0000
0100
0000
0020
0030
0000
0000
0001
0000
,
1000
0000
0000
0000
0010
0000
0100
0000
M000
0000
0100
0000
0020
0030
0000
0000
0001
0000
2000
3000
0000
0000
0100
0000
,
0020
0000
0000
0032
0003
1000
0020
0000
0000
0130
0000
0000
,
0002
0000
0003
0000
0100
0000
0010
0000
000M
0000
0010
0000
0200
0300
0000
0000
1000
0000
0002
0000
0000
0003
0000
0000
,
0000
0000
0000
0000
0000
0000
0000
0000
0000
0000
MMMM
0000
M000
0000
M000
0MM0
M000
0000
M000
0000
M000
0000
0000
0000
0000
0000
0000
0000
0000
0000
0000
0000
0001
0000
0000
0000
0020
0000
0000
0000
0030
0000
0000
0000
0100
0000
M000
0000
,
0200
0000
0000
0000
0000
0000
0302
0000
0000
0000
0000
0000
2003
0000
3000
0000
0001
0000
0100
M000
0100
0000
0010
0000
,
0002
0000
0003
0000
1000
0000
0200
0000
0000
0300
0001
0000
0200
0000
0300
0000
1000
0000
0002
0000
0000
0000
0103
0000
,
2000
0000
3000
0000
0000
0000
0200
0000
0300
0000
0000
0000
0002
0000
0000
0000
0003
0000
1000
0000
0010
000M
0010
0000
,
0100
0000
1000
0001
0000
1000
0100
00M0
0100
0001
0000
0100
,
2000
3000
0000
0000
0000
0000
0200
0300
0000
0000
0002
0003
0000
0000
0000
0000
2000
3000
0000
0000
0000
0000
0100
0000
,
0002
0003
0000
0000
0000
0000
0200
0300
0000
0000
0000
0000
0020
0030
0000
0000
0001
0000
0000
0000
0000
0000
1000
0000
,
0002
0003
0000
0000
0000
0000
0200
0300
0000
0000
0010
0000
0200
0300
M000
0000
0100
0000
0020
0000
0000
0000
0000
0000
,
0001
0000
0000
0000
0000
0000
0031
0000
0000
0000
1000
0000
0100
0000
0000
0000
0010
0000
0002
0003
0000
0000
0001
0000
,
0020
0000
0030
0000
0100
00M0
0200
0000
0000
0000
0000
0000
0302
0000
0000
0000
0000
0000
2003
0000
3000
0000
0001
0000
,
1000
0000
0000
0000
0001
0000
0100
M000
0100
0000
0010
0000
0002
0000
0003
0000
1000
0000
0200
0000
0000
0300
0001
0000
,
0200
0300
1000
0002
0000
0103
2000
3000
0000
0200
0300
0000
,
0002
0000
0000
0000
0003
0000
1000
0000
0010
000M
0010
0000
0100
0000
0000
0000
1000
0000
0001
0000
0000
0000
1000
0000
,
0100
0000
000M
0000
0100
0000
0001
0000
0000
0000
0100
0000
2000
3000
0000
0000
0000
0000
0200
0300
0000
0000
0002
0003
,
0000
0000
0000
0000
2000
3000
0000
0000
0000
0000
0100
0000
0002
0003
0000
0000
0000
0000
0200
0300
0000
0000
0000
0000
,
0020
0030
0000
0000
0001
0000
1000
0000
0000
0000
0010
0000
0200
0300
0000
0000
0000
0000
0002
0003
0000
0000
0010
0000
,
0200
0000
0300
0000
0000
0000
MMMM
M00M
M00M
M000
M000
M000
0000
0M00
0000
0M00
0M00
0M00
0M00
0000
0000
0MMM
0M0M
0M0M
,
0MM0
0M00
0M00
0M00
0000
0000
0000
0000
0MM0
0000
0000
M00M
0MM0
0000
0000
0000
0000
0000
0000
0000
0000
0000
0000
0000
;
