#VERSION:0.83;
#TITLE:Datura [paroxysm];
#SUBTITLE:;
#ARTIST:Crywolf;
#TITLETRANSLIT:;
#SUBTITLETRANSLIT:;
#ARTISTTRANSLIT:;
#GENRE:;
#ORIGIN:;
#CREDIT:Bumble;
#BANNER:banner.avi;
#BACKGROUND:bg.jpg;
#PREVIEWVID:;
#JACKET:jacket.avi;
#CDIMAGE:;
#DISCIMAGE:;
#LYRICSPATH:;
#CDTITLE:cdtitle.png;
#MUSIC:datura -paroxysm-.ogg;
#OFFSET:-1.200000;
#SAMPLESTART:20.400000;
#SAMPLELENGTH:9.600000;
#SELECTABLE:YES;
#DISPLAYBPM:75.000;
#BPMS:0.000=75.000,
26.000=150.000,
26.083=60.180,
26.250=150.000,
26.333=60.180,
26.500=150.000,
26.583=60.180,
26.750=75.000,
27.500=150.000,
27.583=60.180,
27.750=75.000,
30.500=150.000,
30.583=60.180,
30.750=150.000,
30.833=60.180,
31.000=150.000,
31.083=60.180,
31.250=75.000;
#STOPS:;
#DELAYS:;
#WARPS:;
#TIMESIGNATURES:0.000=6=8;
#TICKCOUNTS:0.000=4;
#COMBOS:0.000=1;
#SPEEDS:0.000=1.000=0.000=0;
#SCROLLS:0.000=1.000;
#FAKES:;
#LABELS:0.000=Song Start;
#BGCHANGES:0.000=paroxysm.mkv=0.000=0=0=0=StretchNoLoop====,
99999=-nosongbg-=1.000=0=0=0 // don't automatically add -songbackground-
;
#FGCHANGES:0.000=lua=1.000=0=0=1=====,
;
#KEYSOUNDS:;
#ATTACKS:
;

//---------------dance-single - [Mods+] XO FS DS-----------------
#NOTEDATA:;
#CHARTNAME:;
#STEPSTYPE:dance-single;
#DESCRIPTION:[Mods+] XO FS DS-;
#CHARTSTYLE:;
#DIFFICULTY:Challenge;
#METER:14;
#RADARVALUES:0.454555,0.489594,0.057721,0.367973,0.710694,441.000000,433.000000,8.000000,51.000000,15.000000,0.000000,0.000000,0.000000,0.000000,0.454555,0.489594,0.057721,0.367973,0.710694,441.000000,433.000000,8.000000,51.000000,15.000000,0.000000,0.000000,0.000000,0.000000;
#CREDIT:Bumble;
#NOTES:
// measure 0
0000
0000
0000
0000
,  // measure 1
0000
0000
0000
0000
,  // measure 2
0000
0000
0000
0000
,  // measure 3
0000
1000
0010
1000
0010
0100
0002
0000
0013
0100
0020
0000
0030
0100
1000
0100
,  // measure 4
1000
0001
2000
0000
3010
0100
0020
0000
0030
0100
0001
1000
0100
0010
0001
0100
,  // measure 5
0001
0010
0002
0000
0003
0010
0001
1000
0100
1000
0001
0100
0010
0100
0002
0000
,  // measure 6
0003
0000
1000
0000
0001
0000
1000
0000
0010
0000
1000
0000
0100
0000
1000
0000
0001
0000
0100
00M0
0100
0000
1000
0000
0010
0000
1000
0000
0001
0000
1000
0000
,  // measure 7
0000
0000
1000
0000
0001
0000
0100
0000
0010
0000
1000
0000
0001
0000
0100
0000
0001
0000
1000
0000
0100
M000
0100
0000
0100
0000
0010
0000
0100
0000
1000
0000
,  // measure 8
0010
0000
0100
0000
0001
0000
1000
0000
0100
0000
1000
0000
0100
0000
0010
0000
1000
0000
0010
0000
0001
0000
0000
1000
0010
0000
0100
0000
0010
0000
1000
0000
,  // measure 9
0200
0020
0000
0000
0000
0330
0001
0001
0010
0001
0100
0010
0100
0001
1000
0100
,  // measure 10
1000
0000
0001
0000
0100
0000
0001
0000
0100
0000
0010
0000
0100
0000
1000
0000
0100
0000
0010
0000
0100
0000
0001
0000
0010
0000
0001
0000
0100
M000
0100
0000
,  // measure 11
0100
0100
0010
0001
1000
0100
1000
0010
0100
0010
1000
0100
0010
0100
1000
0001
,  // measure 12
0000
0000
0202
0000
0000
0303
0100
0001
1000
0010
0100
0001
0010
0000
2002
0000
,  // measure 13
3003
0000
1000
0100
1000
0001
0100
1000
0100
0000
0220
0000
0330
0000
0001
0100
,  // measure 14
0010
1000
0100
0010
0000
0000
0022
0000
0033
0000
0010
0001
1000
0010
0100
0010
,  // measure 15
0200
0000
0001
0000
1000
0300
0200
0000
0301
0000
0020
0000
1000
0000
0001
0000
,  // measure 16
1030
0020
0100
0130
2000
3010
2000
3100
,  // measure 17
2000
0000
0000
3000
0200
0000
0310
0001
0010
0001
0020
0000
0100
0000
0130
0000
,  // measure 18
2000
0000
3000
0000
0100
00M0
0100
0000
0001
0000
0100
00M0
0100
0000
1000
0000
0002
0000
0000
0000
0003
0000
0000
0000
2000
0000
3000
0000
0100
0000
0010
0000
,  // measure 19
0100
0000
1000
0000
0002
0000
0000
0003
0010
M000
0010
0000
2000
0000
0000
3000
0020
0000
0000
0030
0100
000M
0100
0000
1000
0000
0100
00M0
0100
0000
0001
0000
,  // measure 20
2000
0000
3000
0000
0002
0000
0013
0100
0010
0100
2000
0000
0000
0000
0000
0000
,  // measure 21
0002
0000
0000
0000
,  // measure 22
0000
0000
0000
0000
0000
3003
0000
0000
,  // measure 23
0000
0000
0000
0000
,  // measure 24
0000
0000
0000
0000
0000
0001
1000
0001
,  // measure 25
1000
0000
0001
0000
1000
0000
0001
0000
1000
0000
0001
1000
0001
0100
0001
1000
,  // measure 26
0001
0000
0010
0000
0100
0000
1000
0000
0100
M000
0100
0000
0010
000M
0010
0000
0001
0000
0100
0000
0001
0000
1000
0000
0001
0000
1000
0000
0100
0000
0010
0000
,  // measure 27
0001
0000
0100
0000
0001
0000
0010
0000
0001
0000
0100
00M0
0100
0000
0010
0000
0001
0000
1000
0000
0100
0000
0010
0000
0100
0000
1000
0000
0001
0000
0010
0000
,  // measure 28
0001
0100
0010
1000
0010
0100
0001
1000
0010
1000
0100
1000
0002
0013
2000
3100
,  // measure 29
0002
0000
0013
0000
0001
0000
0001
0000
0010
0000
0100
0000
1000
0000
0100
00M0
0100
0000
0100
0000
1000
0000
0100
0000
0010
0000
0100
0000
1000
0000
0010
0000
,  // measure 30
0100
0000
0001
0000
1000
0000
0100
0000
1000
0000
0001
0000
1000
0000
0100
00M0
0100
0000
0001
0000
01M0
0000
0100
0000
1000
0000
0100
00M0
0100
0000
0001
0000
,  // measure 31
1000
0010
0100
0001
0010
0100
2000
0000
0000
0000
0000
3000
0001
1000
0001
0010
,  // measure 32
0001
0100
0010
0001
0010
0100
0001
0010
0001
0010
0100
1000
0100
0010
1000
0010
,  // measure 33
0001
0010
0001
1000
0010
0100
0001
0100
0010
0100
1000
0100
0010
1000
0001
1000
,  // measure 34
0001
0010
0001
1000
0100
0010
0100
0001
0100
1000
0010
0100
0001
1000
0100
1000
,  // measure 35
0010
0001
1000
0001
0010
0100
0010
0100
0001
0010
0001
0010
1000
0001
1000
0010
,  // measure 36
0001
0100
0010
1000
0001
1000
0100
1000
0010
0001
1000
0001
0010
0100
0001
0100
,  // measure 37
0001
0010
0001
0010
1000
0001
1000
0010
0001
0100
0010
1000
0001
0000
0102
0000
,  // measure 38
1000
0000
0013
0000
0021
0000
0100
0030
0010
0000
0102
0000
0100
0000
1003
0000
,  // measure 39
1020
0000
0100
0030
0010
0000
2000
3000
0200
0300
2000
3000
0002
0003
0020
0030
,  // measure 40
0002
0003
0200
0000
0000
0000
0020
0000
0000
0000
0000
0000
0000
0000
0000
0000
,  // measure 41
0000
0330
0000
0000
0000
0000
0000
0000
;

//---------------dance-single - [Mods+]----------------
#NOTEDATA:;
#CHARTNAME:;
#STEPSTYPE:dance-single;
#DESCRIPTION:[Mods+];
#CHARTSTYLE:;
#DIFFICULTY:Hard;
#METER:12;
#RADARVALUES:0.408172,0.474758,0.086582,0.425695,0.483416,396.000000,384.000000,12.000000,59.000000,0.000000,0.000000,0.000000,0.000000,0.000000,0.408172,0.474758,0.086582,0.425695,0.483416,396.000000,384.000000,12.000000,59.000000,0.000000,0.000000,0.000000,0.000000,0.000000;
#CREDIT:Bumble;
#NOTES:
0000
0000
0000
0000
,
0000
0000
0000
0000
,
0000
0000
0000
0000
,
0000
1000
0001
0100
0001
1000
0002
0000
0103
0010
2000
0000
3000
0100
1000
0100
,
1000
0001
2000
0000
3001
0010
0002
0000
0003
0100
0001
1000
0010
1000
0200
0000
,
1300
0100
0020
0000
0030
0010
0001
1000
0100
1000
0002
0000
0013
0100
2000
0000
,
3000
1000
0001
0010
0001
1000
0100
1000
0001
0100
0100
0001
0010
0001
1000
0002
,
0000
1003
0001
0100
0010
0100
0001
0010
0001
1000
0020
0100
0130
0001
0100
0010
,
1000
0000
0001
0000
1000
0000
0010
0000
1000
0000
0010
0000
1000
0000
0100
0000
0020
0000
0000
0030
0001
0000
0000
0010
0100
0000
1000
0000
0100
0000
1000
0000
,
0002
0200
0000
0000
0000
0303
0100
0001
0010
0001
0100
0010
1000
0000
0001
0000
,
0010
0000
0001
0000
1000
0100
0010
0001
0100
0000
0100
0001
0010
0100
1000
0010
,
1000
0010
1000
0100
0010
0000
0010
0100
1000
0010
0100
0001
1000
0000
1000
0001
,
0000
0000
0202
0000
0000
0303
0100
0001
1000
0010
0100
0001
0100
0000
2002
0000
,
3003
0000
1000
0100
1000
0001
0100
0010
0100
0000
0220
0000
0330
0000
0001
0100
,
0010
1000
0100
0010
0000
0000
0022
0000
0033
0000
0010
0001
1000
0010
0100
0010
,
0200
0000
0001
0000
0010
0300
0200
0000
0301
0000
0020
0000
0001
0000
0100
0000
,
0031
0020
0100
0130
2000
3010
2000
3100
,
2000
0000
0000
3000
0200
0000
0310
0000
0001
0000
0020
0000
0100
0000
0130
0000
,
2000
3000
0001
0010
0001
0010
0001
1000
0002
0000
0003
0000
2000
3000
0010
0100
,
0001
0000
0100
0000
0002
0000
0000
0000
0103
0000
0100
0000
0002
0000
0000
0000
0203
0000
0000
0300
0010
0000
1000
0000
0100
0000
1000
0000
0100
0000
1000
0000
,
0200
0000
0000
0300
0000
0000
0000
0000
0020
0000
0000
0030
0001
0000
1000
0000
0001
0000
1000
0000
0002
0000
0000
0000
0000
0000
0000
0000
0000
0000
0000
0000
,
2000
0000
0000
0000
,
0000
0000
0000
0000
0000
3003
0000
0000
,
0000
0000
0000
0000
,
0000
0000
0000
0000
0000
0001
1000
0001
,
1000
0000
0001
0000
1000
0000
0001
0000
1000
0000
0001
1000
0001
0000
1000
0000
,
0001
0000
0010
0000
0200
0000
0000
0000
0310
0000
0001
0000
0010
0000
0001
0000
1000
0000
0000
0000
1000
0000
0100
0000
1000
0000
0010
0000
0200
0000
0000
0300
,
0001
0000
1000
0000
0001
0000
1000
0010
0100
0010
2000
0000
3010
0100
0001
1000
,
0100
1000
0100
0010
0001
1000
0002
0000
0103
0010
0100
0001
1000
0100
0010
0001
,
0010
0100
1000
0000
0001
0000
1000
0100
0010
0100
1000
0000
1000
0001
0020
0000
,
0031
0000
1000
0000
0100
0000
1000
0000
0010
0000
0000
0000
0100
0000
0001
0000
0100
0000
0010
0000
0200
0000
0000
0300
0100
0000
0001
0000
0100
0000
0010
0000
,
1000
0000
0000
0000
1000
0000
0100
0000
0010
0000
0100
0000
2000
0000
0000
0000
0000
0000
0000
0000
0000
3000
0000
0000
0001
0000
1000
0000
0001
0000
0010
0000
,
0001
0000
1001
0000
0001
0100
0001
0100
0010
0000
0010
0100
0001
0000
0101
0000
,
0001
0100
0010
1000
0010
1000
0001
0010
0001
0000
1010
0000
0001
1000
0001
1000
,
0001
0010
0001
1000
0100
0010
0100
0000
0010
0000
0100
0000
1000
0001
0010
0001
,
1000
0000
1010
0000
1000
0010
0100
0001
0100
0010
1000
0100
1000
0000
0101
0000
,
1000
0001
0010
0100
1000
0010
0100
0010
1000
0000
0101
0000
0100
0001
1000
0100
,
0010
0001
1000
0010
1000
0000
1001
0000
1000
0000
1001
0000
0001
0000
0002
0000
,
0100
0000
0000
0000
0013
0000
0000
0000
0020
0000
0000
0000
0001
0000
0030
0000
0010
0000
0000
0000
0200
0000
0000
0000
0010
0300
0000
0000
0010
0000
0000
0000
,
0002
0000
0013
0000
0001
0000
2000
3000
0200
0300
2000
3000
0002
0003
0200
0300
,
0002
0003
2000
0000
0000
0000
0020
0000
0000
0000
0000
0000
0000
0000
0000
0000
,
0000
3030
0000
0000
0000
0000
0000
0000
;

//---------------dance-single - [No Mods] XO FS DS-----------------
#NOTEDATA:;
#CHARTNAME:;
#STEPSTYPE:dance-single;
#DESCRIPTION:[No Mods] XO FS DS-;
#CHARTSTYLE:;
#DIFFICULTY:Edit;
#METER:14;
#RADARVALUES:0.454555,0.489594,0.057721,0.367973,0.710694,441.000000,433.000000,8.000000,51.000000,15.000000,0.000000,0.000000,0.000000,0.000000,0.454555,0.489594,0.057721,0.367973,0.710694,441.000000,433.000000,8.000000,51.000000,15.000000,0.000000,0.000000,0.000000,0.000000;
#CREDIT:Bumble;
#NOTES:
0000
0000
0000
0000
,
0000
0000
0000
0000
,
0000
0000
0000
0000
,
0000
1000
0010
1000
0010
0100
0002
0000
0013
0100
0020
0000
0030
0100
1000
0100
,
1000
0001
2000
0000
3010
0100
0020
0000
0030
0100
0001
1000
0100
0010
0001
0100
,
0001
0010
0002
0000
0003
0010
0001
1000
0100
1000
0001
0100
0010
0100
0002
0000
,
0003
0000
1000
0000
0001
0000
1000
0000
0010
0000
1000
0000
0100
0000
1000
0000
0001
0000
0100
00M0
0100
0000
1000
0000
0010
0000
1000
0000
0001
0000
1000
0000
,
0000
0000
1000
0000
0001
0000
0100
0000
0010
0000
1000
0000
0001
0000
0100
0000
0001
0000
1000
0000
0100
M000
0100
0000
0100
0000
0010
0000
0100
0000
1000
0000
,
0010
0000
0100
0000
0001
0000
1000
0000
0100
0000
1000
0000
0100
0000
0010
0000
1000
0000
0010
0000
0001
0000
0000
1000
0010
0000
0100
0000
0010
0000
1000
0000
,
0200
0020
0000
0000
0000
0330
0001
0001
0010
0001
0100
0010
0100
0001
1000
0100
,
1000
0000
0001
0000
0100
0000
0001
0000
0100
0000
0010
0000
0100
0000
1000
0000
0100
0000
0010
0000
0100
0000
0001
0000
0010
0000
0001
0000
0100
M000
0100
0000
,
0100
0100
0010
0001
1000
0100
1000
0010
0100
0010
1000
0100
0010
0100
1000
0001
,
0000
0000
0202
0000
0000
0303
0100
0001
1000
0010
0100
0001
0010
0000
2002
0000
,
3003
0000
1000
0100
1000
0001
0100
1000
0100
0000
0220
0000
0330
0000
0001
0100
,
0010
1000
0100
0010
0000
0000
0022
0000
0033
0000
0010
0001
1000
0010
0100
0010
,
0200
0000
0001
0000
1000
0300
0200
0000
0301
0000
0020
0000
1000
0000
0001
0000
,
1030
0020
0100
0130
2000
3010
2000
3100
,
2000
0000
0000
3000
0200
0000
0310
0001
0010
0001
0020
0000
0100
0000
0130
0000
,
2000
0000
3000
0000
0100
00M0
0100
0000
0001
0000
0100
00M0
0100
0000
1000
0000
0002
0000
0000
0000
0003
0000
0000
0000
2000
0000
3000
0000
0100
0000
0010
0000
,
0100
0000
0000
0000
0000
0000
0000
0000
0000
0000
0000
0000
1000
0000
0000
0000
0000
0000
0000
0000
0000
0000
0000
0000
0002
0000
0000
0000
0000
0000
0000
0000
0000
0000
0000
0000
0000
0000
0000
0000
0000
0000
0003
0000
0000
0000
0000
0000
0010
0000
0000
0000
0000
0000
M000
0000
0000
0000
0000
0000
0010
0000
0000
0000
0000
0000
0000
0000
0000
0000
0000
0000
2000
0000
0000
0000
0000
0000
0000
0000
0000
0000
0000
0000
0000
0000
0000
0000
0000
0000
3000
0000
0000
0000
0000
0000
0020
0000
0000
0000
0000
0000
0000
0000
0000
0000
0000
0000
0000
0000
0000
0000
0000
0000
0030
0000
0000
0000
0000
0000
0100
0000
0000
0000
0000
0000
0000
000M
0000
0000
0000
0000
0100
0000
0000
0000
0000
0000
0000
0000
0000
0000
0000
0000
1000
0000
0000
0000
0000
0000
0000
0000
0000
0000
0000
0000
0100
0000
0000
0000
0000
0000
00M0
0000
0000
0000
0000
0000
0100
0000
0000
0000
0000
0000
0000
0000
0000
0000
0000
0000
0001
0000
0000
0000
0000
0000
0000
0000
0000
0000
0000
0000
,
2000
0000
3000
0000
0002
0000
0013
0100
0010
0100
2000
0000
0000
0000
0000
0000
,
0002
0000
0000
0000
,
0000
0000
0000
0000
0000
3003
0000
0000
,
0000
0000
0000
0000
,
0000
0000
0000
0000
0000
0001
1000
0001
,
1000
0000
0001
0000
1000
0000
0001
0000
1000
0000
0001
1000
0001
0100
0001
1000
,
0001
0000
0010
0000
0100
0000
1000
0000
0100
M000
0100
0000
0010
000M
0010
0000
0001
0000
0100
0000
0001
0000
1000
0000
0001
0000
1000
0000
0100
0000
0010
0000
,
0001
0000
0100
0000
0001
0000
0010
0000
0001
0000
0100
00M0
0100
0000
0010
0000
0001
0000
1000
0000
0100
0000
0010
0000
0100
0000
1000
0000
0001
0000
0010
0000
,
0001
0100
0010
1000
0010
0100
0001
1000
0010
1000
0100
1000
0002
0013
2000
3100
,
0002
0000
0013
0000
0001
0000
0001
0000
0010
0000
0100
0000
1000
0000
0100
00M0
0100
0000
0100
0000
1000
0000
0100
0000
0010
0000
0100
0000
1000
0000
0010
0000
,
0100
0000
0001
0000
1000
0000
0100
0000
1000
0000
0001
0000
1000
0000
0100
00M0
0100
0000
0001
0000
01M0
0000
0100
0000
1000
0000
0100
00M0
0100
0000
0001
0000
,
1000
0010
0100
0001
0010
0100
2000
0000
0000
0000
0000
3000
0001
1000
0001
0010
,
0001
0100
0010
0001
0010
0100
0001
0010
0001
0010
0100
1000
0100
0010
1000
0010
,
0001
0010
0001
1000
0010
0100
0001
0100
0010
0100
1000
0100
0010
1000
0001
1000
,
0001
0010
0001
1000
0100
0010
0100
0001
0100
1000
0010
0100
0001
1000
0100
1000
,
0010
0001
1000
0001
0010
0100
0010
0100
0001
0010
0001
0010
1000
0001
1000
0010
,
0001
0100
0010
1000
0001
1000
0100
1000
0010
0001
1000
0001
0010
0100
0001
0100
,
0001
0010
0001
0010
1000
0001
1000
0010
0001
0100
0010
1000
0001
0000
0102
0000
,
1000
0000
0013
0000
0021
0000
0100
0030
0010
0000
0102
0000
0100
0000
1003
0000
,
1020
0000
0100
0030
0010
0000
2000
3000
0200
0300
2000
3000
0002
0003
0020
0030
,
0002
0003
0200
0000
0000
0000
0020
0000
0000
0000
0000
0000
0000
0000
0000
0000
,
0000
0330
0000
0000
0000
0000
0000
0000
;
