#VERSION:0.83;
#TITLE:Dark Side of the Moon;
#SUBTITLE:;
#ARTIST:Ernesto Vs Bastian;
#TITLETRANSLIT:;
#SUBTITLETRANSLIT:;
#ARTISTTRANSLIT:;
#GENRE:;
#CREDIT:Braeden;
#MUSIC:Dark Side of the Moon.ogg;
#BANNER:ban.png;
#BACKGROUND:bg.png;
#CDTITLE:;
#SAMPLESTART:34.150;
#SAMPLELENGTH:11.900;
#SELECTABLE:YES;
#OFFSET:-0.040;
#BPMS:0.000=138.000
,240.000=69.000
;
#STOPS:;
#JACKET:jacket.png;
#BGCHANGES:;
#FGCHANGES:;

//--------------- dance-single - mods ----------------
#NOTEDATA:;
#STEPSTYPE:dance-single;
#DESCRIPTION:mods;
#DIFFICULTY:Beginner;
#METER:1;
#RADARVALUES:0,0,0,0,0;
#NOTES:
0000
0000
0000
0000
,
0000
0000
0000
0000
,
2000
0000
0000
0000
,
0000
0000
3000
0000
,
0001
0000
0000
0000
,
0100
0000
0000
0000
,
0010
0000
0000
0000
,
1000
0000
0000
0000
,
0001
0000
0000
0000
,
0010
0000
0000
0000
,
0001
0000
0000
0000
,
1000
0000
0000
0000
,
0010
0000
0000
0000
,
1000
0000
0000
0000
,
0001
0000
0000
0000
,
0100
0000
0000
0000
,
0010
0000
0000
0000
,
1000
0000
0000
0000
,
0100
0000
0000
0000
,
0010
0000
0000
0000
,
0001
0000
1000
0000
,
0001
0000
0000
0000
,
0100
0000
0010
0000
,
0100
0000
0000
0000
,
0001
0000
0000
0000
,
1000
0000
0000
0000
,
0001
0000
0000
0000
,
0100
0000
0000
0000
,
0001
0000
0000
0000
,
1000
0000
0000
0000
,
0010
0000
0000
0000
,
0100
0000
0000
0000
,
0001
0000
0000
0000
,
1000
0000
0000
0000
,
0100
0000
0000
0000
,
1000
0000
0000
0000
,
0002
0000
0000
0000
,
0003
0000
0000
0000
,
2000
0000
0000
0000
,
3000
0000
0000
0000
,
0010
0000
0000
0000
,
0100
0000
0000
0000
,
0001
0000
0000
0000
,
1000
0000
0000
0000
,
0001
0000
0000
0000
,
0100
0000
0000
0000
,
0010
0000
0000
0000
,
1000
0000
0000
0000
,
0001
0000
0000
0000
,
0010
0000
0000
0000
,
0001
0000
0000
0000
,
1000
0000
0000
0000
,
0010
0000
0000
0000
,
1000
0000
0000
0000
,
0001
0000
0000
0000
,
0010
0000
0000
0000
,
0100
0000
0000
0000
,
1000
0000
0000
0000
,
0001
0000
0000
0000
,
1000
0000
0000
0000
,
0002
0000
0003
0000
,
2000
0000
3000
0000
,
0020
0000
0030
0000
,
0020
0000
0030
0000
;

//--------------- dance-single - mods ----------------
#NOTEDATA:;
#STEPSTYPE:dance-single;
#DESCRIPTION:mods;
#DIFFICULTY:Easy;
#METER:5;
#RADARVALUES:0.277,0.339,0.152,0.085,0;
#NOTES:
0000
0000
0000
0000
,
0000
0000
0000
0000
,
2000
0000
0000
0000
,
0000
0000
0000
0000
,
3002
0100
1000
0103
,
0000
0010
1000
0001
,
2000
0001
3100
1000
,
0000
0001
0100
0001
,
1000
0000
0000
0100
0000
0010
0000
0002
,
0000
1003
0000
0001
,
1000
0010
1000
0001
,
0010
0100
1000
0001
,
1000
0000
0000
0002
0000
0000
0003
0000
,
1000
0001
0100
0010
,
1000
0000
0000
0020
0000
0000
0030
0000
,
1000
0001
1000
0010
,
0100
0001
0010
0002
,
0000
0000
0003
0000
0000
1000
0000
0020
,
0000
0130
0001
0010
,
0100
0000
1000
0000
0001
0000
0000
1000
,
0000
0010
0000
1000
0000
0001
0000
0200
,
0000
0000
0300
0000
0000
0000
0000
0010
,
0000
1000
0000
0001
0000
0010
0000
0002
,
0000
0000
0003
0000
0000
0000
0000
1000
,
0000
0001
0000
0100
0000
0010
0000
2000
,
0000
3200
0000
0310
0000
0001
0000
0000
,
1000
0000
0010
0000
,
0100
0000
0001
0000
,
1000
0001
1000
0001
,
1000
0010
0100
0001
,
0011
0001
0100
0010
,
1000
0001
0100
0001
,
1001
1000
0100
0010
,
0001
0100
0010
1000
,
0001
0100
0010
1000
,
0100
0010
0001
1000
,
0002
0100
1000
1003
,
0000
0010
0000
0100
,
0002
0010
1003
0000
,
0010
0100
0001
1000
,
0010
0000
0000
1000
0000
0001
0000
0100
,
0000
0010
0000
1000
,
0001
0010
0001
0010
,
0110
0000
0100
0000
0000
0010
0000
0001
,
0000
1000
0000
0010
0000
0100
0000
0002
,
0000
0000
0003
0000
0000
0000
0000
1000
,
0000
0010
0000
0100
0000
0001
0000
0200
,
0000
0000
0300
0000
0000
0000
0000
0010
,
0000
1000
0000
0001
0000
0010
0000
0002
,
0000
0023
0000
0031
0000
1000
0000
0020
,
0000
0130
0000
0001
0000
1000
0000
0000
,
1001
0000
0001
0000
0001
0000
0000
1000
,
0000
0100
0000
1000
0000
0001
0000
0020
,
0000
0000
0030
0000
0000
0000
0000
0100
,
0000
0010
0000
0100
0000
0010
0000
0200
,
0000
0300
0000
0000
0000
0000
0000
1000
,
0000
0001
0000
0100
0000
0001
0000
0100
,
0000
0010
0000
1000
0000
0100
0000
0000
,
0010
0000
0001
0000
,
1000
0000
0010
0000
,
2000
0000
0000
3010
0000
0000
0100
0001
,
0200
0000
0000
0000
0000
0000
0000
0300
0000
0000
0000
0000
0000
0000
0000
0000
,
0002
0000
0000
1003
0000
0000
0010
0010
,
2000
0000
0000
0000
0000
0000
0000
3000
0000
0000
0000
0000
0000
0000
0000
0000
;

//--------------- dance-single - mods XO ----------------
#NOTEDATA:;
#STEPSTYPE:dance-single;
#DESCRIPTION:mods XO;
#DIFFICULTY:Medium;
#METER:9;
#RADARVALUES:0.321,0.367,0.093,0.085,0;
#NOTES:
0000
0000
0000
0000
,
0000
0000
0000
0000
,
2000
0000
0000
0000
,
0000
0000
0000
0000
,
3002
0000
0100
0000
0010
0000
1003
0100
,
0001
0000
0100
0000
0010
1000
0010
0000
,
2000
0000
0100
0000
0001
0000
3010
0100
,
1000
0000
0100
0010
1000
0000
0001
1000
,
0001
0200
0000
0320
0000
2030
0000
3002
,
0100
0000
0013
0000
0001
0100
0010
1000
,
0002
0100
1000
0013
,
0001
1000
0001
0000
0100
0010
0100
0001
,
2000
0010
0000
0001
0000
0000
3010
0000
,
1000
0100
0010
0001
0100
0001
1000
0010
,
2000
0001
0000
0020
3000
0000
0130
0000
,
0001
1000
0001
0000
1000
0010
1000
0100
,
0010
0001
0200
0000
0301
1000
0002
0000
,
0010
0000
0103
0000
0001
1000
0010
1000
,
0002
0010
1000
0010
,
0103
0001
0100
0000
0010
1000
0010
2000
,
0000
3200
0000
0302
0000
0203
0000
1300
,
0010
0000
1000
1000
0000
0001
0100
0002
,
0000
0023
0000
2030
0000
3020
0000
0031
,
0100
0000
0001
0001
0000
1000
0010
1000
,
0000
0100
0000
0001
0000
0100
0000
2000
,
0000
3002
0000
0103
0000
0010
1000
0010
,
0100
0001
0010
0100
,
1000
0010
1000
0001
,
1000
0100
0010
0001
,
1000
0010
0100
0001
,
1000
0001
1000
0000
0010
1000
0010
0000
,
1000
0100
1000
0000
0001
0100
0010
0000
,
1000
1000
0010
0000
0100
0001
0100
0000
,
0010
1000
0001
0000
0010
0001
0010
0000
,
0002
0100
1000
0010
,
2003
0100
0001
3010
,
2000
0000
0001
0000
0010
0000
3001
0100
,
1000
0000
0100
0000
0010
0100
0001
1000
,
0002
0000
1000
0000
0010
0000
0103
0010
,
0001
0000
0010
0000
0100
0001
1000
0001
,
0100
0020
0000
2030
0000
3002
0000
0103
,
0010
0000
1000
0000
0001
0100
0010
0100
,
0002
1003
0010
0100
,
0101
0000
0001
1000
0001
1000
0010
0200
,
0000
0302
0000
0203
0000
2300
0000
3100
,
0002
0000
0013
0010
0000
0100
1000
0020
,
0000
0032
0000
0023
0000
0230
0000
0301
,
2000
0000
3010
0010
0000
0100
0001
0100
,
0000
1000
0000
0100
0000
0010
0000
2000
,
0000
3010
0000
0100
0000
0001
1000
0002
,
0000
0203
0000
0301
0000
1000
0001
1000
,
0010
0000
0100
0100
0000
0001
0100
2000
,
0000
3200
0000
0302
0000
0203
0000
0310
,
1000
0000
0001
0001
0000
0100
0010
0002
,
0000
0023
0000
0230
0000
0302
0000
1003
,
0010
0000
1000
1000
0000
0010
0100
1000
,
0000
0100
0000
0010
0000
1000
0000
0002
,
0000
0203
0000
0310
0000
1000
0001
1000
,
0001
0010
0100
1000
,
0001
0100
0010
1000
,
2001
0000
0000
0000
0000
3001
0100
0010
0000
0000
0000
0000
1000
0000
0100
0000
,
0020
0000
0000
0000
0000
0031
0000
1000
0000
0000
0000
0000
0000
0000
0000
0000
,
0002
0000
0000
0000
0000
0103
0010
0100
0000
0000
0000
0000
0010
0000
1000
0000
,
0200
0000
0000
0000
0000
1300
0000
0010
0000
0000
0000
0000
0000
0000
0000
0000
;

//--------------- dance-single - mods XO FS DS- SS- ----------------
#NOTEDATA:;
#STEPSTYPE:dance-single;
#DESCRIPTION:mods XO FS DS- SS-;
#DIFFICULTY:Hard;
#METER:11;
#RADARVALUES:0.458,0.557,0.228,0.211,0;
#NOTES:
0000
0000
0000
0000
,
0000
0000
0000
0000
,
0002
0000
0000
0000
,
0000
0000
0000
0000
,
1003
0100
1000
0010
1000
0001
1000
1000
,
0010
0100
0001
0100
0100
0002
0010
1003
,
0001
0100
0001
0010
0001
0100
0001
0001
,
1000
0100
0010
0001
1000
0010
1000
1000
,
0001
0100
0010
0100
1000
0100
0001
2000
,
0000
0000
3010
0000
1000
0002
1000
0013
,
0001
0010
0001
0000
1000
0100
1000
0000
,
0001
0100
0001
0000
1000
0010
1000
0000
,
0001
0100
0010
2010
0000
0000
3001
0000
,
1000
0100
1000
0100
0001
0100
1000
0001
,
0100
0010
0000
0100
0001
0000
1001
0000
,
1000
0000
1000
0000
0100
00M0
0100
0000
0001
0000
1000
0000
0010
0000
1000
0000
,
0100
0010
2000
0000
3010
0001
2000
0000
,
0001
0000
0000
0000
3100
00M0
0100
0000
0001
0000
1000
0000
0001
0000
0100
0000
,
0010
1010
0001
1001
,
1000
0000
0001
0100
0010
1000
0001
0100
,
0010
0100
1000
0100
0010
0100
0001
2000
,
0000
0000
0000
0000
3100
00M0
0100
0000
0001
0000
1000
0000
0001
0000
0010
0000
,
0100
0010
1000
0010
0100
0010
0001
2000
,
0000
0000
0000
0000
3010
0M00
0010
0000
0001
0000
0100
0000
0001
0000
1000
0000
,
0000
0100
0000
0001
0000
0010
0000
1000
,
1000
0000
0100
0000
0001
00M0
0001
0000
0000
0000
0010
0000
0100
0000
1000
0000
,
0001
0101
1000
1010
,
0100
1001
0010
1001
,
1000
0100
1000
0000
0001
0010
0001
0000
1000
0010
1000
0000
0001
0100
0001
0000
,
1000
0100
1000
0010
1000
0001
1000
0010
,
0100
0100
0010
0000
1000
0100
0001
0100
,
0010
0100
0001
0100
1000
0020
0100
1030
,
0001
0100
0001
0000
1000
0100
0001
0100
,
0010
0001
1000
0010
0100
0002
0010
1003
,
0002
0103
0020
1030
,
0002
0000
0103
0010
1000
0001
1000
0010
,
2000
0000
0100
0000
0001
0000
3100
0010
,
0001
0000
0011
0001
2000
0100
3001
1000
,
0020
0000
0100
0000
1000
0000
0130
0001
,
1000
0000
0000
0000
0010
0M00
0010
0000
0001
0000
0100
0000
0002
0000
1000
0000
,
0013
0001
0010
0001
1000
0001
0010
0100
,
1000
0000
1001
0000
0001
2000
0100
3001
,
0200
0310
1000
0001
,
1001
0000
1000
1000
0010
0100
0001
0100
,
1000
0100
0010
0100
1000
0100
0001
2000
,
0000
0000
0000
0000
3010
0M00
0010
0000
0001
0000
1000
0000
0001
0000
0010
0000
,
0100
0010
1000
0010
0100
0010
0001
1000
,
1100
0000
0000
0000
0100
00M0
0100
0000
0001
0000
0010
0000
0001
0000
1000
0000
,
0000
0100
0000
0001
0000
0010
0000
1000
,
1000
0000
0100
0000
0001
00M0
0001
0000
0000
0000
0100
0000
0010
0000
2000
0000
,
0000
3200
0010
0320
0000
0000
0031
1000
,
1100
0000
0100
0010
0001
1000
0001
0100
,
1000
0100
0001
0100
0010
0100
0001
2000
,
0000
0000
0000
0000
3010
0M00
0010
0000
0001
0000
1000
0000
0010
0000
0100
0000
,
1000
0100
0010
0100
1000
0100
0010
0200
,
0000
0000
0000
0000
0310
M000
0010
0000
0001
0000
1000
0000
0001
0000
0010
0000
,
0000
1000
0000
0100
0000
0001
0000
1000
,
0001
0000
0010
0000
1000
0M00
1000
0000
0000
0000
0010
0000
0100
0000
0001
0000
,
2000
3020
0230
0302
,
2003
3020
0230
0302
,
02M3
0000
0000
0000
0301
0100
0010
1000
0000
0000
0000
0000
0001
0000
0010
0000
,
0200
0000
0000
0000
0300
0010
0000
0001
0000
0000
0000
0000
1000
0000
0000
0000
,
0002
0000
0000
0000
0000
0103
0010
1000
0000
0000
0000
0000
0001
0000
1000
0000
,
0020
0000
0000
0000
0030
0100
0000
0001
0000
0000
0000
0000
0000
0000
0000
0000
;

//--------------- dance-double - mods XO+ FS ----------------
#NOTEDATA:;
#STEPSTYPE:dance-double;
#DESCRIPTION:mods XO+ FS;
#DIFFICULTY:Hard;
#METER:11;
#RADARVALUES:0,0,0,0,0;
#NOTES:
00000000
00000000
00000000
00000000
,
00000000
00000000
00000000
00000000
,
00002000
00000000
00000000
00000000
,
00000000
00000000
00000000
00003000
,
00010000
00001000
00010000
00000100
00001000
00000100
00000001
00000100
,
00000010
00000001
00002000
00000000
00003002
00000100
00001003
00000000
,
00000100
00010000
00001000
00000100
00001000
00010000
00001000
00100000
,
00010000
01000000
00200000
00000000
10300000
00010000
00100000
01000000
,
10000000
01000000
00010000
01000000
00100000
00010000
00100000
00002000
,
00000000
00000000
00013000
00000000
00000100
00000010
00000100
00001000
,
00000010
00000100
00000001
00000000
00010000
00001000
00010000
00000000
,
00001000
10000000
00100000
00000000
10000000
01000000
00100000
01000000
,
00010000
01000000
00100000
00020000
00000000
00000000
01030000
00000000
,
00001000
00010000
00001000
00010000
00001000
00000100
00001000
00010000
,
00000100
00001000
00000000
00000020
00000000
00000000
00001030
00000000
,
00000001
00000100
00001000
00010000
00001000
01000000
00010000
10000000
,
01000000
00010000
00002000
00000000
00013000
00001000
00020000
00000000
,
00000010
00000000
00031000
00010000
00001000
01000000
00100000
10000000
,
00010000
00110000
00100000
00101000
,
00001000
00010000
00001000
00010000
00000100
00001000
00000001
00000100
,
00001000
00010000
00100000
10000000
01000000
00100000
00010000
01000000
,
00020000
00000000
00130000
10000000
00010000
10000000
01000000
00010000
,
00001000
00000010
00000001
00001000
00000100
00000010
00001000
00000010
,
00000002
00000000
00001003
00000010
00000100
00000001
00000100
00001000
,
00000000
00010000
00000000
00001000
00000000
00100000
00000000
10000000
,
00100000
00010000
00100000
01000000
00000000
00001000
00100000
00001000
,
00010000
00000010
00001000
00000001
,
00000010
00000100
00001000
00010000
,
00100000
00010000
00100000
00000000
00010000
10000000
00010000
00000000
10000000
00100000
01000000
00000000
00010000
01000000
00100000
00000000
,
10000000
00100000
01000000
00001000
00010000
00001000
01000000
00100000
,
10100000
00000000
10000000
00000000
00010000
00000000
00100000
00000000
00010000
00000000
10000000
00000000
00100000
0M000000
00100000
00000000
,
00010000
00100000
00001000
00010000
00002000
01000000
00013000
00000100
,
00001000
00001000
00000100
00000001
00000100
00000010
00000001
00001000
,
00000010
00000100
00001000
00000100
00000020
00010000
00001030
00000100
,
00010000
00001000
00010000
00001000
00010000
00000000
00002000
00000000
,
02003000
00000000
03200000
00000000
10300000
01000000
00100000
00000000
,
00020000
00000000
00100000
00000000
00001000
00000000
00130000
00100000
,
00002000
00000000
00013000
00001000
00000100
00001000
00010000
00000200
,
00001000
00000000
00000010
00000010
00000310
00000100
00000001
00000100
,
00000010
00000000
00000000
00000000
00000100
000000M0
00000100
00000000
00001000
00000000
00000100
00000000
00010000
00000000
00001000
00000000
,
00010000
00100000
00000000
00010000
00000000
00001000
01000000
00010000
,
01000000
00100000
10000000
01000000
00100000
00010000
10000000
00200000
,
10000000
01000000
10000000
01300000
,
01001000
00000000
00001000
00010000
00000010
00001000
00000100
00000001
,
00000100
00001000
00010000
00100000
10000000
00100000
01000000
10000000
,
00020000
00000000
00000000
00000000
00130000
0M000000
00100000
00000000
10000000
00000000
01000000
00000000
00010000
00000000
00001000
00000000
,
00000010
00000001
00000010
00000100
00000001
00000100
00001000
00000100
,
00020100
00000000
00000000
00000000
00030100
0000M000
00000100
00000000
00000001
00000000
00000100
00000000
00001000
00000000
00010000
00000000
,
00000000
00001000
00000000
01000000
00000000
00100000
10000000
00020000
,
00000000
10030000
00100000
01000000
00000000
00001000
00010000
00002000
,
00000000
00023000
00000000
00030200
00000000
00001300
00000100
00000010
,
00000011
00000000
00000000
00000000
00000010
0000000M
00000010
00000000
00001000
00000000
00000100
00000000
00001000
00000000
00010000
00000000
,
00100000
00010000
00001000
00010000
00100000
00001000
01000000
00010000
,
00100000
00000000
00000000
00000000
00010000
00M00000
00010000
00000000
00001000
00000000
00010000
00000000
00001000
00000000
00000100
00000000
,
00000001
00000100
00001000
00010000
00001000
01000000
00100000
10000000
,
20100000
00000000
00000000
00000000
31000000
00M00000
01000000
00000000
00100000
00000000
10000000
00000000
01000000
00000000
00010000
00000000
,
00000000
00001000
00000000
00000010
00000000
00000001
00000100
00000020
,
00000000
00100030
00010000
10000000
00000000
01000000
00100000
00010000
,
00002000
00003200
00000320
00000032
,
00002003
00003200
00020300
00031000
,
00021000
00000000
00000000
00000000
00031000
01000000
00100000
01000000
00000000
00000000
00000000
00000000
00001000
00000000
00010000
00000000
,
00000020
00000000
00000000
00000000
00000030
00001000
00000001
00001000
00000000
00000010
00001000
00000000
00001000
00000000
00000000
00000000
,
00000200
00000000
00000000
00000000
00010300
00001000
00010000
00001000
00000000
00100000
00010000
00000000
01000000
00000000
00100000
00000000
,
20000000
00000000
00000000
00000000
30000000
01000000
00000000
00100000
00000000
00000000
00000000
00000000
00000000
00000000
00000000
00000000
;
