#TITLE:Damn Daniel;
#SUBTITLE:;
#ARTIST:DJ Manny;
#TITLETRANSLIT:;
#SUBTITLETRANSLIT:;
#ARTISTTRANSLIT:;
#GENRE:;
#CREDIT:Evergreen;
#MUSIC:Damn-Daniel-Edit.ogg;
#BANNER:;
#BACKGROUND:;
#CDTITLE:;
#SAMPLESTART:0.000;
#SAMPLELENGTH:0.000;
#SELECTABLE:YES;
#OFFSET:-0.003;
#BPMS:0.000=160.000;
#STOPS:;
#BGCHANGES:;
#FGCHANGES:;

//--------------- dance-single - Damn ----------------
#NOTES:
     dance-single:
     Damn:
     Beginner:
     13:
     0,0,0,0,0:
0000
0000
0000
0000
,
0000
0000
0000
0000
,
0000
0000
0000
0000
,
0000
0000
0000
0000
,
1000
0100
1000
0001
0000
0000
0100
0001
1000
0100
0000
0000
,
1000
0100
1000
0001
0000
0000
0100
0001
1000
0100
0010
0001
,
1000
0001
0010
0001
0000
0000
0010
0001
1000
0010
0000
0000
,
1000
0001
0010
0001
0000
0000
0010
0001
1000
0010
0100
0001
,
2000
0000
0000
3200
0000
0000
1300
0010
0100
0001
0000
0000
,
0200
0000
0000
0302
0000
0000
1003
0010
0100
0001
0000
0000
,
2000
3200
0320
0032
,
1003
0010
0100
0001
0000
0000
1000
0100
0010
0001
0010
0100
,
1000
0000
0010
0000
1000
0000
0000
0001
0010
0000
0000
0000
0000
0000
0000
0000
,
0001
0000
0010
0000
0001
0000
0000
1000
0100
0000
0000
0000
0000
0000
0000
0000
,
1000
0000
0100
0000
1000
0000
0000
0001
0100
0000
0000
0000
0000
0000
0000
0000
,
0001
0000
0100
0000
0001
0000
0000
1000
0010
0000
0000
0000
0100
0000
0001
0000
,
1000
0000
0100
0000
0010
0001
0010
0000
0001
0000
0000
0000
0000
0000
0000
0000
,
0001
0000
0100
0000
0010
1000
0010
0000
1000
0000
0000
0000
0001
0000
1000
0000
,
0002
0000
0000
0000
0000
0000
0000
0000
1003
0000
0001
0000
0100
0000
0010
1000
,
0000
0001
0000
0000
0100
0000
0010
1000
0000
0001
0000
0000
0100
0000
0010
0000
,
1000
0000
0000
0100
0000
0000
0010
0000
0001
0000
0000
1000
0000
0000
0010
0000
,
0100
0000
0000
0001
0000
0000
1000
0000
0100
0000
0000
0010
0000
0000
0001
0000
,
1000
0000
0000
0001
0000
0000
0100
0000
0001
0000
0000
1000
0000
0000
0100
0000
,
1000
0000
0000
0001
0000
0000
0100
0000
0001
0000
0010
0000
0100
0000
1000
0000
,
0001
0000
0100
0000
0001
0100
0001
0000
1000
0000
0000
0010
0000
0000
0000
0000
,
1000
0000
0100
0000
1000
0100
1000
0000
0001
0000
0000
0010
0000
0000
0000
0000
,
0001
0000
0100
0001
0000
0000
1000
0000
0001
0000
0100
0001
0000
0000
1000
0000
,
0200
0000
0000
0000
0000
0000
0000
0000
0310
0000
0010
0000
0001
0000
1000
0001
,
1000
0000
0000
0100
0010
0000
0001
0000
1000
0000
0000
0000
0001
0000
0100
0000
,
0001
0000
0000
0100
0010
0000
1000
0000
0001
0000
0000
0000
0010
0000
0001
0000
,
1000
0000
0000
0010
0100
0000
0001
0000
1000
0000
0000
0000
0001
0000
0010
0000
,
0001
0000
0000
0010
0100
0000
1000
0000
0001
0000
0000
0000
1000
0000
0010
0000
,
1000
0010
0100
0001
1000
0000
0001
0010
,
0001
0010
0100
1000
0001
0000
1000
0100
,
0010
0000
0000
0010
0000
0000
0001
0000
1000
0000
0000
0010
0000
0000
0010
0000
,
0200
0000
0000
0000
0310
0010
1000
0000
,
0001
0000
0000
0100
0000
0000
0010
0000
1000
0000
0000
0001
0000
0000
0010
0000
,
0100
0000
0000
1000
0000
0000
0001
0000
0100
0000
0000
0010
0100
0000
0001
0000
,
1000
0000
0000
0100
0000
0000
0010
0000
0001
0000
0000
1000
0000
0000
0010
0000
,
0100
0000
0000
0001
0000
0000
1000
0000
0100
0000
0000
0010
0100
0000
1000
0000
,
0001
0000
0100
0000
0001
0000
1000
0100
0010
0000
0001
0000
1000
0000
0010
0000
,
1000
0000
0100
0000
1000
0000
0001
0100
0010
0000
1000
0000
0001
0000
0100
0000
,
0001
0000
0000
0010
0000
0000
0001
0000
1000
0000
0000
0010
0000
0000
1000
0000
,
0200
0000
0000
0000
0310
0010
0001
1000
,
0001
0000
0000
0100
0010
0000
0100
0000
0001
0000
1000
0000
0001
0000
0000
0000
,
1000
0000
0000
0100
0010
0000
0100
0000
1000
0000
0001
0000
0100
0000
0001
0000
,
1000
0000
0000
0010
0100
0000
0010
0000
1000
0000
0001
0000
1000
0000
0000
0000
,
0001
0000
0000
0010
0100
0000
0010
0000
0001
0000
1000
0000
0010
0000
0100
0000
,
0001
0000
0010
0000
0001
0000
1000
0010
0100
0000
0001
0000
1000
0000
0100
0000
,
1000
0000
0010
0000
1000
0000
0001
0010
0100
0000
1000
0000
0001
0000
0010
0000
,
0002
0000
0000
0000
0000
0000
0000
0000
1003
0000
1000
0000
0010
0000
0000
0100
,
0000
0000
0001
0000
0010
0000
0000
0100
0000
0000
1000
0000
0001
0000
1000
0000
,
0001
0100
0010
1000
0000
0000
0001
0100
0010
1000
0000
0000
,
0001
0010
0100
1000
0000
0000
0001
0010
0001
1000
0010
0000
,
1000
0100
0010
0001
0000
0000
1000
0100
0010
0001
0000
0000
,
1000
0010
0100
0001
0000
0000
1000
0010
1000
0001
0010
0000
,
0100
0000
1000
0001
0100
0000
0001
0000
1000
0000
0100
1000
0001
0000
1000
0000
,
0010
0000
0100
0001
0010
0000
0100
0000
1000
0000
0010
1000
0100
0000
1000
0000
,
0020
0000
0000
0000
0130
0100
0001
1000
,
0001
0000
0000
0010
0000
0000
0100
0000
1000
0000
0000
0010
0000
0000
0100
0000
,
0001
1000
0100
0010
0000
0000
0001
1000
0010
0100
0000
0000
,
0001
0000
1000
0000
0100
0000
0010
0000
0000
0000
0000
0000
0001
0000
1000
0000
0010
0000
0100
0000
0000
0001
0000
0000
,
1000
0001
0010
0100
0000
0000
1000
0001
0100
0010
0000
0000
,
1000
0000
0001
0000
0010
0000
0100
0000
0000
0000
0000
0000
1000
0000
0001
0000
0010
0000
0100
0000
0000
1000
0000
0000
,
0001
0000
0100
0000
0001
0010
0000
0100
1000
0000
0001
0000
1000
0000
0010
0000
,
1000
0000
0100
0000
1000
0010
0000
0100
0001
0000
0010
0000
0100
0000
1000
0000
,
0002
0000
0000
0000
0000
0000
0000
0000
1003
0000
0010
0100
0001
0000
0001
0000
,
1000
0000
0100
0010
0001
0000
1000
0000
0001
0100
0010
0000
1000
0000
0001
0000
,
1000
0000
0000
0100
0000
0000
0010
0000
0001
0000
0000
1000
0000
0000
0010
0000
,
0100
0000
0000
0001
0000
0000
1000
0000
0100
0000
0010
0000
0100
0000
1000
0000
,
0001
0000
0000
0100
0000
0000
0010
0000
1000
0000
0000
0001
0000
0000
0010
0000
,
0100
0000
0000
1000
0000
0000
0001
0000
0100
0000
0000
0010
0100
0000
0001
0000
,
1000
0000
0100
0000
1000
0000
0001
0100
0010
0000
1000
0000
0001
0000
0010
0000
,
0001
0000
0100
0000
0001
0000
1000
0100
0010
0000
0001
0000
1000
0000
0100
0000
,
1000
0000
0000
0010
0000
0000
1000
0000
0001
0000
0000
0010
0000
0000
0001
0000
,
1000
0000
0000
0100
0000
0000
1000
0000
0010
0000
0010
0000
1000
0000
0001
0000
,
1000
0000
0000
0100
0010
0000
0100
0000
1000
0000
0001
0000
1000
0000
0000
0000
,
0001
0000
0000
0100
0010
0000
0100
0000
0001
0000
1000
0000
0100
0000
1000
0000
,
0001
0000
0000
0010
0100
0000
0010
0000
0001
0000
1000
0000
0001
0000
0000
0000
,
1000
0000
0000
0010
0100
0000
0010
0000
1000
0000
0001
0000
0010
0000
0100
0000
,
1000
0100
0010
0001
1000
0000
0001
0100
,
0001
0100
0010
1000
0001
0000
1000
0010
,
0100
0000
0000
0100
0000
0000
0001
0000
1000
0000
0000
0100
0000
0000
0100
0000
,
0020
0000
0000
0000
0130
0100
1000
0000
;

//--------------- dance-single - Daniel ----------------
#NOTES:
     dance-single:
     Daniel:
     Challenge:
     19:
     0,0,0,0,0:
0000
0000
0000
0000
,
0000
0000
0000
0000
,
0000
0000
0000
0000
,
0000
0000
0000
0000
,
1000
0100
1000
0001
0010
0100
1000
0001
0100
0001
1000
0010
0100
0001
1000
0100
,
0010
0001
1000
0010
1000
0001
0100
0010
1000
0001
0010
0001
1000
0100
0010
0001
,
1000
0010
1000
0001
0010
0001
1000
0010
0100
0001
1000
0100
1000
0001
0010
0100
,
1000
0001
0100
0001
1000
0010
0100
0001
1000
0100
1000
0001
0010
0100
1000
0001
,
0100
0010
1000
0001
0010
0100
0010
0001
0100
0010
1000
0001
0010
0100
1000
0001
,
0100
0010
1000
0001
0010
0100
0010
0001
0100
0010
1000
0001
0010
0100
1000
0001
,
0010
0001
1000
0010
2000
3001
0010
0100
1000
0001
1000
0100
2000
3001
0100
0010
,
1000
0100
0010
0001
2000
3010
0100
0001
2000
3010
0100
0001
2000
0000
0000
0000
,
3101
0000
0010
0000
0001
0000
0000
1000
0011
0000
0000
0100
000M
0000
0100
1000
,
0101
0000
0010
0000
0001
0000
0000
1000
0011
0000
0000
0100
000M
0000
0100
0001
,
1100
0000
0010
0000
1000
0000
0000
0001
1010
0000
0000
0100
M000
0000
0100
0001
,
1100
0000
0010
0000
1000
0000
0000
0001
1010
0000
0000
0100
M000
0000
0100
0000
,
0011
0000
1000
0001
0000
0100
010M
0000
1010
0000
0001
1000
0000
0001
0100
0001
,
1100
0000
0010
1000
0000
0100
M100
0000
0011
0000
1000
0001
0000
1000
0100
1000
,
0002
0000
0000
0000
0000
0000
0000
0000
1003
0000
1000
0000
0100
M000
0100
0001
,
0010
0001
0000
1000
0100
M000
0100
0001
0010
0001
0000
1000
0100
M000
0100
0001
,
1000
0001
0000
0010
0100
M000
0100
0001
1000
0100
0000
0010
0100
M000
0100
0001
,
1000
0100
0000
0010
0100
M000
0100
0001
1000
0100
M000
0100
0001
0010
0100
1000
,
0001
1000
0000
0010
0100
000M
0100
1000
0001
0100
0000
0010
0100
000M
0100
1000
,
0001
0100
0000
0010
0100
000M
0100
1000
0001
0100
0000
0100
1000
0010
0100
0001
,
1000
0001
0000
0010
0100
M100
0010
0010
1000
0001
0000
0010
0100
M000
0100
0001
,
1000
0001
0000
0100
0010
M000
0010
0001
2000
3000
0001
0100
0001
0000
1000
0100
,
1010
0001
0000
1000
0010
0100
0001
1000
0011
1000
0000
0001
0010
0100
1000
0001
,
1200
0000
0010
1000
0000
0001
1300
0000
0201
0000
0310
0000
0001
0000
1000
0010
,
1100
0001
0000
0010
0100
00M0
0100
0001
1010
0001
0000
0100
0010
0M00
0010
0001
,
1100
0001
0000
0010
0100
00M0
0100
0001
1010
0001
0000
0100
0010
1000
0010
0010
,
0101
1000
0000
0010
0100
00M0
0100
1000
0011
1000
0000
0100
0010
0M00
0010
1000
,
0101
1000
0000
0010
0100
00M0
0100
1000
0011
1000
0000
0100
0010
0010
1000
0000
,
0101
0010
0010
1000
0010
0010
0001
1000
0011
1000
0000
0100
0010
0000
0001
0000
,
1100
0010
0010
0001
0010
0010
1000
0001
1010
0001
0000
0100
0010
0000
1000
0000
,
0101
0010
0010
1000
0011
0000
1000
0001
1100
0010
0010
0001
1010
0000
0001
0100
,
0021
0000
0100
0001
1030
0100
0010
0001
1020
0000
0130
0000
1000
0000
0001
0100
,
0001
1000
0000
0010
0100
000M
0100
1000
0001
0100
0000
0010
0100
000M
0100
1000
,
0011
0100
0000
0010
0100
000M
0100
1000
0011
0100
000M
0100
1010
0100
0100
0100
,
1000
0001
0000
0010
0100
M000
0100
0001
1000
0100
0000
0010
0100
M000
0100
0001
,
1010
0100
0000
0010
0100
M000
0100
0001
1010
0100
M000
0100
0011
0100
0100
0100
,
0011
0100
0100
1000
0011
1000
0001
0100
0001
0010
0010
1000
0101
1000
0001
0010
,
0100
0100
0001
1000
0011
0100
0100
1000
0001
0010
0010
1000
0011
0100
0100
1000
,
0101
1000
0000
0010
0100
00M0
0100
1000
0011
1000
0000
0100
0010
0M00
0010
1000
,
0201
0000
0010
0001
1300
0001
0100
0001
1200
0000
0310
0000
1000
0010
0100
0001
,
1100
0001
0000
0010
001M
0000
1000
0001
1010
0001
0000
0100
010M
0000
1000
0001
,
1100
0001
0000
0010
001M
0000
1000
0001
1010
0001
0000
0100
010M
1000
0010
1000
,
0101
1000
0000
0010
M010
0000
0001
1000
0011
1000
0000
0100
M100
0000
0001
1000
,
0101
1000
0000
0010
M010
0000
0001
1000
0011
1000
0000
0100
M100
0001
0010
0001
,
1100
0010
0010
0001
1100
0001
1000
0010
1000
0100
0100
0001
1010
0001
1000
0100
,
0010
0010
1000
0001
1100
0010
0010
0001
1000
0100
0100
0001
1100
0010
0010
0001
,
1010
0000
0000
0100
0000
0000
1000
0000
0011
0000
0100
0000
0010
0000
0M10
0001
,
0010
0100
0000
1000
0010
0000
0M10
0001
0010
0100
0000
1000
0010
0100
0100
1000
,
0001
0100
0010
1000
0010
0100
0001
0100
0010
1000
0100
1000
,
0011
0100
0001
1000
0100
0010
0101
0010
0001
1100
0010
1000
,
0011
0100
0001
0010
0100
1000
0100
0010
0001
1000
0010
1000
,
0101
0010
0001
1000
0010
1000
0011
0100
0001
1010
0100
1000
,
0101
0000
0010
0010
1000
0001
0000
0010
0010
1000
0100
0100
0011
1000
0001
0000
,
1100
0000
0010
0010
0001
1000
0000
0010
0010
0001
0100
0100
1010
0001
1000
0010
,
1100
0000
0000
0010
0000
0000
M010
0000
0101
0000
0000
0010
0000
0000
001M
0000
,
1100
0000
0000
0010
0000
0000
0010
0000
0101
0000
0000
1000
0000
0000
0001
0000
,
1000
0100
0010
0001
0010
0100
1010
0100
0010
0001
0100
0001
,
1000
0000
0000
0000
0100
0000
0000
0000
1000
0000
0000
0000
0001
0000
0000
0000
0100
0000
0000
0000
0010
0000
0000
0000
1100
0000
0000
0001
0000
0000
0000
0000
0000
0010
0000
0000
0010
0000
0000
1000
0000
0000
0001
0000
0000
1000
0000
0000
,
0011
0000
0000
0000
0100
0000
0000
0000
0001
0000
0000
0000
0010
0000
0000
0000
0100
0000
0000
0000
1000
0000
0000
0000
0100
0000
0000
0000
0010
0000
0000
0000
0001
0000
0000
0000
1000
0000
0000
0100
0000
0000
0100
0000
0000
0001
0000
0000
,
1100
0000
0000
0000
0010
0000
0000
0000
1000
0000
0000
0000
0001
0000
0000
0000
0010
0000
0000
0000
0001
0000
0000
0000
1010
0000
0000
0000
0100
0000
0000
0000
1000
0000
0000
0000
0001
0000
0000
0100
0000
0000
0100
0000
0000
1000
0000
0000
,
0011
0000
0100
0100
1000
0001
0000
0100
0100
1000
0010
0010
0101
1000
0001
0000
,
1010
0000
0100
0100
0001
1000
0000
0100
0100
0001
0010
0010
1100
0001
1000
0100
,
1000
0001
0100
0100
1010
0001
0100
0001
1000
0010
0010
0001
1010
0001
0100
0100
,
1000
0000
0000
0001
0000
0000
0100
0000
0000
0001
0000
0000
1100
0000
0000
0001
0000
0000
1000
0000
0000
0010
0000
0000
0100
0000
0000
0000
0001
0000
0000
0000
0010
0000
0000
0000
0101
0000
0000
0010
0000
0000
0010
0000
0000
1000
0000
0000
,
0001
1000
0000
0100
0010
000M
0010
1000
0001
0010
0000
0100
0010
000M
0010
1000
,
0101
0010
0000
0100
0010
000M
0010
1000
0102
0000
1003
0000
0011
0100
0100
0100
,
0001
1000
0000
0010
0100
000M
0100
1000
0001
0100
0000
0010
0100
000M
0100
1000
,
0011
0100
0000
0010
0100
000M
0100
1000
0011
0100
000M
0100
1010
0100
0100
0100
,
1010
0100
0100
0001
1010
0001
1000
0100
1000
0010
0010
0001
1100
0001
1000
0010
,
0100
0100
1000
0001
1010
0100
0100
0001
1000
0010
0010
0001
1010
0100
0100
0001
,
1100
0001
0000
0010
0100
00M0
0100
0001
1010
0001
0000
0100
0010
0M00
0010
0001
,
1200
0000
0010
1000
0301
1000
0100
1000
0201
0000
0310
0000
0001
0010
0100
1000
,
0101
1000
0000
0010
M010
0000
0001
1000
0011
1000
0000
0100
M100
0000
0001
1000
,
0101
1000
0000
0010
M010
0000
0001
1000
0011
1000
0000
0100
M100
0001
0010
0001
,
1100
0001
0000
0010
001M
0000
1000
0001
1010
0001
0000
0100
010M
0000
1000
0001
,
1100
0001
0000
0010
001M
0000
1000
0001
1010
0001
0000
0100
010M
1000
0010
1000
,
0011
0100
0100
1000
0100
0100
0001
1000
0101
1000
0000
0010
0100
0000
0001
0000
,
1010
0100
0100
0001
0100
0100
1000
0001
1100
0001
0000
0010
0100
0000
1000
0000
,
0011
0100
0100
1000
0101
0000
1000
0001
1010
0100
0100
0001
1100
0000
0001
0010
,
0101
0010
0010
1000
0011
0000
1000
0010
1100
0001
0100
0100
2000
0000
300M
0000
,
0000
0000
0000
0M00
0000
0000
0000
00M0
,
0000
0000
0000
M000
0000
0000
0000
000M
,
0000
0000
0000
00M0
0000
0000
0000
0M00
;
