#TITLE:DOCTOR TRERROR;
#SUBTITLE:FS BR;
#ARTIST:DERRECK SIMONS;
#TITLETRANSLIT:;
#SUBTITLETRANSLIT:;
#ARTISTTRANSLIT:;
#GENRE:;
#CREDIT:GalaxyStar;
#MUSIC:11. DOCTOR TERROR.ogg;
#BANNER:doctor-nowheres-catalog-of-spooky-creatures-v0-i0ucsb11nn6d1.png;
#BACKGROUND:artworks-000357006321-2r2zkk-t500x500.png;
#CDTITLE:cover.png;
#SAMPLESTART:0.349;
#SAMPLELENGTH:24.919;
#SELECTABLE:YES;
#OFFSET:-0.349;
#BPMS:0.000=154.097;
#STOPS:;
#BGCHANGES:;
#FGCHANGES:;

//--------------- dance-single - ----------------
#NOTES:
     dance-single:
     :
     Medium:
     5:
     0,0,0,0,0:
0000
0000
0000
0000
,
0000
0000
0000
0000
,
0000
0000
0000
0000
,
0000
0000
0000
0000
,
0000
0000
0000
0000
,
0000
0000
0000
0000
,
0000
0000
0000
0000
,
0000
0000
0000
0000
,
0000
0000
0000
0000
,
0000
0000
0000
0000
,
0000
0000
0000
0000
,
0000
0000
0000
0000
,
0000
0000
0000
0000
,
0000
0000
0000
0000
,
0000
0000
0000
0000
,
0000
0000
0000
0000
,
0000
0000
0000
0000
,
0000
0000
0000
0000
,
0000
0000
0000
0000
,
0000
0000
0000
0000
,
0000
0000
0000
0000
,
0000
0000
0000
0000
,
0000
0000
0000
0000
,
0000
0000
0000
0000
,
1000
0000
0001
0000
,
0010
0000
0100
1000
,
0100
0000
0010
0000
,
0001
0000
1000
0010
,
0100
0001
1000
0100
,
0010
0001
0100
0010
,
1000
0010
1000
0100
,
0010
0001
0010
0100
,
1000
0001
1000
0100
,
0010
0001
0100
0010
,
1000
0010
1000
0100
,
0010
0001
0010
0100
,
1000
1000
0001
0010
,
0100
1000
0010
0100
,
0001
0100
0001
0010
,
0100
1000
0100
0010
,
0000
1000
0000
0100
0000
0010
0000
0001
,
0000
0010
0000
0200
0000
0300
0010
0001
,
0000
0100
0000
0010
0000
1000
0000
0001
,
0000
0010
0000
0100
0000
0010
0000
0000
,
0000
0001
0000
0010
0000
0100
0000
1000
,
0000
0100
0000
0020
0000
0030
0100
1000
,
0000
0010
0000
0100
0000
0001
0000
1000
,
0000
0100
0000
0010
0000
0100
0000
0000
,
0001
0000
0001
0010
0000
0100
0000
0010
,
0000
0100
0000
1000
0000
0100
0000
0000
,
0001
0000
0010
0100
0000
1000
0000
0001
,
0000
0010
0000
0100
0000
0010
0000
0000
,
0001
0000
0001
0010
0000
0100
0000
0010
,
0000
0100
0000
1000
0000
0100
0000
0000
,
0001
0000
0010
0100
0000
1000
0000
0000
,
1000
0100
0010
0001
0000
0010
0000
0000
,
1001
0000
1001
0000
1001
0000
0000
2000
,
0000
3000
0100
0000
0010
0001
0000
0000
,
1001
0000
1001
0000
1001
0000
0000
0002
,
0000
0003
0010
0000
0100
1000
0000
0000
,
0101
0000
0101
0000
0101
0000
0000
0002
,
0000
0003
0010
0000
0100
0010
0000
0001
,
0000
1000
0000
0010
0000
1000
0000
0100
,
0000
1000
0000
0010
0000
1000
0000
0000
,
1001
0000
1001
0000
1001
0000
0000
2000
,
0000
3000
0100
0000
0010
0001
0000
0000
,
1001
0000
1001
0000
1001
0000
0000
0002
,
0000
0003
0010
0000
0100
1000
0000
0000
,
0101
0000
0101
0000
0101
0000
0000
0002
,
0000
0003
0010
0000
0100
0010
0000
0001
,
0000
1000
0000
0010
0000
1000
0000
0100
,
0000
1000
0000
0010
0000
1000
0000
0000
,
0100
0001
1000
0100
,
0010
0001
0100
0010
,
1000
0010
1000
0100
,
0010
0001
0010
0100
,
1000
0001
1000
0100
,
0010
0001
0100
0010
,
1000
0010
1000
0100
,
0010
0001
0010
0100
,
1001
0000
0000
0000
;

//--------------- dance-single - GalaxyStar ----------------
#NOTES:
     dance-single:
     GalaxyStar:
     Challenge:
     16:
     0,0,0,0,0:
0000
0000
0000
0000
,
0000
0000
0000
0000
,
0000
0000
0000
0000
,
0000
0000
0000
0000
,
0000
0000
0000
0000
,
0000
0000
0000
0000
,
0000
0000
0000
0000
,
0000
0000
0000
0000
,
0000
0000
0000
0000
,
0000
0000
0000
0000
,
0000
0000
0000
0000
,
0000
0000
0000
0000
,
0000
0000
0000
0000
,
0000
0000
0000
0000
,
0000
0000
0000
0000
,
0000
0000
0000
0000
,
0000
0000
0000
0000
,
0000
0000
0000
0000
,
0000
0000
0000
0000
,
0000
0000
0000
0000
,
0000
0000
0000
0000
,
0000
0000
0000
0000
,
0000
0000
0000
0000
,
0000
0000
0000
0000
,
1000
0000
0000
0000
0100
M000
0100
0000
0001
0000
0000
0000
0010
000M
0010
0000
1000
0000
0100
0000
0010
0000
0000
0000
0100
0000
0010
0000
0001
0000
1000
0000
,
0100
0000
0000
0000
0010
0M00
0010
0000
1000
0000
0010
0000
0100
0000
0001
0000
0010
0000
0001
0000
0100
0000
0010
0000
1000
0000
0100
0000
0010
0000
0001
0000
,
0100
0000
0000
0000
0010
0M00
0010
0000
0001
0000
0000
0000
1000
0000
0010
0000
0100
0000
0001
0000
0010
0000
0000
0000
0100
0000
0010
0000
0001
0000
1000
0000
,
0100
0000
0000
0000
0010
0M00
0010
0000
1000
0000
0100
0000
0020
0000
0000
0000
0002
0000
0000
0000
0000
0000
0033
0000
0200
0000
0000
0000
0000
0000
0300
0000
,
1000
0000
0000
0000
0100
M000
0100
0000
0001
0000
0000
0000
0010
000M
0010
0000
1000
0000
0100
0000
0010
0000
0000
0000
0100
0000
0010
0000
0001
0000
1000
0000
,
0100
0000
0000
0000
0010
0M00
0010
0000
1000
0000
0010
0000
0100
0000
0001
0000
0010
0000
0001
0000
0100
0000
0010
0000
1000
0000
0100
0000
0010
0000
0001
0000
,
0100
0000
0000
0000
0010
0M00
0010
0000
0001
0000
0000
0000
1000
0000
0010
0000
0100
0000
0001
0000
0010
0000
0000
0000
0100
0000
0010
0000
0001
0000
1000
0000
,
0100
0000
0000
0000
0010
0M00
0010
0000
1000
0000
0100
0000
0020
0000
0000
0000
0002
0000
0000
0000
0000
0000
0033
0000
0200
0000
0000
0000
0000
0000
0300
0000
,
0001
0000
0000
0000
0010
000M
0010
0000
1000
0000
0000
0000
0100
M000
0100
0000
0001
0000
0010
0000
0100
0000
0000
0000
0010
0000
0100
0000
1000
0000
0001
0000
,
0010
0000
0000
0000
0100
00M0
0100
0000
0001
0000
0100
0000
0010
0000
1000
0000
0100
0000
1000
0000
0010
0000
0100
0000
0001
0000
0010
0000
0100
0000
1000
0000
,
0010
0000
0000
0000
0100
00M0
0100
0000
1000
0000
0000
0000
0001
0000
0100
0000
0010
0000
1000
0000
0100
0000
0000
0000
0010
0000
0100
0000
1000
0000
0001
0000
,
0010
0000
0000
0000
0100
00M0
0100
0000
0001
0000
0010
0000
0200
0000
0000
0000
2000
0000
0000
0000
0000
0000
3300
0000
0020
0000
0000
0000
0000
0000
0030
0000
,
0001
0000
0000
0000
0010
000M
0010
0000
1000
0000
0000
0000
0100
M000
0100
0000
0001
0000
0010
0000
0100
0000
0000
0000
0010
0000
0100
0000
1000
0000
0001
0000
,
0010
0000
0000
0000
0100
00M0
0100
0000
0001
0000
0100
0000
0010
0000
1000
0000
0100
0000
1000
0000
0010
0000
0100
0000
0001
0000
0010
0000
0100
0000
1000
0000
,
0010
0000
0000
0000
0100
00M0
0100
0000
1000
0000
0000
0000
0001
0000
0100
0000
0010
0000
1000
0000
0100
0000
0000
0000
0010
0000
0100
0000
1000
0000
0001
0000
,
0010
0000
0000
0000
0100
00M0
0100
0000
0001
0000
0010
0000
0200
0000
0000
0000
2000
0000
0000
0000
0000
0000
3300
0000
0020
0000
0000
0000
0000
0000
0030
0000
,
1000
0100
0010
0000
0100
0010
0001
0000
1000
0000
0100
0000
0010
0000
0100
0000
,
1000
0010
0100
0001
0010
0001
0100
0010
,
1000
0100
0010
0000
0010
0100
1000
0000
1000
0000
0001
0000
0100
0000
0010
0000
,
0100
0000
0001
0000
1000
0000
0100
0000
0010
0001
0010
0100
1000
0100
0010
0000
,
0001
0010
0100
0000
0010
0100
1000
0000
0001
0000
0010
0000
0100
0000
0010
0000
,
0001
0100
0010
1000
0100
1000
0010
0100
,
0001
0010
0100
0000
0100
0010
0001
0000
0001
0000
1000
0000
0010
0000
0100
0000
,
0010
0000
1000
0000
0001
0000
0010
0000
0100
1000
0100
0010
0001
0010
0100
0000
,
1010
0000
0001
0000
1010
0000
0001
0010
0100
0000
0010
0100
1000
0000
0001
0000
,
1000
0000
0000
0001
0010
0100
1000
0000
0000
0100
0000
0000
1000
0000
0000
0010
0000
0000
1000
0000
0000
0001
0000
0000
,
0001
1000
0001
0010
0100
1000
1000
0001
,
1000
0000
0000
0001
0010
0100
1000
0000
0000
0100
0000
0000
1000
0000
0000
0010
0000
0000
1000
0000
0000
0001
0000
0000
,
0001
1000
0001
0010
0100
1000
0100
0010
,
0001
0000
0000
0001
0010
0100
1000
0000
0000
0100
0000
0000
1000
0000
0000
0010
0000
0000
0100
0000
0000
0010
0000
0000
,
0100
0001
0100
0001
0000
0100
0000
0100
,
1000
0100
0010
0001
1000
0100
0010
0001
1000
0010
0100
0001
1000
0010
0100
0001
,
1010
0000
0100
0000
1010
0000
0001
0000
1000
0100
0010
0001
0010
0100
1010
0000
,
0001
0000
0010
0000
0100
0000
0010
0000
0001
0010
0100
1000
0100
0010
0001
0000
,
0101
0000
0010
0000
0101
0000
1000
0000
0100
0010
0001
0010
0100
1000
0101
0000
,
0010
0000
0001
0000
0100
0000
0010
0000
1000
0000
0100
0010
0001
0010
0100
1000
,
0011
0000
1000
0000
0011
0000
0100
0000
1000
0100
0010
0100
0010
0001
1010
0000
,
0001
0000
1000
0000
0100
0000
0010
0000
0001
0000
0010
0001
0100
0010
1000
0100
,
0010
0001
0100
0010
1000
0100
0010
0001
,
0100
0010
1000
0100
0010
0100
1000
0100
,
1010
0000
0100
0000
1010
0000
0001
0000
1000
0100
0010
0001
0010
0100
1010
0000
,
0001
0000
0010
0000
0100
0000
0010
0000
0001
0010
0100
1000
0100
0010
0001
0000
,
0101
0000
0010
0000
0101
0000
1000
0000
0100
0010
0001
0010
0100
1000
0101
0000
,
0010
0000
0001
0000
0100
0000
0010
0000
1000
0000
0100
0010
0001
0010
0100
1000
,
0011
0000
1000
0000
0011
0000
0100
0000
1000
0100
0010
0100
0010
0001
1010
0000
,
0001
0000
1000
0000
0100
0000
0010
0000
0001
0000
0010
0001
0100
0010
1000
0100
,
0010
0001
0100
0010
1000
0100
0010
0001
,
0100
0010
1000
0100
0010
0100
1000
0100
,
1000
0000
0000
0000
0100
M000
0100
0000
0001
0000
0000
0000
0010
000M
0010
0000
1000
0000
0100
0000
0010
0000
0000
0000
0100
0000
0010
0000
0001
0000
1000
0000
,
0100
0000
0000
0000
0010
0M00
0010
0000
1000
0000
0010
0000
0100
0000
0001
0000
0010
0000
0001
0000
0100
0000
0010
0000
1000
0000
0100
0000
0010
0000
0001
0000
,
0100
0000
0000
0000
0010
0M00
0010
0000
0001
0000
0000
0000
1000
0000
0010
0000
0100
0000
0001
0000
0010
0000
0000
0000
0100
0000
0010
0000
0001
0000
1000
0000
,
0100
0000
0000
0000
0010
0M00
0010
0000
1000
0000
0100
0000
0020
0000
0000
0000
0002
0000
0000
0000
0000
0000
0033
0000
0200
0000
0000
0000
0000
0000
0300
0000
,
1000
0000
0000
0000
0100
M000
0100
0000
0001
0000
0000
0000
0010
000M
0010
0000
1000
0000
0100
0000
0010
0000
0000
0000
0100
0000
0010
0000
0001
0000
1000
0000
,
0100
0000
0000
0000
0010
0M00
0010
0000
1000
0000
0010
0000
0100
0000
0001
0000
0010
0000
0001
0000
0100
0000
0010
0000
1000
0000
0100
0000
0010
0000
0001
0000
,
0100
0000
0000
0000
0010
0M00
0010
0000
0001
0000
0000
0000
1000
0000
0010
0000
0100
0000
0001
0000
0010
0000
0000
0000
0100
0000
0010
0000
0001
0000
1000
0000
,
0100
0000
0000
0000
0010
0M00
0010
0000
1000
0000
0100
0000
0020
0000
0000
0000
0002
0000
0000
0000
0000
0000
0033
0000
0200
0000
0000
0000
0000
0000
0300
0000
;
