#TITLE:Crow's Ghost;
#SUBTITLE:;
#ARTIST:Twenty Knives;
#TITLETRANSLIT:;
#SUBTITLETRANSLIT:;
#ARTISTTRANSLIT:;
#GENRE:;
#CREDIT:Braeden;
#MUSIC:Crow's Ghost.ogg;
#BANNER:ban.png;
#BACKGROUND:bg.png;
#JACKET:jacket.png;
#CDTITLE:;
#SAMPLESTART:31.451;
#SAMPLELENGTH:12.000;
#SELECTABLE:YES;
#OFFSET:-0.457;
#BPMS:0.000=95.000
,7.000=190.000
,233.000=95.000
,248.000=190.000
,379.000=95.000
;
#STOPS:;
#BGCHANGES:;
#FGCHANGES:;

//--------------- dance-single - ----------------
#NOTES:
     dance-single:
     :
     Easy:
     9:
     0,0,0,0,0:
0000
0000
0000
0000
,
0000
0000
0000
2000
,
0000
0000
3010
0000
0000
0100
0000
0000
,
0001
1000
1000
0010
,
0100
0001
1000
0010
,
1000
0000
0010
0000
0000
1000
0000
0000
,
0100
0010
0001
1000
,
0001
0000
1001
0000
0000
1001
0000
0000
,
0110
0000
0110
0000
0000
0100
0000
0001
,
1000
0000
0001
0010
0001
0010
0000
0000
,
0001
0000
1001
0000
0000
1010
0000
0000
,
0010
1000
0100
0010
,
0001
0000
1001
0000
0000
1001
0000
0000
,
1000
0010
0100
0001
,
0010
0011
0001
1000
,
0010
0000
1010
0000
0000
1001
0000
0000
,
0001
0000
1000
0000
0000
2100
0000
0000
,
3000
0001
0000
0100
0010
1000
0020
0000
,
0030
0000
1001
0000
0000
1001
0000
0000
,
1000
0100
0010
0001
,
1000
0010
0100
0000
0001
0000
1000
0000
,
0001
0000
0000
0000
1000
0000
0000
0100
0000
0000
1000
0000
0000
0100
0000
0000
,
1000
0000
1001
0000
0000
1001
0000
0000
,
0001
0100
0010
1000
,
0100
0010
0001
0000
1000
0000
0010
0000
,
1000
0000
0000
0000
0001
0000
0000
0100
0000
0000
0001
0000
0000
0100
0000
0000
,
0001
1000
0001
0000
0000
0011
0000
0000
,
0010
0001
1000
0010
,
1000
0100
1000
0000
0001
0000
0100
0000
,
0010
0000
0000
0000
1000
0000
0000
0010
0000
0000
0100
0000
0000
0010
0000
0000
,
1000
0000
1001
0000
0000
1001
0000
0000
,
0001
1000
0100
0010
,
0001
1000
0001
0000
0100
0000
0010
0000
,
1000
0000
0000
0000
0001
0000
0000
0100
0000
0000
0001
0000
0000
0100
0000
0000
,
0001
0000
2000
0000
0000
3010
0000
0000
,
0100
0001
0100
0010
,
1000
0000
0200
0000
0000
0310
0000
0000
,
0001
0000
1000
0000
0000
0010
0000
0000
,
1000
0001
2000
0000
0010
0000
3010
0000
,
0100
0000
0001
0000
0010
0100
0010
0000
,
0001
0000
2000
0000
0000
3010
0000
0010
,
0000
0000
0100
0000
0000
0001
0000
0000
,
1000
0000
0002
0000
0000
0103
0000
0000
,
0010
1000
0100
0010
,
0001
1000
0002
0000
0000
1003
0000
1000
,
0000
0000
0001
0000
0000
0100
0000
0000
,
0100
0010
2000
0000
0010
0000
3010
0000
,
0100
0001
0100
0001
,
0010
0000
0200
0000
0000
1300
0000
0001
,
0000
0000
1000
0000
0000
0010
0000
0000
,
1000
1001
0002
0103
,
0000
0000
1010
0000
0000
0010
1000
0000
,
0000
0002
0000
0103
,
0000
0010
1000
0000
0001
0000
0200
0000
,
0300
0000
0001
0000
0100
0000
0010
1000
,
0010
0000
0110
0000
0000
0100
0001
0000
,
1000
0010
1000
0001
,
0100
2020
3030
0100
,
0000
0002
0000
2003
,
0000
3020
0000
0230
,
0000
0302
0000
2003
,
0000
3200
0000
0310
,
0002
0000
0003
0000
1001
0000
0000
1001
,
0000
1000
0100
0010
,
0001
0000
1000
0010
1000
0000
0001
0000
,
0100
0000
0000
0000
0010
0000
0000
0000
1000
0000
0000
0100
0000
0000
0010
0000
,
0000
0001
0000
0000
1000
0000
0000
0000
1010
0000
0000
0000
0000
0000
1010
0000
,
0000
0010
1000
0100
,
0010
0000
0010
0100
0010
0000
0100
0000
,
0001
0000
0000
0000
1000
0000
0000
0000
0100
0000
0000
0010
0000
0000
0001
0000
,
0000
1000
0000
0000
0001
0000
0000
0000
1001
0000
0000
0000
0000
0000
1001
0000
,
0000
1000
0100
0010
,
0001
0000
1000
0010
1000
0000
0001
0000
,
0100
0000
0000
0000
0010
0000
0000
0000
1000
0000
0000
0100
0000
0000
0010
0000
,
0000
0001
0000
0000
1000
0000
0000
0000
1010
0000
0000
0000
0000
0000
0101
0000
,
0000
0001
0100
0010
,
1000
0000
0100
0010
0001
0000
1000
0000
,
0010
0000
0000
0000
0100
0000
0000
0000
0001
0000
0000
0010
0000
0000
0100
0000
,
0000
1000
0000
0000
0000
0000
0000
0000
1001
0000
0000
0000
0000
0000
1001
0000
,
0000
0001
0100
0010
,
1000
0000
0100
0010
0100
0000
1000
0000
,
0001
0000
0000
0000
0101
0000
0000
0000
0100
0000
0000
0010
0000
0000
1000
0000
,
0000
0001
0000
0000
1000
0000
0000
0000
1010
0000
0000
0000
0000
0000
0110
0000
,
0000
0100
0010
1000
,
0100
0000
0010
0100
1000
0000
0001
0000
,
0100
0000
1010
0000
0010
1000
0010
0000
,
1000
0001
1000
0000
1010
0000
0000
0101
,
0000
0001
0010
0100
,
1000
0000
0001
0100
0001
0000
1000
0000
,
0100
0000
0000
0000
0011
0000
0000
0000
0001
0000
0000
1000
0000
0000
0010
0000
,
0000
1000
0000
0000
0001
0000
0000
0000
0011
0000
0000
0000
0000
0000
1001
0000
,
0000
0001
0100
0001
,
1000
0000
0010
0100
0010
0000
1000
0000
,
0100
0000
0000
0000
0011
0000
0000
0000
0001
0000
0000
1000
0000
0000
0010
0000
,
0000
1000
0000
0000
0001
0000
0000
0000
2002
0000
0000
0000
3003
0000
0000
0000
;

//--------------- dance-single - ----------------
#NOTES:
     dance-single:
     :
     Medium:
     13:
     0,0,0,0,0:
0000
0000
0000
0000
,
0000
0000
0000
2000
,
0000
0000
3010
0000
1000
0100
0010
0001
,
1000
0010
0010
2000
,
3100
0010
0001
0000
0100
0010
0100
0001
,
0100
0000
0010
0000
1000
0001
0000
0000
,
1000
0100
1000
0000
0001
0010
0100
1000
,
0001
1000
0010
0000
0001
0010
1000
0001
,
1000
0001
0100
0000
1000
0100
0000
0001
,
0200
0000
0310
0010
0100
0100
0001
0000
,
1001
0000
0001
0100
0001
0100
1000
0100
,
0010
0000
0100
0001
1000
0001
0000
0000
,
0001
0100
0200
0000
0310
1000
0100
0100
,
0010
0001
0010
1000
0010
0001
1000
0010
,
0100
0000
0101
0000
0001
1000
0010
1000
,
0100
0000
0110
0000
0010
0001
1000
0010
,
1000
0100
0010
0001
0010
1000
0000
0010
,
0001
0000
0200
0000
0000
0000
0310
0000
1000
0000
0001
0000
1000
0000
0000
0010
,
0000
1000
1020
0000
0130
0102
0000
1003
,
0001
0010
0001
1000
0001
1000
0100
0010
,
0001
0100
0200
0000
0310
1000
0010
1000
,
0001
0000
0100
0000
0001
0000
0000
0010
0000
0000
0100
0000
0000
1000
0000
0000
,
0001
1000
1002
0000
0013
0210
0000
0301
,
0010
0100
1000
0100
0010
0001
1000
0001
,
0100
0010
0020
0000
1030
0100
0010
0001
,
1000
0000
0010
0000
1000
0000
0000
0001
0000
0000
1000
0000
0000
0010
0000
0000
,
1000
0010
0210
0000
0310
2010
0000
3001
,
0010
0100
1000
0010
1000
0001
0100
0001
,
1000
0100
0200
0000
0310
0001
0010
0001
,
1000
0000
0010
0000
1000
0000
0000
0100
0000
0000
0010
0000
0000
0001
0000
0000
,
1000
0000
2001
0000
3001
0021
0000
0031
,
1000
0001
1000
0100
1000
0001
0010
0001
,
0100
0010
0020
0000
1030
0100
0010
0001
,
0200
0000
0000
0000
0301
0000
0000
0100
0000
0000
0010
0000
0000
1000
0000
0000
,
0001
0100
0001
0100
0010
0001
0010
0100
,
0001
1000
0100
0000
0010
0001
0010
0001
,
1000
0010
1000
0001
0100
1000
0100
0010
,
1000
0000
0001
0000
1000
0000
0000
0100
0000
0000
0010
0000
0000
0001
0000
0000
,
1000
0001
0001
0100
1000
0100
0010
1000
,
0001
0010
0001
0000
1000
0010
1000
0010
,
0100
0001
0100
0010
0100
2000
0000
3100
,
0010
1000
0001
0010
0001
1000
0010
1000
,
0002
0000
1003
0001
0100
1000
0100
0001
,
1000
0100
0010
0000
0001
1000
0010
1000
,
0100
0010
0002
0000
1003
0010
0000
0100
,
0000
0000
0001
0000
1000
0000
0000
0010
0000
0000
1000
0000
0000
0001
0000
0000
,
1000
0100
0002
0000
0103
1000
0100
0010
,
0001
1000
0010
0000
0100
0001
0100
0001
,
0010
0100
2000
0000
3001
0100
0000
0010
,
0000
0000
1000
0000
0001
0000
0000
0010
0000
0000
0100
0000
0000
1000
0000
0000
,
0001
1000
1002
0000
0103
0100
0020
0000
,
0030
0000
1010
0000
0000
0002
2003
0000
,
3000
0020
0230
0302
,
0003
0000
0000
1000
0001
1000
0001
0000
0000
0200
0000
0000
,
0300
0000
0110
0000
0010
0000
1000
0001
,
1001
0000
2002
0000
3003
2000
3010
0010
,
1000
1000
0001
0100
0010
0010
0100
0100
,
0001
0000
0000
0000
2002
0000
0000
0000
0000
0000
3003
0000
1000
0000
0000
0010
,
0000
1000
0002
0000
0000
0103
0020
0000
,
0000
1030
0200
0000
0000
0310
0002
0000
,
0000
1003
0020
0000
0000
0130
0002
0000
,
0000
0013
0200
0000
0000
1300
0002
0000
,
1003
0010
0100
0001
0201
0000
0310
1020
,
0000
0130
0001
0100
0010
1000
0001
0010
,
0100
1000
0001
0100
0200
0000
0310
1000
,
0001
0000
0100
0000
0001
0000
0000
0000
1000
0000
0000
0100
0000
0000
1000
0000
,
0000
0001
0000
0000
0100
0000
0010
0000
0210
0000
0000
0000
0301
0000
2001
0000
,
0000
3010
0100
0001
0010
0001
0010
0001
,
0100
0001
1000
0010
0020
0000
0130
0001
,
0100
0010
1000
0000
1010
0000
0010
1000
,
0001
0010
0100
1000
1002
0000
0013
0012
,
0000
1003
0100
0010
0001
1000
0010
1000
,
0001
0010
0100
1000
2000
0000
3001
0010
,
0100
0000
0010
0000
0001
0000
0000
0000
1000
0000
0000
0010
0000
0000
1000
0000
,
0000
0010
0000
0000
1000
0000
0001
0000
2001
0000
0000
0000
3010
0000
0210
0000
,
0000
0301
0010
0100
0010
0001
1000
0010
,
0100
0001
0100
0010
0020
0000
1030
0010
,
0100
0000
0010
0000
1000
0000
0000
0000
0001
0000
0000
0010
0000
0000
0100
0000
,
0000
1000
0000
0000
0001
0000
0010
0000
0012
0000
0000
0000
1003
0000
1200
0000
,
0000
0310
0001
0100
0001
1000
0100
1000
,
0010
1000
0100
0010
0020
0000
0130
0010
,
0100
0000
0010
0000
0001
0000
0000
0000
0010
0000
0000
0100
0000
0000
1000
0000
,
0000
0001
0000
0000
0100
0000
0010
0000
0210
0000
0000
0000
0301
0000
1002
0000
,
0000
1003
0100
0010
0001
0010
0100
1000
,
0001
0100
0010
0100
0200
0000
0301
0010
,
0100
1000
0002
0000
1003
0010
1000
0010
,
1000
0001
0100
0001
0021
0000
0130
2100
,
0000
3001
0010
0100
1000
0100
0010
0001
,
1000
0010
1000
0100
0200
0000
0310
0100
,
1000
0000
0001
0000
0100
0000
0000
0000
0010
0000
0000
1000
0000
0000
0010
0000
,
0000
1000
0000
0000
0001
0000
0100
0000
0102
0000
0000
0000
0103
0000
0102
0000
,
0000
0013
0100
0010
0001
1000
0010
0100
,
0001
1000
0100
1000
2000
0000
3001
0010
,
0001
0000
1000
0000
0100
0000
0000
0000
0010
0000
0000
0001
0000
0000
1000
0000
,
0000
0010
0000
0000
1000
0000
0000
0000
2002
0000
0000
0000
3003
0000
0000
0000
;

//--------------- dance-single - ----------------
#NOTES:
     dance-single:
     :
     Hard:
     16:
     1,0.146,0.864,0.696,0.898:
0000
0000
0000
0000
,
0000
0000
0000
2000
,
0000
0000
0000
0000
3001
0000
0100
0000
0010
0000
1000
0000
0001
0010
0001
0010
,
0001
0000
1000
0000
1000
0000
0001
0100
,
0110
0000
0010
0000
1000
0000
0001
0000
0010
0000
0100
0000
1000
0001
1000
0000
,
0010
0000
0000
0000
0010
0000
0100
0001
0100
0000
0010
0000
0000
0000
1000
0001
,
1000
0010
0010
0100
0001
0010
0100
1000
,
0001
1000
1002
0000
0013
0011
0001
1000
,
0010
1000
2002
3003
0001
0100
0000
0010
,
1000
0001
0100
0100
0100
0100
0010
1000
,
1010
0000
0000
0000
1010
0000
0010
0000
0010
0000
0100
0000
0001
0100
0001
0100
,
0001
1000
0100
0010
0001
0100
0000
0110
,
0000
0010
1020
0000
1030
0010
0001
0010
,
0100
0000
0001
0000
1000
0000
0001
0100
0001
0000
1000
0000
0100
0000
0010
0000
,
0001
0000
1002
0000
1003
0100
0010
0001
,
0100
0000
0010
0000
1010
0000
1000
0000
0100
0000
0010
0000
0001
1000
0001
1000
,
0010
0100
0001
0100
0010
2010
0000
3001
,
0000
0000
1001
0000
0000
0000
1010
0000
1000
0001
1000
0001
1000
0000
0000
0100
,
0000
0010
1002
0000
0103
2001
0000
3001
,
0100
0010
0100
0000
0010
1000
0010
1000
0010
0000
0100
0000
0100
0000
0001
0000
,
0010
0001
1002
0000
1003
0100
0010
0010
,
0001
0000
1000
0000
1001
0000
0001
0100
0000
0010
1000
0000
0001
0010
0000
0100
,
1000
0001
0201
0000
0310
1002
0000
1003
,
0100
0010
0100
0000
0010
0001
0010
0001
0010
0000
0100
0000
0100
0000
1000
0000
,
0010
0100
0120
0000
0130
0001
1000
1000
,
0010
0000
0100
0000
0110
0000
0000
0100
0000
0000
0001
0000
0000
0010
0000
0000
,
0100
1000
1200
0000
0310
0012
0000
1003
,
0010
0100
0010
0000
1000
0001
1000
0001
1000
0000
0010
0000
0010
0000
0100
0000
,
0001
0010
1002
0000
1003
0100
0010
0010
,
0001
0000
1000
0000
0001
0000
1000
0100
0000
0010
0001
0000
1000
0010
0000
0100
,
0010
1000
1002
0000
0103
2001
0000
3010
,
1000
0100
1000
0000
0001
0010
0001
0010
0001
0000
1000
0000
1000
0000
0010
0000
,
0100
0001
0012
0000
1003
0010
0100
0100
,
0001
0000
1000
0000
1001
0000
0001
0100
0000
0010
1000
0000
0001
0010
0000
0001
,
0100
0010
1000
0100
0010
1000
0010
0001
,
1000
0000
0001
0000
1000
0000
0010
0000
0010
0000
1000
0100
1000
0000
0001
0000
,
0001
0001
1000
0100
0001
1000
0010
0100
,
0010
0000
0001
0000
0100
0000
0001
1000
0001
0000
0100
0000
0010
0000
1000
0001
,
1000
0000
0001
0000
0001
0000
0010
0000
0100
0000
1000
0100
1000
0000
0001
0000
,
0001
0001
1000
0000
0001
1000
0001
0100
,
0001
1000
0001
0100
0010
0100
1000
0001
,
0010
0000
1000
0000
0001
0010
0001
0000
1000
0000
0010
0000
1000
0000
0001
0100
,
0001
0000
1000
0100
0001
0100
1000
0010
,
0100
0000
0001
0010
0001
0000
1000
0000
0100
0000
0010
0001
1000
0000
0100
0000
,
0100
0100
1000
0010
0100
0010
0001
1000
,
0100
0000
0001
0000
1000
0000
0010
1000
0010
0000
0100
0000
0000
0001
0000
0000
,
1000
0000
0010
0000
0010
0000
1000
0000
0100
0000
0010
0001
0010
0000
0100
0000
,
0100
0100
0010
0001
0100
0001
1000
1000
,
1000
0000
0010
0100
0001
0000
0100
0000
1000
0000
0100
0000
0010
0000
1000
0000
,
0001
0000
1000
0000
0001
0000
0000
0010
0000
0000
0100
0000
0000
1000
0000
0000
,
0001
0000
1000
0000
1002
0000
0000
0000
1003
0010
1000
0010
0200
0000
0000
0000
,
0300
0000
1001
0000
0001
0200
0310
0000
,
0000
0000
0000
0000
0020
0000
0000
0000
2030
0000
0000
0000
3001
0010
0001
0010
,
0000
0000
0000
0000
0000
0000
0100
0000
0000
0000
0000
0000
1000
0000
0000
0000
0001
0000
0000
0000
1000
0000
0000
0000
0001
0000
0000
0000
0000
0000
0000
0000
0000
0000
0000
0000
1000
0000
0000
0100
0000
0000
1000
0000
0000
0100
0000
0000
,
0000
0010
1002
0000
0103
0000
0010
1000
,
1001
0000
0101
0000
0000
0002
1003
1000
,
0001
0001
0100
0100
0010
0010
1000
1000
,
0001
0000
0000
0000
2002
0000
0000
0000
0000
0000
3003
0000
1000
0010
0000
1000
,
0100
0010
0002
0000
0000
1003
0020
0000
,
0000
0130
0020
0000
0000
1030
0200
0000
,
0000
0310
0200
0000
0000
1300
0200
0000
,
0000
0310
0002
0000
0000
1003
0002
0000
,
2003
0000
0000
3000
2001
0000
3001
0102
,
0000
0103
0001
0100
0010
0100
1000
0100
,
1000
0000
0100
0000
0001
0000
1001
0000
1001
0000
0000
0000
1000
0000
0100
0010
,
0100
0000
0010
0000
0001
0000
1000
0000
1001
0000
0001
0100
0000
0010
1000
0000
,
0100
0010
0000
0001
1000
0000
0100
0000
2100
0000
0000
0000
3010
0000
1002
0000
,
0000
1003
0100
0010
0100
0001
0100
1000
,
0100
0000
0010
0000
0001
0000
1001
0000
2001
0000
0000
0000
3010
0000
1000
0001
,
1000
0010
1000
0001
0011
0100
1000
0001
,
1000
0000
0001
0000
1000
0010
1000
0010
0200
0000
0000
0000
0301
0000
2001
0000
,
0000
3010
0100
1000
0100
0010
1000
0001
,
0001
0000
0100
0000
0010
0000
1010
0000
1020
0000
0000
0000
1030
0000
0001
1000
,
0010
0000
0100
0000
0001
0000
1000
0000
1010
0000
0010
0100
0000
0001
0010
0000
,
0100
1000
0000
0001
1000
0000
0010
0000
2010
0000
0000
0000
3100
0000
0120
0000
,
0000
0031
0010
1000
0010
0100
1000
1000
,
0001
0000
0100
0000
0010
0000
0110
0000
0210
0000
0000
0000
0310
0000
1000
0001
,
0100
0000
0001
0000
1000
0000
0100
0000
1100
0000
1000
0001
0000
0100
0010
0000
,
1000
0001
0000
0010
0100
0000
0010
0000
0012
0000
0000
0000
1003
0000
2001
0000
,
0000
3001
0010
1000
0010
0100
0001
0100
,
1000
0000
0001
0000
0100
0000
0101
0000
0102
0000
0000
0000
1003
0000
0001
0100
,
0001
0000
0100
0000
0010
0000
1000
0000
1001
0000
0001
0010
0000
0100
1000
0000
,
0001
0100
0000
0010
1000
0000
0100
0000
2100
0000
0000
0000
3010
0000
0012
0000
,
0000
0000
1003
0000
0010
1000
0010
0000
0100
0001
0100
0001
0100
0000
0001
0000
,
0001
0000
1000
0000
0100
0000
0110
0000
0120
0000
0000
0000
0031
0000
1000
0010
,
1000
0001
0100
0010
1010
1000
0001
1000
,
0100
1000
0100
0010
0012
0000
1003
0102
,
0000
0000
1003
0000
0001
0010
0001
0000
1000
0010
1000
0010
1000
0000
0010
0000
,
0010
0000
0100
0000
0001
0000
0101
0000
0201
0000
0000
0000
0310
0000
1000
0001
,
1000
0000
0010
0000
0100
0000
0001
0000
0101
0000
0100
0010
0000
1000
0100
0000
,
1000
0001
0000
0010
0001
0000
1000
0000
1020
0000
0000
0000
0130
0000
0102
0000
,
0000
0000
1003
0000
0001
0010
0001
0000
1000
0001
1000
0001
1000
0000
0100
0000
,
0010
0000
0001
0000
1000
0000
1010
0000
0210
0000
0000
0000
0301
0000
1000
0010
,
1000
0000
0001
0000
0010
0000
0001
0000
1001
0000
1000
0100
0000
0010
0001
0000
,
1000
0010
0000
0100
0001
0000
1000
0000
2002
0000
0000
0000
3003
0000
0000
0000
;

//--------------- dance-single - ----------------
#NOTES:
     dance-single:
     :
     Challenge:
     18:
     1,0.146,0.864,0.696,0.898:
0000
0000
0000
0000
,
0000
0000
0000
0000
0000
0000
0000
0000
0000
0000
0000
0000
1000
0001
1000
0001
,
1000
0001
1000
0001
1000
0000
0100
0010
0001
0000
1000
0000
0001
0100
0010
1000
,
0001
0000
0000
1000
0100
0000
0000
0010
0001
0000
1000
0001
0040
0000
0030
0000
,
0011
0000
0001
0010
0100
0000
1000
0000
0001
0000
1000
0100
1000
0001
0010
0M00
,
0010
0000
0000
1000
0001
0000
1000
0001
0010
0M00
0010
0000
0000
0000
1000
0001
,
0100
0000
0000
0000
0000
0000
0000
0000
0010
0000
0000
0000
0000
0000
0000
0000
0010
0000
0000
0000
0000
0000
0000
0000
1000
0000
0000
0000
0000
0000
0000
0000
0001
0000
0000
0000
0000
0000
0000
0000
1000
0000
0000
0000
0000
0100
0000
0000
1000
0000
0000
0000
0000
0000
0000
0000
0001
0000
0000
0000
0000
0010
0000
0000
,
0001
0000
0000
0000
0000
1000
0000
0000
0001
0000
0000
0000
0000
0000
0000
0000
1001
0000
0000
0000
0000
0000
0000
0000
1000
0000
0000
0000
0010
0000
0000
0000
0100
0000
0000
0000
0000
0000
0000
0000
0110
0000
0000
0000
0000
0000
0000
0000
0010
0000
0000
0000
1000
0000
0000
0000
0010
0000
0000
0000
1000
0000
0000
0000
,
0100
0000
0010
0001
1000
0000
0001
0000
0100
00M0
0100
0000
1000
0000
1010
0000
,
0010
1000
0001
0000
0101
0000
0101
0000
1010
0000
1010
0000
0010
1000
0001
0000
,
0101
0000
0000
0000
0110
0000
0010
0000
1000
0000
0001
0100
0000
0010
0000
0100
,
0001
0000
1000
0100
0010
0001
0010
0100
1000
0000
0002
0000
0003
0000
0100
0010
,
0100
0000
1001
0000
0002
0000
0000
0000
1003
0000
0001
0100
0010
0M00
0010
0000
,
0001
1000
0010
0000
1010
0000
1000
0100
0010
0000
0001
0100
0001
1000
0100
0010
,
0001
0000
1000
0000
1020
0000
0000
0000
0130
0000
0001
0010
0100
0010
0001
1000
,
0010
0000
1000
0000
0001
0000
0000
0000
1001
0000
0000
0000
1000
0000
0100
0000
1000
0000
0000
0000
0001
0000
1000
0000
0100
00M0
0100
0000
0100
0000
0100
0000
,
0002
0000
1003
0010
1000
0100
0010
0001
1000
0000
1002
0000
0000
0000
1003
0001
,
0100
0000
0000
0000
0110
0000
0000
0000
0010
0000
1000
0000
0001
0000
0000
0000
0100
00M0
0100
0000
0100
0000
0100
0000
1000
0000
0000
0000
0001
0000
0100
0000
,
0000
0110
1002
0000
1003
1020
0000
0130
,
0001
1000
0010
0000
1000
0010
1000
0010
0100
0000
0001
0000
0001
0000
1000
0100
,
1000
0001
1000
0000
1020
0000
0000
0000
0130
0000
0001
0010
0100
00M0
0100
0000
,
0101
0000
0001
0000
1001
0000
1000
0100
0000
0100
0010
0000
0010
0001
0000
0001
,
1000
0010
1000
0010
0200
0000
0000
0000
0301
0000
2001
0000
0000
0000
3001
0000
,
1000
0010
1000
0000
0001
0100
0001
1000
0100
0000
0100
0000
0100
0000
1000
0001
,
1000
0010
0100
0000
0102
0000
0000
0000
1003
0000
0001
1000
0100
00M0
0100
0000
,
0101
0000
0001
0000
1001
0000
1000
0001
0100
0000
0010
1000
0010
1000
0001
0010
,
0001
0011
2001
0000
3010
2001
0000
3001
,
1000
0001
0100
0000
0001
0010
0001
0010
0100
0000
0100
0000
0100
0000
0010
0001
,
1000
0010
0100
0000
0102
0000
0000
0000
0103
0000
0010
1000
0100
00M0
0100
0000
,
0101
0000
0010
0000
1010
0000
1000
0100
0000
0100
0010
0000
0010
0001
0000
0001
,
1000
0000
0001
0100
0020
0000
0000
0000
1030
0000
1002
0000
0000
0000
1003
0000
,
0001
0010
0100
0000
1000
0001
1000
0001
0010
0000
0010
0000
0010
0000
0100
1000
,
0001
0100
0010
0000
2010
0000
0000
0000
3001
0000
0100
0010
0100
M000
0100
0000
,
1100
0000
0010
0000
0011
0000
0001
1000
0000
1000
0010
0000
0010
0100
0000
0100
,
0001
0000
0010
0000
0002
0000
0010
0000
1003
0000
0001
0000
0100
0010
0100
0010
,
0001
0000
0010
0100
0001
0000
1000
0000
0010
0000
1000
0010
0100
0000
1000
0100
,
0010
0100
0001
0000
1000
0000
0100
M000
0100
0000
0001
0000
1000
0000
0001
0000
,
0010
000M
0010
0000
1000
0000
0001
0100
0001
0000
0100
0000
0010
0000
1000
0001
,
1000
0000
0100
0000
0100
0000
0010
0000
0001
0000
0100
0010
0100
0000
1000
0100
,
0010
0100
0001
0000
0100
0000
0010
0M00
0010
0000
0001
0000
0100
0010
0100
0010
,
0001
0000
0010
0100
0001
0000
0100
00M0
0100
0000
1000
0000
0100
0000
1000
0000
,
0010
0M00
0010
0000
0001
1000
0010
0000
0100
0010
0100
0010
0001
0000
0010
0100
,
0020
0000
0030
0000
1000
0000
0010
0M00
0010
0000
0001
0000
0100
0010
0100
1000
,
0100
0000
0001
1000
0001
0000
0100
00M0
0100
0000
1000
0010
0100
0000
1000
0100
,
0010
1000
0010
0000
0100
0000
0010
0M00
0010
0000
0001
0000
1000
0000
0100
0000
,
0010
000M
0010
0000
1000
0000
0001
0010
0100
0000
1000
0000
0010
0000
0100
0001
,
0100
0000
0001
0000
0001
0000
0100
00M0
0100
0000
1000
0100
0010
0000
1000
0010
,
0100
0010
0001
0000
1000
0000
0100
00M0
0100
0000
0001
0000
1000
0010
1000
0100
,
0010
0000
1000
0010
0100
0000
0001
0000
0001
0000
1000
0000
0010
0000
0100
0000
,
0001
0000
1000
0000
0010
0100
1000
0000
0100
0010
0100
0001
1000
0000
0100
0010
,
0000
0010
0001
0000
1002
0000
0000
0000
1003
0010
1000
0010
0200
0000
0000
0000
,
0300
0000
0102
0000
1003
0040
0130
0000
,
0000
0000
0000
0000
0001
0000
0000
0000
2000
0000
0000
0000
3001
0010
0100
1000
,
0000
0000
0000
0000
0000
0000
0010
0000
0000
0000
0000
0000
0100
0000
0000
0000
0001
0000
0000
0000
0100
0000
0000
0000
0120
0000
0000
0000
0000
0000
0000
0000
0000
0000
0000
0000
1030
0000
0000
0100
0000
0000
0010
0000
0000
0001
0000
0000
,
0000
0000
1000
0000
0020
0000
0030
0000
0110
0000
0000
0100
0001
1000
0001
0000
,
0011
0000
0000
0000
0210
0000
0000
0000
0000
0000
0301
1000
0010
0000
0010
0000
,
0010
0000
0100
0001
1000
1000
0010
0010
,
0200
0000
0300
0000
0202
0000
0000
0000
0303
0000
0000
0000
0001
0010
0000
0010
,
0100
0110
0020
0000
0000
0100
2030
0000
,
0000
0001
3200
0000
0000
1000
0302
0000
,
0000
1000
0203
0000
0000
1000
0320
0000
,
0000
1000
0230
0000
0000
0001
0320
0000
,
1030
0001
1000
0001
1000
0001
1000
0001
2000
0000
0000
0000
3010
0000
1002
0000
,
0000
0000
1003
0000
0001
0010
0100
0000
1000
0100
0010
0001
1000
0000
0100
0000
,
0100
0000
0010
0001
0010
0001
1000
0000
1020
0000
0000
0000
1030
0000
1000
0001
,
0100
00M0
0100
0000
1100
0000
1000
0000
1001
0000
0001
0100
0000
0100
0010
0000
,
0010
1000
0000
1000
0001
0010
0100
0010
0002
0000
0000
0000
0103
0000
2001
0000
,
0000
0000
3001
0000
1000
0100
0010
0000
0001
0100
0001
0010
0001
0000
1000
0000
,
1000
0000
0001
0010
0100
1000
0001
0000
1002
0000
0000
0000
0103
0000
0001
1000
,
0010
0M00
0010
0000
0011
0000
0100
0000
1100
0000
1000
0001
1000
0000
0001
0100
,
0010
0000
1010
0000
1000
0001
0100
0001
2000
0000
0000
0000
3100
0000
1002
0000
,
0000
0000
0013
0000
1000
0100
0010
0000
0001
1000
0100
1000
0001
0000
0010
0000
,
0010
0000
0001
0010
0100
1000
0001
0000
0021
0000
0000
0000
0031
0000
1000
0010
,
0100
000M
0100
0000
1100
0000
1000
0000
1001
0000
0001
0010
0000
0010
0100
0000
,
0100
1000
0000
1000
0001
0100
0001
0010
0002
0000
0000
0000
0013
0000
2001
0000
,
0000
0000
3010
0000
1000
0100
0010
0000
0001
0100
0010
0100
0001
0000
1000
0000
,
1000
0000
0001
0010
0100
1000
0010
0000
2010
0000
0000
0000
3010
0000
0010
1000
,
0100
00M0
0100
0000
0101
0000
0001
0000
1001
0000
1000
0100
0000
0100
0010
0000
,
0010
0001
0000
1000
0000
0010
0100
0000
1002
0000
0000
0000
0013
0000
2001
0000
,
0000
0000
3001
0000
1000
0100
0010
0000
0001
1000
0100
1000
0001
0000
0100
0000
,
0100
0000
0010
1000
0010
1000
0001
0000
2001
0000
0000
0000
3010
0000
1000
0001
,
0100
00M0
0100
0000
1100
0000
0010
0000
1001
0000
0001
0100
0000
0100
0010
0000
,
0010
1000
0000
1000
0001
0010
0100
1000
0002
0000
0000
0000
0013
0000
2001
0000
,
0000
0000
3010
0000
1000
0100
1000
0000
0001
0010
0100
1000
0001
0000
0100
0000
,
0100
0000
0010
1000
0010
1000
0001
0000
1002
0000
0000
0000
1003
0000
0010
0100
,
0010
000M
0010
0000
0011
0000
0100
0000
1001
0000
0001
0010
0100
1000
0001
0100
,
0001
1000
0100
0010
0001
1000
0010
0000
2001
0000
0000
0000
3100
0000
2001
0000
,
0000
0000
3001
0000
0100
0010
0100
0000
0001
0010
0001
1000
0001
0000
1000
0000
,
1000
0000
0001
0100
0001
0010
0001
0000
0012
0000
0000
0000
1003
0000
0010
0100
,
0010
0000
0010
0000
1010
0000
1000
0000
1001
0000
0001
0100
0000
0010
1000
0000
,
0010
1000
0000
0001
0010
0001
1000
0001
0200
0000
0000
0000
0301
0000
2010
0000
,
0000
0000
3001
0000
1000
0100
0010
0000
0001
1000
0001
1000
0001
0000
0100
0000
,
0100
0000
0010
1000
0010
1000
0001
0000
2001
0000
0000
0000
3010
0000
1000
0000
,
0001
0000
0010
0000
1001
0000
0010
0000
1001
0000
1000
0100
0000
0100
0010
0000
,
0010
0001
0000
0001
1000
0000
0010
0000
2002
0000
0000
0000
3003
0000
0000
0000
;
