#VERSION:0.83;
#TITLE:Crazy Scary Holy Fantasy;
#SUBTITLE:;
#ARTIST:MYTH & ROID;
#TITLETRANSLIT:;
#SUBTITLETRANSLIT:;
#ARTISTTRANSLIT:;
#GENRE:;
#CREDIT:KyokiShinsa;
#MUSIC:Crazy Scary Holy Fantasy.ogg;
#BANNER:Crazy Scary Holy Fantasy-bn.png;
#BACKGROUND:Crazy Scary Holy Fantasy-bg.png;
#CDTITLE:;
#SAMPLESTART:63.211;
#SAMPLELENGTH:12.000;
#SELECTABLE:YES;
#OFFSET:0.075;
#BPMS:0.000=105.000
,31.000=210.000
;
#STOPS:;
#SPEEDS:0.000=1.000=0.000=0,
1.000=0.500=3.000=0,
29.000=0.625=0.500=0,
29.500=0.750=0.500=0,
30.000=0.875=0.500=0,
30.500=1.000=0.500=0
;
#SCROLLS:0.000=1.000;
#TICKCOUNTS:0.000=4;
#TIMESIGNATURES:0.000=4=4;
#LABELS:0.000=Song Start;
#COMBOS:0.000=1;
#ORIGIN:;
#PREVIEWVID:;
#JACKET:album-fm24_ALLL.png;
#CDIMAGE:;
#DISCIMAGE:;
#GASongDataVersion:1;
#GASongData:{"SyncOffset"\:0,"DefaultChartType"\:"dance_single","DefaultChartIndex"\:3};
#LASTSECONDHINT:0.000000;
#BGCHANGES:;
#FGCHANGES:1.000=lua=1.000=0=0=1;

//--------------- dance-single - ----------------
#NOTEDATA:;
#STEPSTYPE:dance-single;
#DESCRIPTION:;
#DIFFICULTY:Beginner;
#METER:4;
#RADARVALUES:0,0,0,0,0;
#OFFSET:0.075;
#BPMS:0.000=105.000
,31.000=210.000
;
#SPEEDS:0.000=1.000=0.000=0,
1.000=0.500=3.000=0,
29.000=0.625=0.500=0,
29.500=0.750=0.500=0,
30.000=0.875=0.500=0,
30.500=1.000=0.500=0
;
#SCROLLS:0.000=1.000;
#TICKCOUNTS:0.000=4;
#TIMESIGNATURES:0.000=4=4;
#LABELS:0.000=Song Start;
#COMBOS:0.000=1;
#CHARTNAME:;
#CHARTSTYLE:;
#CREDIT:KyokiShinsa;
#GAChartDataVersion:1;
#GAChartData:{"MusicOffset"\:0,"ShouldUseChartMusicOffset"\:false,"ExpressedChartConfig"\:"a19d532e-b0ce-4759-ad1c-02ecbbdf2efd","Patterns"\:{}};
#NOTES:
0000
0000
0000
0000
0000
0000
0000
0000
0000
0000
0000
2000
0000
0000
0000
0000
,
0000
0000
0000
0000
0000
0000
0000
0000
0000
3020
0000
0000
0000
0000
0000
0000
,
0000
0000
0000
0000
0000
0000
0000
0230
0000
0000
0000
0000
0000
0000
0000
0000
,
0000
0000
0000
0000
0000
0302
0000
0000
0000
0000
0000
0000
0023
0000
0000
0000
,
0000
0000
0000
2030
0000
0000
0000
0000
0000
0000
0000
0000
0000
0000
0000
0000
,
0000
3002
0000
0000
0000
0000
0000
0000
0000
0000
0000
0000
0000
0000
0000
0203
,
0000
0000
0000
0000
0000
0000
0000
0000
0000
0000
0000
0000
0000
2300
0000
0000
,
0000
0000
0001
0000
0001
3000
0MM1
0000
,
0000
1000
0000
0010
,
0000
1000
0000
0001
,
0000
0010
0000
0001
,
0000
1000
0000
0010
,
0000
0100
0000
0001
,
0000
0010
0000
0001
,
0000
0100
0000
0010
,
1000
0001
0000
0010
,
0000
0000
0000
0100
,
0000
1000
0000
0001
,
0000
0000
0000
1000
,
0000
0020
0000
0130
,
0000
0001
0000
1000
,
0000
0001
0000
0010
,
0000
0001
0000
0100
,
0010
1000
0000
0001
,
0000
0000
0000
0010
,
0000
0001
0000
1000
,
0000
0000
0000
0010
,
0000
2000
0000
3001
,
0000
0010
0000
0001
,
0000
1000
0010
1000
,
0000
0001
0000
0010
,
0000
0200
0000
1300
,
0000
0000
0000
1000
,
0000
0000
0000
0001
,
0000
0000
0000
0001
,
0000
0000
0000
0100
,
0000
0000
0000
0100
,
0000
0000
0000
0020
,
0000
0000
0000
2030
0000
0000
0000
3000
0000
0002
0000
0000
,
0023
0230
0300
1000
,
0000
0001
0000
1000
,
0000
0001
0000
0100
,
0000
0010
0000
0100
,
0000
0010
0000
1000
,
0000
0001
0000
1000
,
0000
0001
0000
0010
,
0000
0100
0000
1000
,
0002
0203
0320
1030
,
0000
0001
0000
0010
,
0001
1000
0000
0010
,
0000
1000
0000
0001
,
0010
0001
0000
1000
,
0000
0010
0000
0100
,
0001
0100
0000
0010
,
0000
1000
0000
0000
0001
0000
0000
0010
,
0000
0002
0000
1003
,
0000
0010
0000
1000
,
0000
0001
1000
0001
,
0000
0010
0000
0100
,
0000
1000
0100
1000
,
0000
0010
0000
0100
,
0000
0001
0100
0001
,
0000
1000
0000
0010
,
1000
0001
0000
0020
,
0000
0000
0000
0000
,
0000
0000
0000
0230
,
0000
0000
0000
2300
,
3002
2003
0000
3010
,
0000
0100
0000
0001
,
0000
1000
0001
1000
,
0000
0100
0000
0010
,
0000
0002
0000
0203
,
0000
0000
0000
0000
,
0000
0000
0000
0320
,
0000
0000
0000
2030
,
3002
0023
0000
0130
,
0000
1000
0000
0001
,
0000
0100
0001
0100
,
0000
0010
0000
1000
,
0000
0002
0000
0013
,
0000
0000
0000
0010
,
0000
0000
0000
0100
,
0000
0000
0000
0100
,
0000
1000
0000
0001
,
0000
0000
0000
0001
,
0000
0000
0000
0200
,
0000
0000
0000
0320
0000
0000
0000
0030
0000
2000
0000
0000
,
3002
0023
0030
0001
,
0000
0100
0000
0010
,
0000
1000
0000
0000
0001
0000
0010
0000
,
0000
0001
0000
1000
,
0000
0001
0000
0000
1000
0000
0100
0000
,
0000
1000
0000
0010
,
0000
0100
0000
0000
0010
0000
1000
0000
,
0000
0001
0000
0000
0010
0000
0000
0001
,
0000
0020
0000
0130
,
0000
1000
0000
0010
,
0000
0100
0000
0002
,
0000
0000
0000
0000
0000
0003
1000
0000
,
0000
0001
0000
0010
,
0000
0001
0000
0100
,
0000
0010
0000
2000
,
0000
0000
0000
0000
0000
3000
0000
0000
,
0001
1000
0000
0100
,
0000
0010
0000
0001
,
0010
0001
0000
1000
,
0000
0010
0000
1000
,
0010
1000
0000
0001
,
0000
0010
0000
0100
,
1000
0100
0000
1000
,
0000
0001
0000
0100
,
0010
0100
0000
0001
,
0000
1000
0000
0100
,
0010
0100
0000
1000
,
0000
0001
0000
0100
,
0001
0100
0000
0010
,
0000
1000
0000
0001
,
0010
0001
0000
0100
,
0000
0010
0000
1000
,
0010
1000
0000
0002
,
0000
0000
0000
0000
,
0000
0000
0003
0000
;

//--------------- dance-single - ----------------
#NOTEDATA:;
#STEPSTYPE:dance-single;
#DESCRIPTION:;
#DIFFICULTY:Easy;
#METER:9;
#RADARVALUES:0,0,0,0,0;
#OFFSET:0.075;
#BPMS:0.000=105.000
,31.000=210.000
;
#SPEEDS:0.000=1.000=0.000=0,
1.000=0.500=3.000=0,
29.000=0.625=0.500=0,
29.500=0.750=0.500=0,
30.000=0.875=0.500=0,
30.500=1.000=0.500=0
;
#SCROLLS:0.000=1.000;
#TICKCOUNTS:0.000=4;
#TIMESIGNATURES:0.000=4=4;
#LABELS:0.000=Song Start;
#COMBOS:0.000=1;
#CHARTNAME:;
#CHARTSTYLE:;
#CREDIT:KyokiShinsa;
#GAChartDataVersion:1;
#GAChartData:{"MusicOffset"\:0,"ShouldUseChartMusicOffset"\:false,"ExpressedChartConfig"\:"a19d532e-b0ce-4759-ad1c-02ecbbdf2efd","Patterns"\:{}};
#NOTES:
0000
0000
0000
0000
0000
0000
0000
0000
0000
0000
0000
0002
0000
0000
0000
0000
,
0000
0000
0000
0000
0000
0000
0000
0000
0000
0203
0000
0000
0000
0000
0000
0000
,
0000
0000
0000
0000
0000
0000
0000
0320
0000
0000
0000
0000
0000
0000
0000
0000
,
0000
0000
0000
0000
0000
2030
0000
0000
0000
0000
0000
0000
3200
0000
0000
0000
,
0000
0000
0000
0302
0000
0000
0000
0000
0000
0000
0000
0000
0000
0000
0000
0000
,
0000
2003
0000
0000
0000
0000
0000
0000
0000
0000
0000
0000
0000
0000
0000
3020
,
0000
0000
0000
0000
0000
0000
0000
0000
0000
0000
0000
0000
0000
0032
0000
0000
,
0000
0000
1000
1000
1000
1003
0MM1
0000
,
0000
1000
0000
0010
,
1000
0001
0010
0100
,
0000
1000
0000
0010
,
1000
0001
0001
0010
,
0000
0100
0000
1000
,
0010
0100
0001
1000
,
0000
0100
0000
1000
,
1000
0010
0100
0001
,
0000
1000
0000
0001
,
0000
0010
0001
1000
,
0000
0010
0000
1000
,
0000
0010
0100
0001
,
0001
1000
0000
0001
,
0010
0100
0100
1000
,
1000
0001
0000
1000
,
0010
1000
1000
0001
,
0000
0010
0000
0100
,
0000
1000
0001
0100
,
0000
0010
0000
1000
,
1000
0001
0010
0100
,
1000
0001
0100
0010
,
1000
0001
0001
0010
,
0000
0001
0000
1000
,
0010
1000
1000
0001
,
0000
0001
0000
1000
,
0000
1000
0000
0100
,
0000
0100
0000
0010
,
0000
0010
0000
0001
,
0000
0001
0000
0100
,
0000
0100
0000
0010
,
0000
1000
0000
0002
,
0023
0230
0300
1000
,
0001
1000
1000
0020
,
0000
0230
0000
0301
,
0010
0100
0100
2000
,
0000
3002
0003
0100
,
0001
1000
1000
0200
,
0000
0000
0000
0320
0000
0000
0000
0030
0000
0001
0000
0000
,
0000
1000
0000
0010
,
2000
3002
0023
0130
,
1000
0001
1000
0010
,
0000
1000
0000
0000
0001
0000
0010
0000
,
0001
0100
0010
1000
,
0000
0001
0000
0000
0010
0000
0001
0000
,
1000
0010
0100
0010
,
0000
1000
0000
0001
0000
0000
0010
0000
,
0000
0100
0000
0000
1000
0000
0000
0010
,
0000
0200
0000
0301
,
1000
0001
0010
0001
,
1000
0010
0010
1000
,
0001
0010
0100
1000
,
0010
1000
1000
0001
,
0010
0001
1000
0010
,
0100
0001
0001
1000
,
0100
1000
0001
0010
,
0010
0100
0000
2000
,
0000
0000
0000
0000
,
0000
0000
0000
3020
,
0000
0000
0000
0230
,
0302
2003
0000
3100
,
0010
0001
1000
0010
,
1000
0001
0001
0010
,
0001
1000
0010
0100
,
0001
2000
0000
3200
,
0000
0000
0000
0000
,
0000
0000
0000
0320
,
0000
0000
0000
0032
,
2003
3020
0000
0130
,
0001
1000
0100
1000
,
0010
1000
1000
0001
,
0010
0001
0100
0010
,
0010
2000
0000
3001
,
0000
0001
0000
0010
,
0000
0010
0000
0100
,
0000
0100
0000
1000
,
0000
1000
0000
0001
,
0000
0001
0000
0100
,
0000
0100
0000
0020
,
0000
0000
0000
2030
0000
0000
0000
3000
0000
0002
0000
0000
,
0023
0230
0300
1000
,
0001
1000
0010
1000
,
0000
0001
0000
0000
0010
0000
0001
0000
,
0100
0010
1000
0010
,
0000
0100
0000
0000
0001
0000
1000
0000
,
0100
0010
0001
1000
,
0000
0010
0000
1000
0000
0000
0001
0000
,
0000
0010
0000
0000
0100
0000
0000
1000
,
0000
0020
0000
0130
,
0010
1000
0001
0010
,
0001
0100
0010
1000
,
1000
0100
1000
0010
,
0010
0100
0001
1000
,
0000
0001
0010
0001
,
1000
0010
0100
0001
,
0001
1000
0100
0010
,
0001
0000
2000
0000
0000
3000
0010
0000
,
0100
0001
0010
0100
,
1000
0010
0010
1000
,
0001
0010
0001
0100
,
0010
1000
1000
0100
,
0010
0001
1000
0010
,
1000
0001
0001
0010
,
0100
0010
0001
1000
,
1000
0010
0000
1000
,
0001
1000
0010
0100
,
0001
1000
1000
0001
,
0010
0001
1000
0010
,
1000
0001
0001
0010
,
0001
0100
0010
1000
,
0100
1000
1000
0010
,
0100
0001
1000
0200
,
0320
0032
0003
2000
,
0000
0000
0000
0000
,
0000
0000
3000
0000
;

//--------------- dance-single - ----------------
#NOTEDATA:;
#STEPSTYPE:dance-single;
#DESCRIPTION:;
#DIFFICULTY:Medium;
#METER:13;
#RADARVALUES:0,0,0,0,0;
#OFFSET:0.075;
#BPMS:0.000=105.000
,31.000=210.000
;
#SPEEDS:0.000=1.000=0.000=0,
1.000=0.500=3.000=0,
29.000=0.625=0.500=0,
29.500=0.750=0.500=0,
30.000=0.875=0.500=0,
30.500=1.000=0.500=0
;
#SCROLLS:0.000=1.000;
#TICKCOUNTS:0.000=4;
#TIMESIGNATURES:0.000=4=4;
#LABELS:0.000=Song Start;
#COMBOS:0.000=1;
#CHARTNAME:;
#CHARTSTYLE:;
#CREDIT:KyokiShinsa;
#GAChartDataVersion:1;
#GAChartData:{"MusicOffset"\:0,"ShouldUseChartMusicOffset"\:false,"ExpressedChartConfig"\:"a19d532e-b0ce-4759-ad1c-02ecbbdf2efd","Patterns"\:{}};
#NOTES:
0000
0000
0000
0000
0000
0000
0000
0000
0000
0000
0000
2000
0000
0000
0000
0000
,
0000
0000
0000
0000
0000
0000
0000
0000
0000
3200
0000
0000
0000
0000
0000
0000
,
0000
0000
0000
0000
0000
0000
0000
0320
0000
0000
0000
0000
0000
0000
0000
0000
,
0000
0000
0000
0000
0000
0032
0000
0000
0000
0000
0000
0000
0203
0000
0000
0000
,
0000
0000
0000
2300
0000
0000
0000
0000
0000
0000
0000
0000
0000
0000
0000
0000
,
0000
3002
0000
0000
0000
0000
0000
0000
0000
0000
0000
0000
0000
0000
0000
0023
,
0000
0000
0000
0000
0000
0000
0000
0000
0000
0000
0000
0000
0000
2030
0000
0000
,
0000
0000
0001
0001
0001
3001
1MM0
0000
,
0010
1000
0001
0010
,
0001
0000
0000
1000
0000
0010
1000
0000
0010
1000
0000
0000
,
0001
0010
0100
0010
,
0001
0000
0000
1000
0000
0001
1000
0000
0001
1000
0000
0000
,
0010
0100
0001
1000
,
0100
0000
0000
0010
0000
0001
0010
0000
0001
0010
0000
0000
,
0100
0000
0000
1000
0000
0000
0010
0000
0100
0001
0000
0100
,
0001
0000
0100
0001
0000
0000
1000
0000
0000
0100
0000
0000
,
0000
0100
0000
1000
,
0010
0100
0001
1000
,
0000
1000
0000
0002
,
0023
0230
0000
1300
,
0010
0100
0010
1000
,
0001
0000
0000
0010
0000
0001
0010
0000
0001
0010
0000
0000
,
0001
0000
0000
1000
0000
0000
0010
0000
0100
0001
0000
0100
,
0001
0000
0100
0001
0000
0000
1000
0000
0000
0100
0000
0000
,
0000
0100
0000
0010
,
0001
1000
0010
0100
,
0000
0100
0000
0002
,
2003
3200
0000
0310
,
0001
0010
0001
1000
,
0010
0000
0000
1000
0000
0010
0100
0000
0010
1000
0000
0000
,
0001
0000
0000
0100
0000
0000
0001
0000
1000
0100
0000
1000
,
0100
0000
1000
0100
0000
0000
0010
0000
0000
0001
0000
0000
,
0000
0001
0000
1000
,
0000
1000
0000
0010
,
0000
0010
0000
0100
,
0000
0100
0000
0001
,
0000
0001
0000
1000
,
0000
1000
0000
0200
,
0000
0000
0000
0000
0300
0000
0020
0000
0000
0000
0000
0000
0000
0000
0000
0030
0000
0000
0002
0000
0000
0000
0003
0000
,
2000
0000
3000
0020
0000
0000
0030
0000
0000
0100
0000
0000
,
0001
0000
0000
1000
0000
1000
0000
0000
0000
0100
0000
0000
,
0010
0001
0001
1000
,
0010
0000
0000
0100
0000
0100
0000
0000
0000
0001
0000
0000
,
1000
0100
0100
0010
,
0001
0000
0000
1000
0000
1000
0000
0000
0000
0010
0000
0000
,
0100
0000
0000
0001
0000
0000
0001
0000
0000
1000
0000
0001
,
0000
0000
1000
0001
0000
0000
0010
0000
0001
0020
0000
0000
,
0230
2300
3020
0130
,
0001
0100
0010
1000
,
0001
0000
1000
0000
0000
0001
1000
0000
0000
0100
0000
0000
,
0010
0000
0000
0001
0000
0000
0100
0000
0000
0010
0000
0100
,
0010
0000
0100
0000
0000
0001
1000
0000
0000
0100
0000
0000
,
0010
0000
0000
0001
0000
0000
1000
0000
0000
0010
0000
1000
,
0001
0000
1000
0000
0000
0001
0000
0000
0000
0010
0000
0000
,
0100
0000
0000
0000
0010
0000
0000
0000
0000
0100
0000
0000
0010
0000
0000
0000
0000
0000
0100
0000
0000
0000
1000
0000
,
0000
0100
2000
0000
0000
0000
3001
0000
,
0100
0010
1000
0001
,
0010
0000
0000
0001
0000
1000
0001
0000
1000
0001
0000
0000
,
0100
0010
1000
0010
,
0100
0000
0000
0001
0000
0100
0001
0000
0100
0001
0000
0000
,
1000
0100
0010
0001
,
1000
0000
0000
0010
0000
1000
0001
0000
1000
0001
0000
0000
,
0010
0000
0000
0100
0000
0000
1000
0000
0001
0100
0000
0001
,
0100
0000
0001
0100
0000
0000
0001
0000
0000
2000
0000
0000
,
0000
0000
0000
0000
,
0000
0000
0000
3200
,
0000
0000
0000
0320
,
0032
2003
0000
3010
,
1000
0001
0010
0001
,
1000
0000
0000
0010
0000
1000
0001
0000
1000
0001
0000
0000
,
0010
0000
0000
0100
0000
0000
1000
0000
0010
1000
0000
0010
,
1000
0000
0010
2000
0000
0000
0000
0000
0000
3002
0000
0000
,
0000
0000
0000
0000
,
0000
0000
0000
0023
,
0000
0000
0000
0230
,
2300
3002
0000
0103
,
0010
1000
0001
0010
,
0100
0000
0000
1000
0000
0100
1000
0000
0100
1000
0000
0000
,
0010
0000
0000
0100
0000
0000
0001
0000
1000
0001
0000
1000
,
0001
0000
1000
0001
0000
0000
0010
0000
0000
0100
0000
0000
,
0000
0100
0000
1000
,
0000
1000
0000
0001
,
0000
0001
0000
0100
,
0000
0100
0000
0010
,
0000
0010
0000
1000
,
0000
1000
0000
0002
,
0000
0000
0003
0020
0000
0000
0000
0030
0000
0200
0000
0000
,
2300
3002
0003
0100
,
0010
1000
0001
0010
,
0001
0000
0010
0000
0000
0001
1000
0000
0000
0010
0000
0000
,
0100
0000
0000
0001
0000
0000
1000
0000
0000
0100
0000
1000
,
0100
0000
1000
0000
0000
0001
0000
0000
0000
0100
0000
0000
,
0010
0000
0000
1000
0000
0000
0010
0000
0000
0100
0000
0001
,
0100
0000
0001
0000
0000
1000
0000
0000
0000
0100
0000
0000
,
0010
0000
0000
0000
0001
0000
0000
0000
0000
1000
0000
0000
0010
0000
0000
0000
0000
0000
1000
0000
0000
0001
0000
0000
,
0000
0010
0200
0000
0000
0000
1300
0000
,
0001
0100
0010
1000
,
0001
1000
0100
0010
,
0001
0100
0001
1000
,
0100
0000
0000
0020
0000
0000
0000
0030
0000
0002
0000
0000
,
1003
0010
1000
0001
,
1000
0100
1000
0010
,
0100
0001
1000
0100
,
0020
0032
0000
1003
,
0010
0000
0000
1000
0000
0000
0001
0000
0000
0010
0000
0001
,
0010
0000
0001
0010
0000
0000
0001
0000
0000
1000
0000
0000
,
0010
0000
0000
0100
0000
0000
0001
0000
0000
0100
0000
0010
,
1000
0000
0010
1000
0000
0000
0001
0000
0000
0010
0000
0000
,
0100
0000
0000
1000
0000
0000
0010
0000
0000
1000
0000
0001
,
1000
0000
0001
1000
0000
0000
0100
0000
0000
0010
0000
0000
,
0001
0000
0000
0100
0000
0000
0010
0000
0000
1000
0000
0001
,
0010
0000
0001
0010
0000
0000
0100
0000
0000
1000
0000
0000
,
0010
0000
0000
0100
0000
0000
0001
0000
0000
1000
0000
0100
,
1000
0000
0100
1000
0000
0000
0001
0000
0000
0100
0000
0000
,
0010
0000
0000
1000
0000
0000
0010
0000
0000
0100
0000
0001
,
0100
0000
0001
0100
0000
0000
0010
0000
0000
1000
0000
0000
,
0001
0000
0000
0010
0000
0000
0100
0000
0000
1000
0000
0100
,
1000
0000
0100
1000
0000
0000
0010
0000
0000
0100
0000
0000
,
0001
0000
0000
0010
0000
0000
0100
0000
0000
1000
0000
0001
,
1000
0000
0001
1000
0000
0000
0010
0000
0000
0200
0000
0000
,
0000
0000
0000
0000
,
0000
0000
0300
0000
;

//--------------- dance-single - ----------------
#NOTEDATA:;
#STEPSTYPE:dance-single;
#DESCRIPTION:;
#DIFFICULTY:Hard;
#METER:15;
#RADARVALUES:0,0,0,0,0;
#OFFSET:0.075;
#BPMS:0.000=105.000
,31.000=210.000
;
#SPEEDS:0.000=1.000=0.000=0,
1.000=0.500=3.000=0,
29.000=0.625=0.500=0,
29.500=0.750=0.500=0,
30.000=0.875=0.500=0,
30.500=1.000=0.500=0
;
#SCROLLS:0.000=1.000;
#TICKCOUNTS:0.000=4;
#TIMESIGNATURES:0.000=4=4;
#LABELS:0.000=Song Start;
#COMBOS:0.000=1;
#CHARTNAME:FS, XO;
#CHARTSTYLE:;
#CREDIT:KyokiShinsa;
#GAChartDataVersion:1;
#GAChartData:{"MusicOffset"\:0,"ShouldUseChartMusicOffset"\:false,"ExpressedChartConfig"\:"a19d532e-b0ce-4759-ad1c-02ecbbdf2efd","Patterns"\:{}};
#NOTES:
0000
0000
0000
0000
0000
0000
0000
0000
0000
0000
0000
0002
0000
0000
0000
0000
,
0000
0000
0000
0000
0000
0000
0000
0000
0000
0023
0000
0000
0000
0000
0000
0000
,
0000
0000
0000
0000
0000
0000
0000
0230
0000
0000
0000
0000
0000
0000
0000
0000
,
0000
0000
0000
0000
0000
2300
0000
0000
0000
0000
0000
0000
3020
0000
0000
0000
,
0000
0000
0000
0032
0000
0000
0000
0000
0000
0000
0000
0000
0000
0000
0000
0000
,
0000
2003
0000
0000
0000
0000
0000
0000
0000
0000
0000
0000
0000
0000
0000
3200
,
0000
0000
0000
0000
0000
0000
0000
0000
0000
0000
0000
0000
0000
0302
0000
0000
,
0000
0000
0000
0000
0000
0000
1000
0000
0000
1000
0000
0000
1000
0000
0000
1003
0000
0000
0MM1
0000
0000
0000
0010
0000
,
0001
0000
1000
0010
0000
1000
0001
0000
0010
0001
0000
1000
,
0010
0000
0000
0000
0100
0000
0002
0000
0000
0023
0000
0000
0230
0000
0000
2300
0000
0000
3010
0000
0000
0000
0100
0000
,
0010
0000
1000
0001
0000
0010
0001
0000
1000
0010
0000
0100
,
0001
0000
0010
0100
1000
0001
0100
0010
1000
0001
0000
0100
,
0001
0000
1000
0010
0000
1000
0001
0000
1000
0100
0000
0010
,
0001
0000
2000
0010
0000
0000
0010
0000
0000
3001
0000
1000
,
0100
0000
0010
0001
0000
0100
0010
0000
1000
0001
0000
0001
,
0010
0000
0000
0000
0010
0000
0100
0000
0000
0000
0000
0000
1000
0000
0000
0000
0000
0000
0001
0000
0000
0100
0000
0000
,
0000
0010
0010
0000
1000
0000
0002
0000
,
0023
0000
0032
0000
0003
0000
1000
0001
,
0000
0100
0010
0000
1000
0000
0002
0000
,
0023
0000
0000
0230
0000
0000
0000
0000
0000
1300
0000
0010
,
0100
0000
0001
1000
0000
0001
0010
0000
0100
1000
0000
0010
,
1000
0000
0100
0010
0001
1000
0010
1000
0100
0010
0000
0001
,
0100
0000
0010
1000
0000
0010
0100
0000
0001
1000
0000
0100
,
0010
0000
0001
0100
0000
0100
0010
0000
0000
1000
0000
0001
,
0000
0010
0001
0000
1000
0000
0001
0000
,
0001
0000
0000
1000
0000
0000
0010
0000
0000
1000
0000
0100
,
0000
1000
0001
0000
0010
0000
0001
0000
,
1000
0000
0000
0200
0000
0000
0000
0000
0000
1300
0000
0001
,
1000
0000
0100
1000
0000
0001
0010
0000
0100
1000
0000
0010
,
0100
0000
0001
0100
0000
1000
0100
0000
0001
0000
0000
1000
,
0001
0000
0010
0001
0000
0100
0010
0000
1000
0001
0000
1000
,
0100
0000
0010
0002
0000
0000
0000
0000
0000
0003
0000
0000
,
1000
0000
1000
0000
,
0001
0000
0001
0000
,
0100
0000
0100
0000
,
0010
0000
0010
0000
,
1000
0000
1000
0000
,
0001
0000
0001
0020
,
0000
0000
0000
0000
0030
0000
0200
0000
0000
0000
0000
0000
0000
0000
0000
0300
0000
0000
2000
0000
0000
0000
3000
0000
,
0020
0000
0030
0200
0000
0000
0000
0000
0300
0001
0000
0000
,
0010
0000
0000
1000
0000
0010
0000
0000
0001
0000
0000
0100
,
0020
0001
0031
0010
,
1000
0000
0000
0100
0000
0001
0000
0000
0100
0000
0000
1000
,
0020
0001
0031
0010
,
1000
0000
0000
0001
0000
0010
0000
0000
1000
0000
0000
0010
,
0002
0000
0000
1000
0000
0000
1003
0000
0000
0010
0000
1000
,
0000
0000
0100
0010
0000
0000
0001
0000
0100
0010
0000
1000
,
0002
0000
0000
0023
0000
0000
0230
0000
0000
1300
0000
0010
,
0100
0000
0100
0001
0000
0001
0010
0000
0010
0100
0000
0100
,
1000
0000
0010
0000
0000
M010
0001
0000
0000
1000
0000
0100
,
0010
0000
0010
0001
0000
0001
0100
0000
0100
0010
0000
0010
,
1000
0000
0100
0000
0000
M100
0001
0000
0000
1000
0000
0010
,
0100
0000
0100
0001
0000
0001
0010
0000
0010
0100
0000
0100
,
1000
0000
0010
0000
0000
M010
0001
0000
0000
1000
0000
0000
,
0010
0000
0000
0000
0001
0000
0000
0000
0000
0010
0000
0000
1000
0000
0000
0000
0000
0000
0100
0000
0000
0000
0001
0000
,
0000
0000
0000
0100
0000
0000
2000
0000
0000
0000
0000
0000
0000
0000
0000
0000
0000
0000
3100
0000
0000
0000
1000
0000
,
0001
0000
1000
0100
0000
1000
0010
0000
0100
0001
0000
0010
,
0100
0000
0000
0000
0000
0000
0000
0000
1000
0000
0000
0000
0200
0000
0000
0300
0000
0000
0020
0000
0000
0030
0000
0000
0002
0000
0000
0003
0000
0000
0020
0000
0000
0030
0000
0000
0200
0000
0000
0300
0000
0000
0000
0000
1000
0000
0000
0000
,
0001
0000
0100
0001
0000
1000
0001
0000
0010
0001
0000
0100
,
0010
0000
1000
0001
0010
0100
1000
0010
0100
0001
0000
0010
,
0001
0000
1000
0010
0000
1000
0001
0000
0010
0100
0000
1000
,
0001
0000
0000
0000
0100
0000
0004
0000
0000
0000
0000
0000
0000
0000
0000
0003
0000
0000
1000
0000
0000
0000
0010
0000
,
1000
0000
0001
0010
0000
0001
1000
0000
0010
1000
0000
1000
,
0100
0000
0100
0010
0000
0000
0000
0000
0000
0002
0000
0000
,
0000
0000
0000
0000
,
0000
0000
0000
0203
,
0000
0000
0000
2300
,
3200
0000
0000
0302
0000
0000
0000
0000
0000
1003
0000
0100
,
0010
0000
0001
1000
0000
0010
1000
0000
0001
0010
0000
0001
,
0100
0000
0010
1000
0001
1000
0100
0010
0001
0100
0000
0010
,
0100
0000
0001
1000
0000
0100
0010
0000
0001
1000
0000
0010
,
1000
0000
0100
0020
0000
0000
0000
0000
0000
0032
0000
0000
,
0000
0000
0000
0000
,
0000
0000
0000
0203
,
0000
0000
0000
2300
,
3200
0000
0000
0302
0000
0000
0000
0000
0000
0013
0000
0100
,
0010
0000
0001
1000
0000
0010
0100
0000
0001
0010
0000
0001
,
1000
0000
0000
0000
0010
0000
4000
0000
0000
0000
0000
0000
0000
0000
0000
3000
0000
0000
0001
0000
0000
0000
0010
0000
,
0100
0000
1000
0001
0000
0100
0010
0000
0100
0001
0000
0010
,
0100
0000
1000
0002
0000
0000
0000
0000
0000
0003
0000
0000
,
1000
0000
1000
0000
,
0001
0000
0001
0000
,
0100
0000
0100
0000
,
0010
0000
0010
0000
,
1000
0000
1000
0000
,
0001
0000
0001
0020
,
0000
0000
0030
0200
0000
0000
0000
0300
0000
2000
0000
0000
,
3020
0000
0000
0230
0000
0000
0300
0000
0000
0001
0000
0100
,
0001
0000
0001
0010
0000
0010
0100
0000
0100
1000
0000
1000
,
0001
0000
0100
0000
0000
010M
1000
0000
0000
0001
0000
0010
,
0100
0000
0100
1000
0000
1000
0010
0000
0010
0100
0000
0100
,
0001
0000
0010
0000
0000
001M
1000
0000
0000
0001
0000
0100
,
0010
0000
0010
1000
0000
1000
0100
0000
0100
0010
0000
0010
,
0001
0000
0100
0000
0000
010M
1000
0000
0000
0001
0000
0000
,
0100
0000
0000
0000
1000
0000
0000
0000
0000
0100
0000
0000
0001
0000
0000
0000
0000
0000
0010
0000
0000
1000
0000
0000
,
0000
0000
0000
0010
0000
0000
0002
0000
0000
0000
0000
0000
0000
0000
0000
0000
0000
0000
1003
0000
0000
0000
0001
0000
,
0100
0000
0001
1000
0000
0001
0010
0000
0100
1000
0000
0010
,
1000
0000
0001
1000
0000
0100
1000
0000
0001
0100
0000
1000
,
0100
0000
0001
0100
0000
1000
0100
0000
0001
0010
0000
1000
,
0010
0000
0001
0010
0000
1000
0010
0000
0000
1001
0000
0000
,
0010
0000
0000
0100
0000
0001
1000
0000
0001
0010
0000
0001
,
0100
0000
0010
1000
0000
0100
1000
0000
0001
0100
0000
1000
,
0100
0000
0001
0010
0000
1000
0010
0000
0001
0100
0000
0010
,
1000
0000
0000
0002
0000
0000
0000
0003
0000
0010
0000
0001
,
1000
0000
1000
0010
0000
0010
1000
0000
1000
0010
0000
0010
,
0100
0000
0100
0001
0000
0001
0010
0000
0000
0100
0000
1000
,
0001
0000
0001
1000
0000
1000
0001
0000
0001
1000
0000
1000
,
0010
0000
0010
0100
0000
0000
0101
0000
0000
1000
0000
0100
,
0010
0000
0010
0001
0000
0001
0010
0000
0010
0001
0000
0001
,
1000
0000
1000
0010
0000
0010
0100
0000
0000
0001
0000
1000
,
0100
0000
0100
1000
0000
1000
0010
0000
0010
1000
0000
1000
,
0100
0000
0100
0010
0000
0000
0011
0000
0000
1000
0000
0010
,
0100
0000
0100
0010
0000
0010
0100
0000
0100
0001
0000
0001
,
1000
0000
1000
0100
0000
0100
0010
0000
0000
0001
0000
1000
,
0010
0000
0010
1000
0000
1000
0001
0000
0001
0010
0000
0010
,
0001
0000
0001
0100
0000
0000
0110
0000
0000
1000
0000
0001
,
0100
0000
0100
0010
0000
0010
1000
0000
1000
0100
0000
0100
,
0010
0000
0010
0001
0000
0001
1000
0000
0000
0010
0000
0100
,
0001
0000
0001
0010
0000
0010
0100
0000
0100
1000
0000
1000
,
0010
0000
0010
0100
0000
0000
0001
0000
0000
2002
0000
0000
,
0000
0000
0000
0000
,
0000
0000
3003
0000
;

//--------------- dance-double - ----------------
#NOTEDATA:;
#STEPSTYPE:dance-double;
#DESCRIPTION:;
#DIFFICULTY:Beginner;
#METER:4;
#RADARVALUES:0,0,0,0,0;
#OFFSET:0.075;
#BPMS:0.000=105.000
,31.000=210.000
;
#SPEEDS:0.000=1.000=0.000=0,
1.000=0.500=3.000=0,
29.000=0.625=0.500=0,
29.500=0.750=0.500=0,
30.000=0.875=0.500=0,
30.500=1.000=0.500=0
;
#SCROLLS:0.000=1.000;
#TICKCOUNTS:0.000=4;
#TIMESIGNATURES:0.000=4=4;
#LABELS:0.000=Song Start;
#COMBOS:0.000=1;
#CHARTNAME:;
#CHARTSTYLE:;
#CREDIT:KyokiShinsa;
#GAChartDataVersion:1;
#GAChartData:{"MusicOffset"\:0,"ShouldUseChartMusicOffset"\:false,"ExpressedChartConfig"\:"a19d532e-b0ce-4759-ad1c-02ecbbdf2efd","Patterns"\:{}};
#NOTES:
00000000
00000000
00000000
00000000
00000000
00000000
00000000
00000000
00000000
00000000
00000000
00020000
00000000
00000000
00000000
00000000
,
00000000
00000000
00000000
00000000
00000000
00000000
00000000
00000000
00000000
00030200
00000000
00000000
00000000
00000000
00000000
00000000
,
00000000
00000000
00000000
00000000
00000000
00000000
00000000
00002300
00000000
00000000
00000000
00000000
00000000
00000000
00000000
00000000
,
00000000
00000000
00000000
00000000
00000000
00003002
00000000
00000000
00000000
00000000
00000000
00000000
00000023
00000000
00000000
00000000
,
00000000
00000000
00000000
00002030
00000000
00000000
00000000
00000000
00000000
00000000
00000000
00000000
00000000
00000000
00000000
00000000
,
00000000
00003002
00000000
00000000
00000000
00000000
00000000
00000000
00000000
00000000
00000000
00000000
00000000
00000000
00000000
00000203
,
00000000
00000000
00000000
00000000
00000000
00000000
00000000
00000000
00000000
00000000
00000000
00000000
00000000
00002300
00000000
00000000
,
00000000
00000000
00000010
00000000
00000010
00003000
00000M1M
00000000
,
00000000
00001000
00000000
00000001
,
00000000
00001000
00000000
00000010
,
00000000
00000100
00000000
00000010
,
00000000
00010000
00000000
00001000
,
00000000
00100000
00000000
00010000
,
00000000
01000000
00000000
00010000
,
00000000
10000000
00000000
00100000
,
01000000
00010000
00000000
10000000
,
00000000
00000000
00000000
00100000
,
00000000
01000000
00000000
00001000
,
00000000
00000000
00000000
01000000
,
00000000
00200000
00000000
10300000
,
00000000
00010000
00000000
01000000
,
00000000
00010000
00000000
00100000
,
00000000
00010000
00000000
01000000
,
00001000
00010000
00000000
00000100
,
00000000
00000000
00000000
00001000
,
00000000
00000100
00000000
00010000
,
00000000
00000000
00000000
00000010
,
00000000
00020000
00000000
00031000
,
00000000
01000000
00000000
00001000
,
00000000
00010000
00000100
00010000
,
00000000
00000010
00000000
00001000
,
00000000
00000200
00000000
00010300
,
00000000
00000000
00000000
00010000
,
00000000
00000000
00000000
00001000
,
00000000
00000000
00000000
00001000
,
00000000
00000000
00000000
00100000
,
00000000
00000000
00000000
00100000
,
00000000
00000000
00000000
02000000
,
00000000
00000000
00000000
23000000
00000000
00000000
00000000
30000000
00000000
00020000
00000000
00000000
,
02030000
03002000
00003000
00010000
,
00000000
00000100
00000000
00010000
,
00000000
00000100
00000000
00001000
,
00000000
00000001
00000000
00001000
,
00000000
00000001
00000000
00000100
,
00000000
00000010
00000000
00000100
,
00000000
00000010
00000000
00010000
,
00000000
00001000
00000000
00100000
,
02000000
23000000
30200000
01300000
,
00000000
00001000
00000000
00100000
,
00001000
00010000
00000000
00000100
,
00000000
00010000
00000000
00001000
,
01000000
00001000
00000000
00010000
,
00000000
00000100
00000000
00001000
,
00000001
00001000
00000000
00000010
,
00000000
00010000
00000000
00000000
00001000
00000000
00000000
01000000
,
00000000
00002000
00000000
00013000
,
00000000
00000100
00000000
00010000
,
00000000
00001000
00010000
00001000
,
00000000
01000000
00000000
00100000
,
00000000
10000000
00100000
10000000
,
00000000
00010000
00000000
01000000
,
00000000
00001000
01000000
00001000
,
00000000
00010000
00000000
00000010
,
00010000
00000100
00000000
00000020
,
00000000
00000000
00000000
00000000
,
00000000
00000000
00000000
00000032
,
00000000
00000000
00000000
00000203
,
00000320
00000230
00000000
00000301
,
00000000
00001000
00000000
00000100
,
00000000
00010000
00000100
00010000
,
00000000
00001000
00000000
00100000
,
00000000
02000000
00000000
23000000
,
00000000
00000000
00000000
00000000
,
00000000
00000000
00000000
30200000
,
00000000
00000000
00000000
02300000
,
03020000
20030000
00000000
30100000
,
00000000
01000000
00000000
00001000
,
00000000
00010000
00001000
00010000
,
00000000
00000010
00000000
00001000
,
00000000
00000200
00000000
00010300
,
00000000
00000000
00000000
00010000
,
00000000
00000000
00000000
00000010
,
00000000
00000000
00000000
00000010
,
00000000
00001000
00000000
00000001
,
00000000
00000000
00000000
00000001
,
00000000
00000000
00000000
00000020
,
00000000
00000000
00000000
00000230
00000000
00000000
00000000
00000300
00000000
00020000
00000000
00000000
,
00032000
00203000
00300000
00001000
,
00000000
01000000
00000000
00100000
,
00000000
10000000
00000000
00000000
00010000
00000000
01000000
00000000
,
00000000
00010000
00000000
00100000
,
00000000
00010000
00000000
00000000
00100000
00000000
01000000
00000000
,
00000000
00100000
00000000
00001000
,
00000000
01000000
00000000
00000000
00001000
00000000
00010000
00000000
,
00000000
00000010
00000000
00000000
00000100
00000000
00000000
00000010
,
00000000
00000200
00000000
00000301
,
00000000
00001000
00000000
00000100
,
00000000
00010000
00000000
00002000
,
00000000
00000000
00000000
00000000
00000000
00003000
01000000
00000000
,
00000000
00001000
00000000
00010000
,
00000000
00001000
00000000
00100000
,
00000000
00010000
00000000
20000000
,
00000000
00000000
00000000
00000000
00000000
30000000
00000000
00000000
,
01000000
10000000
00000000
00010000
,
00000000
00100000
00000000
00001000
,
00100000
00001000
00000000
00010000
,
00000000
00000100
00000000
00010000
,
00000100
00010000
00000000
00000010
,
00000000
00001000
00000000
00000001
,
00000010
00000001
00000000
00000010
,
00000000
00000100
00000000
00001000
,
00000001
00001000
00000000
00000010
,
00000000
00010000
00000000
00000100
,
00001000
00000100
00000000
00010000
,
00000000
00001000
00000000
01000000
,
00001000
01000000
00000000
00010000
,
00000000
10000000
00000000
01000000
,
00100000
01000000
00000000
10000000
,
00000000
00010000
00000000
00100000
,
00010000
00100000
00000000
00002000
,
00000000
00000000
00000000
00000000
,
00000000
00000000
00003000
00000000
;

//--------------- dance-double - ----------------
#NOTEDATA:;
#STEPSTYPE:dance-double;
#DESCRIPTION:;
#DIFFICULTY:Easy;
#METER:9;
#RADARVALUES:0,0,0,0,0;
#OFFSET:0.075;
#BPMS:0.000=105.000
,31.000=210.000
;
#SPEEDS:0.000=1.000=0.000=0,
1.000=0.500=3.000=0,
29.000=0.625=0.500=0,
29.500=0.750=0.500=0,
30.000=0.875=0.500=0,
30.500=1.000=0.500=0
;
#SCROLLS:0.000=1.000;
#TICKCOUNTS:0.000=4;
#TIMESIGNATURES:0.000=4=4;
#LABELS:0.000=Song Start;
#COMBOS:0.000=1;
#CHARTNAME:;
#CHARTSTYLE:;
#CREDIT:KyokiShinsa;
#GAChartDataVersion:1;
#GAChartData:{"MusicOffset"\:0,"ShouldUseChartMusicOffset"\:false,"ExpressedChartConfig"\:"a19d532e-b0ce-4759-ad1c-02ecbbdf2efd","Patterns"\:{}};
#NOTES:
00000000
00000000
00000000
00000000
00000000
00000000
00000000
00000000
00000000
00000000
00000000
00002000
00000000
00000000
00000000
00000000
,
00000000
00000000
00000000
00000000
00000000
00000000
00000000
00000000
00000000
02003000
00000000
00000000
00000000
00000000
00000000
00000000
,
00000000
00000000
00000000
00000000
00000000
00000000
00000000
03020000
00000000
00000000
00000000
00000000
00000000
00000000
00000000
00000000
,
00000000
00000000
00000000
00000000
00000000
00230000
00000000
00000000
00000000
00000000
00000000
00000000
02300000
00000000
00000000
00000000
,
00000000
00000000
00000000
03020000
00000000
00000000
00000000
00000000
00000000
00000000
00000000
00000000
00000000
00000000
00000000
00000000
,
00000000
20030000
00000000
00000000
00000000
00000000
00000000
00000000
00000000
00000000
00000000
00000000
00000000
00000000
00000000
30200000
,
00000000
00000000
00000000
00000000
00000000
00000000
00000000
00000000
00000000
00000000
00000000
00000000
00000000
00320000
00000000
00000000
,
00000000
00000000
01000000
01000000
01000000
01030000
M0M10000
00000000
,
00000000
01000000
00000000
00100000
,
01000000
00001000
00010000
00000100
,
00000000
00001000
00000000
00000001
,
00001000
00000010
00000010
00010000
,
00000000
00000100
00000000
00001000
,
00000010
00010000
00000100
00001000
,
00000000
00000010
00000000
00001000
,
00001000
00000001
00000010
00000100
,
00000000
00010000
00000000
00000100
,
00000000
00001000
00000100
00010000
,
00000000
00001000
00000000
00010000
,
00000000
00001000
00100000
00010000
,
00010000
10000000
00000000
00010000
,
01000000
00001000
00001000
00100000
,
00100000
00010000
00000000
00100000
,
01000000
00100000
00100000
00001000
,
00000000
00010000
00000000
00000010
,
00000000
00000100
00000001
00001000
,
00000000
00000100
00000000
00010000
,
00010000
00000010
00001000
00000001
,
00000100
00000010
00010000
00000100
,
00001000
00000001
00000001
00000010
,
00000000
00000001
00000000
00001000
,
00000100
00001000
00001000
00000010
,
00000000
00000010
00000000
00001000
,
00000000
00001000
00000000
00000100
,
00000000
00000100
00000000
00010000
,
00000000
00010000
00000000
00001000
,
00000000
00001000
00000000
01000000
,
00000000
01000000
00000000
00010000
,
00000000
10000000
00000000
02000000
,
03200000
00320000
00030000
10000000
,
00100000
10000000
10000000
00020000
,
00000000
00230000
00000000
01300000
,
10000000
00010000
00010000
00200000
,
00000000
00302000
00003000
01000000
,
00001000
00010000
00010000
00000200
,
00000000
00000000
00000000
00000320
00000000
00000000
00000000
00000030
00000000
00000001
00000000
00000000
,
00000000
00001000
00000000
00000100
,
00002000
00003002
00000023
00000130
,
00010000
00001000
00010000
00000010
,
00000000
00010000
00000000
00000000
00000100
00000000
00001000
00000000
,
00000100
00010000
00001000
01000000
,
00000000
00100000
00000000
00000000
10000000
00000000
00100000
00000000
,
01000000
00010000
10000000
00010000
,
00000000
01000000
00000000
00001000
00000000
00000000
00010000
00000000
,
00000000
00000100
00000000
00000000
00001000
00000000
00000000
00000010
,
00000000
00020000
00000000
00031000
,
01000000
00001000
00100000
00001000
,
00010000
00000010
00000010
00010000
,
00001000
01000000
00100000
10000000
,
01000000
10000000
10000000
00010000
,
00100000
00010000
01000000
00001000
,
00010000
00000100
00000100
00001000
,
00000001
00001000
00000010
00000100
,
00000100
00000001
00000000
00002000
,
00000000
00000000
00000000
00000000
,
00000000
00000000
00000000
00003020
,
00000000
00000000
00000000
00020030
,
00032000
02003000
00000000
03010000
,
00100000
00001000
00010000
00000010
,
00010000
00000100
00000100
00001000
,
00000100
00010000
00001000
00100000
,
00010000
02000000
00000000
03002000
,
00000000
00000000
00000000
00000000
,
00000000
00000000
00000000
00203000
,
00000000
00000000
00000000
02300000
,
23000000
30020000
00000000
00130000
,
00001000
01000000
00010000
01000000
,
00001000
01000000
01000000
00010000
,
10000000
00010000
00100000
00001000
,
00001000
00020000
00000000
00030010
,
00000000
00000010
00000000
00000100
,
00000000
00000100
00000000
00000001
,
00000000
00000001
00000000
00001000
,
00000000
00001000
00000000
00000010
,
00000000
00000010
00000000
00010000
,
00000000
00010000
00000000
00002000
,
00000000
00000000
00000000
00203000
00000000
00000000
00000000
00300000
00000000
00020000
00000000
00000000
,
02030000
03002000
00003000
00010000
,
00000100
00010000
00000010
00010000
,
00000000
00000100
00000000
00000000
00001000
00000000
00000100
00000000
,
00000010
00000001
00000100
00000001
,
00000000
00001000
00000000
00000000
00000010
00000000
00010000
00000000
,
00001000
00100000
01000000
10000000
,
00000000
00100000
00000000
10000000
00000000
00000000
01000000
00000000
,
00000000
00100000
00000000
00000000
00001000
00000000
00000000
00010000
,
00000000
00000200
00000000
00001300
,
00000100
00000010
00000001
00000100
,
00000001
00001000
00000100
00010000
,
00010000
00000010
00010000
00001000
,
00001000
00100000
01000000
10000000
,
00000000
01000000
00100000
01000000
,
10000000
00010000
00100000
00001000
,
00001000
00010000
00000010
00001000
,
00000001
00000000
00000020
00000000
00000000
00000030
00000100
00000000
,
00010000
00001000
00100000
00010000
,
01000000
00001000
00001000
01000000
,
00010000
10000000
00010000
01000000
,
00001000
00010000
00010000
00000100
,
00000010
00000001
00001000
00000010
,
00001000
00000100
00000100
00010000
,
00000010
00010000
00001000
01000000
,
01000000
00100000
00000000
01000000
,
00001000
01000000
00010000
00100000
,
00001000
00010000
00010000
00001000
,
00100000
00001000
00010000
00000100
,
00010000
00001000
00001000
00100000
,
00001000
00010000
00000100
00000010
,
00000001
00000010
00000010
00000100
,
00010000
00001000
01000000
00020000
,
20030000
30200000
00300000
02000000
,
00000000
00000000
00000000
00000000
,
00000000
00000000
03000000
00000000
;

//--------------- dance-double - ----------------
#NOTEDATA:;
#STEPSTYPE:dance-double;
#DESCRIPTION:;
#DIFFICULTY:Medium;
#METER:13;
#RADARVALUES:0,0,0,0,0;
#OFFSET:0.075;
#BPMS:0.000=105.000
,31.000=210.000
;
#SPEEDS:0.000=1.000=0.000=0,
1.000=0.500=3.000=0,
29.000=0.625=0.500=0,
29.500=0.750=0.500=0,
30.000=0.875=0.500=0,
30.500=1.000=0.500=0
;
#SCROLLS:0.000=1.000;
#TICKCOUNTS:0.000=4;
#TIMESIGNATURES:0.000=4=4;
#LABELS:0.000=Song Start;
#COMBOS:0.000=1;
#CHARTNAME:;
#CHARTSTYLE:;
#CREDIT:KyokiShinsa;
#GAChartDataVersion:1;
#GAChartData:{"MusicOffset"\:0,"ShouldUseChartMusicOffset"\:false,"ExpressedChartConfig"\:"a19d532e-b0ce-4759-ad1c-02ecbbdf2efd","Patterns"\:{}};
#NOTES:
00000000
00000000
00000000
00000000
00000000
00000000
00000000
00000000
00000000
00000000
00000000
00020000
00000000
00000000
00000000
00000000
,
00000000
00000000
00000000
00000000
00000000
00000000
00000000
00000000
00000000
00030200
00000000
00000000
00000000
00000000
00000000
00000000
,
00000000
00000000
00000000
00000000
00000000
00000000
00000000
00002300
00000000
00000000
00000000
00000000
00000000
00000000
00000000
00000000
,
00000000
00000000
00000000
00000000
00000000
00003020
00000000
00000000
00000000
00000000
00000000
00000000
00000230
00000000
00000000
00000000
,
00000000
00000000
00000000
00002300
00000000
00000000
00000000
00000000
00000000
00000000
00000000
00000000
00000000
00000000
00000000
00000000
,
00000000
00003002
00000000
00000000
00000000
00000000
00000000
00000000
00000000
00000000
00000000
00000000
00000000
00000000
00000000
00000023
,
00000000
00000000
00000000
00000000
00000000
00000000
00000000
00000000
00000000
00000000
00000000
00000000
00000000
00002030
00000000
00000000
,
00000000
00000000
00000001
00000001
00000001
00003001
00001MM0
00000000
,
00000010
00001000
00000100
00000010
,
00000100
00000000
00000000
00010000
00000000
00000010
00010000
00000000
00000010
00010000
00000000
00000000
,
00001000
00100000
00010000
00100000
,
00001000
00000000
00000000
01000000
00000000
00001000
01000000
00000000
00001000
01000000
00000000
00000000
,
00010000
10000000
00100000
01000000
,
00010000
00000000
00000000
10000000
00000000
00100000
10000000
00000000
00100000
10000000
00000000
00000000
,
00010000
00000000
00000000
01000000
00000000
00000000
00001000
00000000
00010000
00000100
00000000
00010000
,
00000100
00000000
00010000
00000100
00000000
00000000
00001000
00000000
00000000
00000010
00000000
00000000
,
00000000
00000010
00000000
00001000
,
00000100
00010000
00001000
00100000
,
00000000
00100000
00000000
00002000
,
02003000
03020000
00000000
00130000
,
01000000
10000000
01000000
00100000
,
00001000
00000000
00000000
00010000
00000000
00001000
00010000
00000000
00001000
00010000
00000000
00000000
,
00001000
00000000
00000000
00100000
00000000
00000000
00010000
00000000
01000000
00001000
00000000
01000000
,
00001000
00000000
01000000
00001000
00000000
00000000
00010000
00000000
00000000
00000100
00000000
00000000
,
00000000
00000100
00000000
00000010
,
00000001
00000100
00000010
00010000
,
00000000
00010000
00000000
00002000
,
02003000
03200000
00000000
10300000
,
00010000
10000000
00010000
01000000
,
00001000
00000000
00000000
01000000
00000000
00001000
00010000
00000000
00001000
00100000
00000000
00000000
,
00010000
00000000
00000000
01000000
00000000
00000000
00010000
00000000
00100000
00001000
00000000
00100000
,
00001000
00000000
00100000
00001000
00000000
00000000
00010000
00000000
00000000
00000010
00000000
00000000
,
00000000
00000010
00000000
00000100
,
00000000
00000100
00000000
00000001
,
00000000
00000001
00000000
00000010
,
00000000
00000010
00000000
00000100
,
00000000
00000100
00000000
00010000
,
00000000
00010000
00000000
00002000
,
00000000
00000000
00000000
00000000
00003000
00000000
02000000
00000000
00000000
00000000
00000000
00000000
00000000
00000000
00000000
03000000
00000000
00000000
00020000
00000000
00000000
00000000
00030000
00000000
,
20000000
00000000
30000000
02000000
00000000
00000000
03000000
00000000
00000000
00100000
00000000
00000000
,
00001000
00000000
00000000
00010000
00000000
00010000
00000000
00000000
00000000
00000010
00000000
00000000
,
00001000
00000100
00000100
00010000
,
00000010
00000000
00000000
00001000
00000000
00001000
00000000
00000000
00000000
00000100
00000000
00000000
,
00000010
00000001
00000001
00001000
,
00000100
00000000
00000000
00010000
00000000
00010000
00000000
00000000
00000000
00001000
00000000
00000000
,
01000000
00000000
00000000
00010000
00000000
00000000
00010000
00000000
00000000
10000000
00000000
00010000
,
00000000
00000000
10000000
00010000
00000000
00000000
01000000
00000000
00010000
02000000
00000000
00000000
,
03002000
00023000
00030020
00000130
,
00000001
00000100
00000010
00001000
,
00000100
00000000
00001000
00000000
00000000
00000100
00001000
00000000
00000000
00000010
00000000
00000000
,
00010000
00000000
00000000
00001000
00000000
00000000
00100000
00000000
00000000
01000000
00000000
00100000
,
01000000
00000000
00100000
00000000
00000000
00010000
01000000
00000000
00000000
00001000
00000000
00000000
,
00010000
00000000
00000000
00000100
00000000
00000000
00001000
00000000
00000000
00000001
00000000
00001000
,
00000010
00000000
00001000
00000000
00000000
00000010
00000000
00000000
00000000
00010000
00000000
00000000
,
00001000
00000000
00000000
00000000
00010000
00000000
00000000
00000000
00000000
00001000
00000000
00000000
00010000
00000000
00000000
00000000
00000000
00000000
00001000
00000000
00000000
00000000
01000000
00000000
,
00000000
00001000
02000000
00000000
00000000
00000000
03010000
00000000
,
00100000
01000000
10000000
00010000
,
00100000
00000000
00000000
00010000
00000000
10000000
00010000
00000000
10000000
00010000
00000000
00000000
,
00100000
00001000
01000000
00001000
,
00010000
00000000
00000000
00000100
00000000
00010000
00000100
00000000
00010000
00000100
00000000
00000000
,
00000010
00000001
00000100
00000010
,
00001000
00000000
00000000
00000001
00000000
00001000
00000100
00000000
00001000
00000100
00000000
00000000
,
00010000
00000000
00000000
00001000
00000000
00000000
00100000
00000000
01000000
10000000
00000000
01000000
,
10000000
00000000
01000000
10000000
00000000
00000000
01000000
00000000
00000000
00200000
00000000
00000000
,
00000000
00000000
00000000
00000000
,
00000000
00000000
00000000
00302000
,
00000000
00000000
00000000
00023000
,
00030200
00002300
00000000
00003010
,
00001000
00000001
00000010
00000001
,
00001000
00000000
00000000
00000010
00000000
00001000
00000100
00000000
00001000
00000100
00000000
00000000
,
00010000
00000000
00000000
00001000
00000000
00000000
00100000
00000000
00010000
00100000
00000000
00010000
,
00100000
00000000
00010000
00200000
00000000
00000000
00000000
00000000
00000000
02300000
00000000
00000000
,
00000000
00000000
00000000
00000000
,
00000000
00000000
00000000
23000000
,
00000000
00000000
00000000
30020000
,
02030000
03002000
00000000
00013000
,
00000010
00001000
00000001
00000100
,
00000010
00000000
00000000
00010000
00000000
00000010
00010000
00000000
00000010
00010000
00000000
00000000
,
00001000
00000000
00000000
00100000
00000000
00000000
01000000
00000000
10000000
01000000
00000000
10000000
,
01000000
00000000
10000000
01000000
00000000
00000000
00100000
00000000
00000000
00001000
00000000
00000000
,
00000000
00001000
00000000
00010000
,
00000000
00010000
00000000
00000100
,
00000000
00000100
00000000
00001000
,
00000000
00001000
00000000
00000001
,
00000000
00000001
00000000
00000100
,
00000000
00000100
00000000
00000020
,
00000000
00000000
00000030
00020000
00000000
00000000
00000000
00030000
00000000
00002000
00000000
00000000
,
02003000
03020000
00030000
00100000
,
00001000
01000000
00010000
00100000
,
00010000
00000000
00100000
00000000
00000000
00010000
01000000
00000000
00000000
00001000
00000000
00000000
,
00010000
00000000
00000000
00000010
00000000
00000000
00001000
00000000
00000000
00000100
00000000
00001000
,
00000100
00000000
00001000
00000000
00000000
00000001
00000000
00000000
00000000
00000100
00000000
00000000
,
00000010
00000000
00000000
00001000
00000000
00000000
00000010
00000000
00000000
00010000
00000000
00001000
,
00010000
00000000
00001000
00000000
00000000
00100000
00000000
00000000
00000000
01000000
00000000
00000000
,
10000000
00000000
00000000
00000000
00010000
00000000
00000000
00000000
00000000
01000000
00000000
00000000
00100000
00000000
00000000
00000000
00000000
00000000
01000000
00000000
00000000
00001000
00000000
00000000
,
00000000
00010000
00000200
00000000
00000000
00000000
00001300
00000000
,
00000001
00000010
00000100
00010000
,
00000010
00010000
00001000
00100000
,
00010000
10000000
00010000
01000000
,
00001000
00000000
00000000
00020000
00000000
00000000
00000000
00030000
00000000
00000200
00000000
00000000
,
00001300
00000001
00001000
00000100
,
00001000
00000001
00001000
00000010
,
00010000
00001000
01000000
00100000
,
20000000
30020000
00000000
00130000
,
01000000
00000000
00000000
00100000
00000000
00000000
00010000
00000000
00000000
01000000
00000000
00010000
,
01000000
00000000
00010000
01000000
00000000
00000000
00010000
00000000
00000000
00100000
00000000
00000000
,
00001000
00000000
00000000
00010000
00000000
00000000
00000010
00000000
00000000
00010000
00000000
00000100
,
00001000
00000000
00000100
00001000
00000000
00000000
00000010
00000000
00000000
00000100
00000000
00000000
,
00000001
00000000
00000000
00001000
00000000
00000000
00000010
00000000
00000000
00001000
00000000
00000100
,
00001000
00000000
00000100
00001000
00000000
00000000
00000001
00000000
00000000
00000010
00000000
00000000
,
00000100
00000000
00000000
00010000
00000000
00000000
00001000
00000000
00000000
01000000
00000000
00010000
,
10000000
00000000
00010000
10000000
00000000
00000000
00100000
00000000
00000000
01000000
00000000
00000000
,
00010000
00000000
00000000
10000000
00000000
00000000
01000000
00000000
00000000
00100000
00000000
00010000
,
00100000
00000000
00010000
00100000
00000000
00000000
00001000
00000000
00000000
00010000
00000000
00000000
,
00000010
00000000
00000000
00000100
00000000
00000000
00000010
00000000
00000000
00001000
00000000
00000001
,
00001000
00000000
00000001
00001000
00000000
00000000
00000100
00000000
00000000
00010000
00000000
00000000
,
00000010
00000000
00000000
00001000
00000000
00000000
00000100
00000000
00000000
00010000
00000000
00000100
,
00010000
00000000
00000100
00010000
00000000
00000000
00001000
00000000
00000000
01000000
00000000
00000000
,
00100000
00000000
00000000
10000000
00000000
00000000
00010000
00000000
00000000
01000000
00000000
00001000
,
01000000
00000000
00001000
01000000
00000000
00000000
00100000
00000000
00000000
20000000
00000000
00000000
,
00000000
00000000
00000000
00000000
,
00000000
00000000
30000000
00000000
;

//--------------- dance-double - ----------------
#NOTEDATA:;
#STEPSTYPE:dance-double;
#DESCRIPTION:;
#DIFFICULTY:Hard;
#METER:15;
#RADARVALUES:0,0,0,0,0;
#OFFSET:0.075;
#BPMS:0.000=105.000
,31.000=210.000
;
#SPEEDS:0.000=1.000=0.000=0,
1.000=0.500=3.000=0,
29.000=0.625=0.500=0,
29.500=0.750=0.500=0,
30.000=0.875=0.500=0,
30.500=1.000=0.500=0
;
#SCROLLS:0.000=1.000;
#TICKCOUNTS:0.000=4;
#TIMESIGNATURES:0.000=4=4;
#LABELS:0.000=Song Start;
#COMBOS:0.000=1;
#CHARTNAME:FS, XO;
#CHARTSTYLE:;
#CREDIT:KyokiShinsa;
#GAChartDataVersion:1;
#GAChartData:{"MusicOffset"\:0,"ShouldUseChartMusicOffset"\:false,"ExpressedChartConfig"\:"a19d532e-b0ce-4759-ad1c-02ecbbdf2efd","Patterns"\:{}};
#NOTES:
00000000
00000000
00000000
00000000
00000000
00000000
00000000
00000000
00000000
00000000
00000000
00002000
00000000
00000000
00000000
00000000
,
00000000
00000000
00000000
00000000
00000000
00000000
00000000
00000000
00000000
00203000
00000000
00000000
00000000
00000000
00000000
00000000
,
00000000
00000000
00000000
00000000
00000000
00000000
00000000
00320000
00000000
00000000
00000000
00000000
00000000
00000000
00000000
00000000
,
00000000
00000000
00000000
00000000
00000000
02030000
00000000
00000000
00000000
00000000
00000000
00000000
03200000
00000000
00000000
00000000
,
00000000
00000000
00000000
00320000
00000000
00000000
00000000
00000000
00000000
00000000
00000000
00000000
00000000
00000000
00000000
00000000
,
00000000
20030000
00000000
00000000
00000000
00000000
00000000
00000000
00000000
00000000
00000000
00000000
00000000
00000000
00000000
32000000
,
00000000
00000000
00000000
00000000
00000000
00000000
00000000
00000000
00000000
00000000
00000000
00000000
00000000
03200000
00000000
00000000
,
00000000
00000000
00000000
00000000
00000000
00000000
10000000
00000000
00000000
10000000
00000000
00000000
10000000
00000000
00000000
10300000
00000000
00000000
0M1M0000
00000000
00000000
00000000
01000000
00000000
,
00100000
00000000
10000000
01000000
00000000
10000000
00010000
00000000
01000000
00010000
00000000
00100000
,
00001000
00000000
00000000
00000000
00010000
00000000
00000020
00000000
00000000
00002030
00000000
00000000
00003002
00000000
00000000
00000203
00000000
00000000
00000310
00000000
00000000
00000000
00001000
00000000
,
00000010
00000000
00010000
00000100
00000000
00001000
00000100
00000000
00010000
00000010
00000000
00001000
,
00000100
00000000
00000010
00000001
00001000
00000100
00010000
00000010
00001000
00000100
00000000
00010000
,
00000100
00000000
00001000
00000010
00000000
00001000
00000001
00000000
00001000
00000010
00000000
00010000
,
00001000
00000000
02000000
00010000
00000000
00000000
00010000
00000000
00000000
03001000
00000000
01000000
,
00010000
00000000
00100000
00001000
00000000
01000000
00010000
00000000
00100000
00001000
00000000
00001000
,
01000000
00000000
00000000
00000000
01000000
00000000
00010000
00000000
00000000
00000000
00000000
00000000
00100000
00000000
00000000
00000000
00000000
00000000
00001000
00000000
00000000
00010000
00000000
00000000
,
00000000
00000100
00000100
00000000
00001000
00000000
00000002
00000000
,
00000203
00000000
00000302
00000000
00000003
00000000
00001000
00000001
,
00000000
00000010
00000100
00000000
00001000
00000000
00000020
00000000
,
00020030
00000000
00000000
00030200
00000000
00000000
00000000
00000000
00000000
00001300
00000000
00000010
,
00010000
00000000
00000100
00001000
00000000
00000100
00010000
00000000
00001000
01000000
00000000
00010000
,
01000000
00000000
00001000
00100000
00010000
01000000
00100000
01000000
00010000
00100000
00000000
00001000
,
01000000
00000000
00010000
10000000
00000000
00010000
00100000
00000000
00001000
00010000
00000000
00000010
,
00001000
00000000
00000100
00010000
00000000
00010000
00000010
00000000
00000000
00001000
00000000
00000001
,
00000000
00000100
00000001
00000000
00001000
00000000
00000001
00000000
,
00000001
00000000
00000000
00001000
00000000
00000000
00000100
00000000
00000000
00001000
00000000
00000010
,
00000000
00001000
00000100
00000000
00010000
00000000
00000100
00000000
,
00001000
00000000
00000000
00000020
00000000
00000000
00000000
00000000
00000000
00001030
00000000
00000100
,
00001000
00000000
00000001
00001000
00000000
00000100
00010000
00000000
00001000
00100000
00000000
00010000
,
01000000
00000000
00100000
01000000
00000000
10000000
01000000
00000000
00100000
00000000
00000000
10000000
,
00100000
00000000
01000000
00100000
00000000
10000000
01000000
00000000
00100000
00010000
00000000
00100000
,
00001000
00000000
01000000
00020000
00000000
00000000
00000000
00000000
00000000
00030000
00000000
00000000
,
10000000
00000000
10000000
00000000
,
00010000
00000000
00010000
00000000
,
01000000
00000000
01000000
00000000
,
00001000
00000000
00001000
00000000
,
00010000
00000000
00010000
00000000
,
00000010
00000000
00000010
00002000
,
00000000
00000000
00000000
00000000
00003000
00000000
00000200
00000000
00000000
00000000
00000000
00000000
00000000
00000000
00000000
00000300
00000000
00000000
00020000
00000000
00000000
00000000
00030000
00000000
,
00000020
00000000
00000030
00002000
00000000
00000000
00000000
00000000
00003000
00000100
00000000
00000000
,
00000010
00000000
00000000
00001000
00000000
00000010
00000000
00000000
00000001
00000000
00000000
00000100
,
00000020
00000001
00000031
00000010
,
00001000
00000000
00000000
00000100
00000000
00000001
00000000
00000000
00000100
00000000
00000000
00001000
,
00000020
00000001
00000031
00000010
,
00001000
00000000
00000000
00000100
00000000
00000010
00000000
00000000
00001000
00000000
00000000
00000010
,
00000200
00000000
00000000
00001000
00000000
00000000
00001300
00000000
00000000
00000010
00000000
00001000
,
00000000
00000000
00000100
00010000
00000000
00000000
00001000
00000000
01000000
00010000
00000000
00100000
,
02000000
00000000
00000000
23000000
00000000
00000000
30200000
00000000
00000000
01300000
00000000
00010000
,
00100000
00000000
00100000
00001000
00000000
00001000
01000000
00000000
01000000
00010000
00000000
00010000
,
10000000
00000000
01000000
00000000
00000000
M1000000
00010000
00000000
00000000
00100000
00000000
00001000
,
01000000
00000000
01000000
00010000
00000000
00010000
00100000
00000000
00100000
00001000
00000000
00001000
,
01000000
00000000
00010000
00000000
00000000
0M010000
00001000
00000000
00000000
01000000
00000000
00010000
,
10000000
00000000
10000000
01000000
00000000
01000000
00100000
00000000
00100000
00010000
00000000
00010000
,
01000000
00000000
00100000
00000000
00000000
0M100000
00010000
00000000
00000000
01000000
00000000
00000000
,
00100000
00000000
00000000
00000000
00010000
00000000
00000000
00000000
00000000
00100000
00000000
00000000
10000000
00000000
00000000
00000000
00000000
00000000
01000000
00000000
00000000
00000000
00010000
00000000
,
00000000
00000000
00000000
01000000
00000000
00000000
00200000
00000000
00000000
00000000
00000000
00000000
00000000
00000000
00000000
00000000
00000000
00000000
01300000
00000000
00000000
00000000
00100000
00000000
,
00010000
00000000
00100000
00001000
00000000
00100000
00010000
00000000
01000000
00001000
00000000
00010000
,
00000100
00000000
00000000
00000000
00000000
00000000
00000000
00000000
00001000
00000000
00000000
00000000
00000200
00000000
00000000
00000300
00000000
00000000
00020000
00000000
00000000
00030000
00000000
00000000
00002000
00000000
00000000
00003000
00000000
00000000
00020000
00000000
00000000
00030000
00000000
00000000
00000020
00000000
00000000
00000030
00000000
00000000
00000000
00000000
00001000
00000000
00000000
00000000
,
00000100
00000000
00010000
00000100
00000000
00001000
00000100
00000000
00010000
00000100
00000000
00001000
,
00000010
00000000
00000100
00000001
00000010
00000100
00001000
00000010
00010000
00001000
00000000
00100000
,
00001000
00000000
00010000
00000100
00000000
00010000
00000010
00000000
00001000
00000100
00000000
00010000
,
00001000
00000000
00000000
00000000
00100000
00000000
00004000
00000000
00000000
00000000
00000000
00000000
00000000
00000000
00000000
00003000
00000000
00000000
00010000
00000000
00000000
00000000
00000010
00000000
,
00010000
00000000
00001000
00100000
00000000
00001000
00010000
00000000
00000010
00010000
00000000
00010000
,
00000100
00000000
00000100
00001000
00000000
00000000
00000000
00000000
00000000
00000020
00000000
00000000
,
00000000
00000000
00000000
00000000
,
00000000
00000000
00000000
00000230
,
00000000
00000000
00000000
00002300
,
00003200
00000000
00000000
00000320
00000000
00000000
00000000
00000000
00000000
00001030
00000000
00000100
,
00010000
00000000
00001000
00100000
00000000
00010000
00100000
00000000
00001000
00010000
00000000
00001000
,
01000000
00000000
00010000
10000000
00100000
10000000
00010000
01000000
00001000
00010000
00000000
00000010
,
00010000
00000000
00001000
00100000
00000000
00010000
01000000
00000000
00001000
00010000
00000000
00000010
,
00010000
00000000
00000100
00002000
00000000
00000000
00000000
00000000
00000000
00003020
00000000
00000000
,
00000000
00000000
00000000
00000000
,
00000000
00000000
00000000
00000230
,
00000000
00000000
00000000
00002300
,
00003200
00000000
00000000
00000320
00000000
00000000
00000000
00000000
00000000
00001030
00000000
00000001
,
00001000
00000000
00000010
00010000
00000000
00000100
00001000
00000000
00000010
00010000
00000000
00000010
,
00001000
00000000
00000000
00000000
00000001
00000000
00004000
00000000
00000000
00000000
00000000
00000000
00000000
00000000
00000000
00003000
00000000
00000000
00000100
00000000
00000000
00000000
00010000
00000000
,
00001000
00000000
01000000
00010000
00000000
10000000
01000000
00000000
10000000
00010000
00000000
00100000
,
01000000
00000000
10000000
00020000
00000000
00000000
00000000
00000000
00000000
00030000
00000000
00000000
,
10000000
00000000
10000000
00000000
,
00010000
00000000
00010000
00000000
,
01000000
00000000
01000000
00000000
,
00001000
00000000
00001000
00000000
,
00010000
00000000
00010000
00000000
,
00000100
00000000
00000100
00002000
,
00000000
00000000
00003000
00000020
00000000
00000000
00000000
00000030
00000000
00020000
00000000
00000000
,
00030200
00000000
00000000
00002300
00000000
00000000
00003000
00000000
00000000
00000001
00000000
00001000
,
00000001
00000000
00000001
00000100
00000000
00000100
00000010
00000000
00000010
00001000
00000000
00001000
,
00000001
00000000
00000100
00000000
00000000
0000010M
00001000
00000000
00000000
00000010
00000000
00010000
,
00001000
00000000
00001000
01000000
00000000
01000000
00010000
00000000
00010000
10000000
00000000
10000000
,
00100000
00000000
01000000
00000000
00000000
01M00000
00100000
00000000
00000000
00010000
00000000
01000000
,
00001000
00000000
00001000
00010000
00000000
00010000
00000010
00000000
00000010
00001000
00000000
00001000
,
00000001
00000000
00000100
00000000
00000000
0000010M
00001000
00000000
00000000
00000010
00000000
00000000
,
00000100
00000000
00000000
00000000
00001000
00000000
00000000
00000000
00000000
00000100
00000000
00000000
00000001
00000000
00000000
00000000
00000000
00000000
00000010
00000000
00000000
00001000
00000000
00000000
,
00000000
00000000
00000000
00000010
00000000
00000000
00000200
00000000
00000000
00000000
00000000
00000000
00000000
00000000
00000000
00000000
00000000
00000000
00001300
00000000
00000000
00000000
00000100
00000000
,
00010000
00000000
00000100
00001000
00000000
00000100
00010000
00000000
00000010
00001000
00000000
00000001
,
00001000
00000000
00000100
00001000
00000000
00000001
00001000
00000000
00000010
00000100
00000000
00001000
,
00000100
00000000
00000010
00000100
00000000
00001000
00000100
00000000
00000001
00000010
00000000
00001000
,
00000010
00000000
00000100
00000010
00000000
00001000
00000010
00000000
00000000
00000110
00000000
00000000
,
00000100
00000000
00000000
00010000
00000000
00001000
00100000
00000000
00001000
00010000
00000000
00001000
,
00100000
00000000
00010000
10000000
00000000
01000000
10000000
00000000
00100000
01000000
00000000
10000000
,
01000000
00000000
00010000
00100000
00000000
10000000
00100000
00000000
01000000
10000000
00000000
00100000
,
01000000
00000000
00000000
00020000
00000000
00000000
00000000
00030000
00000000
00100000
00000000
00010000
,
10000000
00000000
10000000
01000000
00000000
01000000
10000000
00000000
10000000
01000000
00000000
01000000
,
00100000
00000000
00100000
00010000
00000000
00010000
01000000
00000000
00000000
00001000
00000000
00010000
,
00000100
00000000
00000100
00010000
00000000
00010000
00000100
00000000
00000100
00010000
00000000
00010000
,
00001000
00000000
00001000
01000000
00000000
00000000
00010000
00000000
00000000
00100000
00000000
00001000
,
01000000
00000000
01000000
00010000
00000000
00010000
01000000
00000000
01000000
00010000
00000000
00010000
,
00100000
00000000
00100000
00001000
00000000
00001000
00010000
00000000
00000000
00000100
00000000
00001000
,
00000001
00000000
00000001
00001000
00000000
00001000
00000010
00000000
00000010
00001000
00000000
00001000
,
00000001
00000000
00000001
00000100
00000000
00000000
00000010
00000000
00000000
00001000
00000000
00000100
,
00010000
00000000
00010000
00000100
00000000
00000100
00010000
00000000
00010000
00001000
00000000
00001000
,
01000000
00000000
01000000
00010000
00000000
00010000
10000000
00000000
00000000
01000000
00000000
00100000
,
00010000
00000000
00010000
00100000
00000000
00100000
00001000
00000000
00001000
00010000
00000000
00010000
,
00001000
00000000
00001000
01000000
00000000
00000000
00010000
00000000
00000000
10000000
00000000
01000000
,
10000000
00000000
10000000
00010000
00000000
00010000
00100000
00000000
00100000
00001000
00000000
00001000
,
01000000
00000000
01000000
00010000
00000000
00010000
00100000
00000000
00000000
01000000
00000000
10000000
,
00010000
00000000
00010000
01000000
00000000
01000000
00001000
00000000
00001000
00010000
00000000
00010000
,
00000010
00000000
00000010
00001000
00000000
00000000
00000001
00000000
00000000
00000020
00000000
00000000
,
00000000
00000000
00000000
00000000
,
00000000
00000000
00000030
00000000
;
