#VERSION:0.83;
#TITLE:クレイジー0時Playクレイジー (feat. 初音ミク);
#SUBTITLE:;
#ARTIST:Camellia;
#TITLETRANSLIT:Crazy Reiji Play Crazy (feat. Hatsune Miku);
#SUBTITLETRANSLIT:;
#ARTISTTRANSLIT:;
#GENRE:Magic The Gathering;
#CREDIT:;
#MUSIC:Crazy Reiji Play Crazy.ogg;
#BANNER:Crazy Reiji Play Crazy.png;
#BACKGROUND:Crazy Reiji Play Crazy-bg.png;
#CDTITLE:;
#SAMPLESTART:52.118;
#SAMPLELENGTH:12.973;
#SELECTABLE:YES;
#OFFSET:-0.226;
#BPMS:0.000=148.000;
#STOPS:;
#SPEEDS:0.000=1.000=0.000=0,
96.000=0.500=0.000=0,
112.000=1.000=6.500=0
;
#SCROLLS:0.000=1.000,
127.000=0.000,
127.750=2.000,
128.000=1.000,
208.000=0.333,
215.000=0.000,
215.750=2.000,
216.000=1.000,
241.250=0.000,
241.750=2.000,
242.000=1.000,
243.250=0.000,
243.750=2.000,
244.000=1.000,
248.000=0.500,
248.125=3.000,
248.250=5.000,
249.375=1.000,
249.500=0.100
;
#JACKET:Crazy Reiji Play Crazy-jacket.png;
#DISCIMAGE:;
#CDIMAGE:;
#BGCHANGES:-0.557=Crazy Reiji Play Crazy.mp4=1.000=1=0=0=StretchNoLoop==CrossFade==;
#FGCHANGES:;

//--------------- dance-single - ----------------
#NOTEDATA:;
#STEPSTYPE:dance-single;
#CREDIT:Kikoia;
#DESCRIPTION:;
#DIFFICULTY:Beginner;
#METER:3;
#RADARVALUES:0,0,0,0,0;
#NOTES:
0000
0000
0000
0000
,
0000
0000
0000
0000
,
0000
0000
0000
0000
,
0000
0000
0000
0000
,
0001
0000
1000
0000
,
0100
0000
0000
0000
,
1000
0000
0001
0000
,
0100
0000
0000
0000
,
0001
0000
0000
0000
,
0001
0000
0000
0000
,
1000
0000
1000
0000
,
0010
0000
0010
0000
,
1000
0000
0000
0000
,
1000
0000
0000
0000
,
0001
0000
0001
0000
,
0010
0000
0010
0000
,
0001
0000
0100
0000
,
0001
0000
0001
0000
,
1000
0000
0100
0000
,
1000
0000
1000
0000
,
0010
0000
0100
0000
,
0001
0000
0001
0000
,
0010
0000
0100
0000
,
1000
0000
1000
1000
,
1000
0000
0000
0000
,
0000
0000
0000
0000
,
0000
0000
0000
0000
,
0000
0000
0000
0000
,
0000
0000
0000
0000
,
0000
0000
0000
0000
,
1001
0000
0000
0000
,
0001
0001
0001
0000
,
0001
0000
0100
0000
,
0001
0000
0010
0000
,
0100
0000
0100
0000
,
1000
0000
1000
0000
,
0001
0000
0010
0000
,
0001
0000
1000
0000
,
0010
0000
0010
0000
,
0100
0000
0100
0000
,
0001
0000
0000
0000
,
1000
0000
0000
0000
,
0001
0000
0000
0000
,
0010
0000
0000
0000
,
0110
0000
0000
0000
,
1001
0000
0000
0000
,
1000
0000
0100
0000
,
0010
0010
0010
0000
,
0001
0000
0000
0000
,
0000
0000
0000
0000
,
1001
0000
0000
0000
,
0000
0000
0000
0000
,
1000
0000
0000
0000
,
0010
0010
0010
0000
,
1000
0000
0001
0000
,
0100
0100
0100
0000
,
0001
0000
1000
0000
,
0100
0100
0100
0000
,
0010
0000
0010
0000
,
0001
0001
0001
0000
,
1000
0000
1000
0000
,
1000
1000
1000
0001
,
1001
0000
0000
0000
;

//--------------- dance-single - ----------------
#NOTEDATA:;
#STEPSTYPE:dance-single;
#CREDIT:Kikoia;
#DESCRIPTION:;
#DIFFICULTY:Easy;
#METER:7;
#RADARVALUES:0,0,0,0,0;
#NOTES:
0000
0000
0000
0000
,
0000
0000
0000
0000
,
0000
0000
0000
0000
,
0000
0000
0000
0000
,
2000
0000
0000
0000
3001
0000
0100
0010
,
0000
0010
0000
1000
0000
1000
0001
0000
,
0020
0000
0000
0000
0130
0000
1000
0001
,
0000
0001
0000
0100
0000
0010
2000
0000
,
3001
0000
0100
0010
0000
1000
0000
0001
,
0000
0010
0000
0100
1000
0000
0001
0100
,
0000
1000
0002
0000
1000
1003
0000
0001
,
2000
0000
0001
3001
0000
1000
0020
0000
,
0130
0000
0001
0010
0000
0100
0000
1000
,
0000
0001
0000
1000
0010
0000
0001
0010
,
0000
0002
1000
0000
1000
1003
0000
2000
,
0001
0000
0001
3001
0000
0000
0000
0000
,
1000
0000
0010
0000
0100
0001
0100
0000
,
0001
0000
0010
0000
0100
1000
0100
0000
,
1000
0000
0001
0000
0100
0010
0100
0000
,
0001
0000
0010
0000
0100
0010
0100
0000
,
0001
1000
0100
0010
,
0001
1000
0010
0100
,
0001
0010
0001
0100
,
0002
0003
0002
0003
2000
3000
2000
3000
,
2002
0000
0000
0000
,
0000
0000
0000
0000
,
3003
0000
0000
0000
,
0000
0000
0000
0000
,
1000
1000
0100
0100
,
1000
1000
0001
0001
,
0100
0000
0000
0000
0000
0000
0000
0100
,
0010
0010
0010
0110
,
1001
0000
1000
0000
0010
1000
0010
0000
,
1000
0000
0001
0000
0010
0001
0010
0000
,
0002
2003
3020
0230
,
0302
2003
3100
0110
,
1001
0000
0001
0000
0010
0001
0010
0000
,
0001
0000
1000
0000
0010
1000
0010
0000
,
1000
0002
0023
0230
,
2300
0000
3020
0000
0130
0001
0100
0000
,
0001
0000
0001
0000
1000
0100
0010
0000
,
0001
0000
0001
0000
0100
0010
1000
0000
,
0100
0000
0100
0000
1000
0010
0100
0000
,
0002
0023
0130
0110
,
1000
0000
1000
0000
0001
0100
0010
0000
,
1000
0000
1000
0000
0100
0010
0001
0000
,
1000
0001
1000
0000
0001
1000
0001
0000
,
0100
0010
0100
0010
0200
0000
0000
0000
,
0000
0000
0000
0000
,
0000
0000
0300
0000
,
0000
0000
0000
0000
,
0000
0000
0000
0000
,
1001
0000
0000
0000
,
0010
0010
0010
0010
,
1000
0001
1000
0000
1000
0000
0001
0100
,
0010
0010
1000
1000
,
0001
1000
0001
0000
0001
0000
1000
0100
,
0010
0010
0001
0001
,
1000
0010
0100
0000
0100
0000
0001
0000
,
0010
0010
0100
0100
,
1000
0000
0001
0000
2000
0000
0000
3000
0001
0000
1000
0000
0002
0000
0000
0003
,
1000
0000
0000
1000
0000
0000
0010
0000
0000
0010
0000
0000
0100
0000
0000
0000
,
2002
0000
0000
3003
0000
0000
0000
0000
;

//--------------- dance-single - ----------------
#NOTEDATA:;
#STEPSTYPE:dance-single;
#CREDIT:Kikoia;
#DESCRIPTION:;
#DIFFICULTY:Medium;
#METER:13;
#RADARVALUES:0,0,0,0,0;
#NOTES:
0000
0000
0000
0000
,
0000
0000
0000
0000
,
0000
0000
0000
0000
,
0000
0000
0000
0000
,
2001
0000
3010
0100
0001
1000
0100
0002
,
0000
0000
0103
0000
1000
0000
0001
0100
0000
0001
0100
0000
0010
0000
1002
0000
,
0000
0000
0013
0000
0100
0000
1000
0001
0100
0000
0010
0000
0100
0000
2000
0000
,
0000
0000
3100
0000
0001
0000
1000
0010
0000
1000
0010
0000
0100
0000
0001
0000
,
0010
0010
0001
2000
0000
3200
0000
1300
,
0001
0100
0000
0100
0010
1000
0100
0020
,
0000
0031
0001
1000
0010
1000
0000
1000
,
1000
0001
0010
0002
0000
0103
0010
1000
,
0100
0100
1000
0002
0000
0023
0000
0031
,
1000
0010
0000
0010
0100
0001
0010
0200
,
0000
1300
1000
0001
0100
0001
0000
0001
,
0001
0000
1000
0000
0100
0000
2000
0000
0000
0000
3000
0001
1000
0000
2002
0000
,
0000
3003
1000
0100
1000
0000
0001
0000
0010
0000
1000
0000
0010
0000
0002
0000
,
0000
0000
0103
0001
0100
0000
0001
0000
1000
0000
0010
0000
0001
0000
0020
0000
,
0000
0000
1030
0100
0010
0000
0001
0000
1000
0000
0100
0000
0001
0000
0200
0000
,
0000
1300
0010
0100
0001
0010
0000
0002
,
0000
0000
0103
0000
0010
1000
0010
0000
1000
0000
0100
0000
0010
0000
0002
0000
,
0000
0000
0103
0000
0001
0010
0001
0000
1000
0000
0010
0000
0010
0000
0200
0000
,
0000
0000
0301
0000
0010
0000
1000
0000
0010
0000
0001
1000
0001
0000
0200
0000
,
0320
0000
0000
0030
0020
0000
0000
0000
1030
0000
0001
0000
0001
1000
0001
1000
,
0002
0000
0000
0000
,
0000
0000
0000
0000
,
0103
0000
0000
0100
0010
0000
0000
0010
,
1000
0100
0010
0001
2000
0000
0000
0000
,
3020
0100
0230
0001
,
0301
0001
1000
1000
0001
0010
0100
1000
,
0020
0000
0000
0130
1000
0100
0001
1000
,
0100
0001
0100
1000
0010
0000
1001
0000
,
1000
0000
0100
0000
0010
0000
0001
1000
0000
0001
1000
0000
0010
0000
0100
0000
,
0001
0000
0010
0000
1000
0000
0010
0002
0000
0000
1003
0000
0010
0000
0100
0000
,
0002
1003
0020
1030
0002
1003
0200
1300
,
0002
0103
0020
0130
2000
3100
0001
1000
,
0100
0000
0010
0000
0001
0000
1000
0001
0000
1000
0001
0000
0100
0000
0001
0000
,
1000
0000
0100
0000
0001
0000
0100
2000
0000
0000
3001
0000
0100
0000
0010
0000
,
2000
3001
0020
0031
2000
3001
0200
0301
,
2000
0000
3100
0000
0020
0000
0130
0000
0002
0000
0103
1000
0000
0000
0001
0000
,
1001
0000
0000
0000
1001
0000
0000
0000
0101
0000
0000
0101
0000
0000
1010
0000
,
1001
0000
0000
0000
1001
0000
0000
0000
1100
0000
0000
1100
0000
0000
0011
0000
,
1001
0000
0000
0000
1001
0000
0000
0000
0110
0000
0000
0110
0000
0000
1001
0000
,
0002
0023
2030
3020
0032
0203
0020
0330
,
0110
0000
0000
0000
0101
0000
0000
0000
1100
0000
0000
1100
0000
0000
1001
0000
,
0011
0000
0000
0000
1010
0000
0000
0000
0110
0000
0000
0110
0000
0000
1001
0000
,
0001
0010
0100
1000
0010
0100
0001
1000
,
0100
0010
0100
0000
1000
0001
1000
0000
0020
0000
0000
0000
0000
0000
0000
0000
,
0200
0000
0000
0000
,
0000
0000
0330
0000
,
0001
1000
0001
0000
0100
0000
0010
0000
1000
0001
1000
0000
0100
0000
0010
0000
,
0001
0100
0001
0000
1000
0100
1000
0000
0001
1000
0001
1000
0002
0000
0000
0000
,
0013
0000
0000
0000
,
0000
0000
0000
0000
,
1100
0000
0001
0100
0110
0000
1001
0000
,
1000
0100
0001
0100
1000
0010
0200
0000
,
0301
0010
0011
0000
0011
0000
1100
1001
,
1000
0000
0010
0000
0001
0000
0010
0000
1000
0000
0000
1010
0000
0000
0000
0000
,
1000
0100
1100
0000
0011
0000
0110
1001
,
0001
0000
0010
0000
1000
0000
0010
0000
0001
2000
0000
0000
3010
0000
0010
0000
,
0100
0001
0100
0001
0000
0001
0000
0000
1000
0100
1000
0100
0000
0100
0000
0000
,
0011
0000
0000
0110
0000
0000
1100
0000
0000
1010
0000
0000
0110
0000
0100
0000
,
2002
0000
0000
3003
0000
0000
0000
0000
;

//--------------- dance-single - ----------------
#NOTEDATA:;
#STEPSTYPE:dance-single;
#DESCRIPTION:;
#CREDIT:Kikoia;
#DIFFICULTY:Hard;
#METER:16;
#RADARVALUES:0,0,0,0,0;
#NOTES:
0000
0000
0000
0000
,
0000
0000
0000
0000
,
0000
0000
0000
0000
,
0000
0000
0000
0000
,
2001
0000
3010
0100
0001
1000
0010
0001
,
0010
0000
1000
0000
0001
0000
0100
0010
0000
0100
1000
0000
0100
0000
1002
0000
,
0000
0000
0013
0000
0100
0000
1000
0010
0100
0000
0001
0000
0010
0000
1000
0000
,
0010
0000
0001
0000
1000
0000
0100
0010
0000
0100
0001
0000
0100
0000
0100
0000
,
0010
0000
0001
0000
1000
0000
0010
0000
0000
0000
0100
0000
0000
0000
0001
1000
,
0100
1000
0001
0000
0000
0000
1000
0000
0100
0000
0010
0000
0001
0000
1000
0000
,
0000
0002
0203
0302
0203
2300
3000
2000
,
3200
2300
3200
0302
0000
0013
0100
1000
,
0001
0000
0010
0000
0001
0000
0100
0000
0000
0000
0010
0000
0000
0000
1000
0001
,
0010
0001
1000
0000
0000
0000
0001
0000
0010
0000
0100
0000
1000
0000
0001
0000
,
0000
2000
3200
2300
3200
0302
0003
0002
,
0203
0000
0302
0000
0203
0000
2300
0000
3010
0000
0000
0100
0001
0000
0020
0000
,
0000
0000
0031
0100
0001
1000
0100
1000
0001
0100
0010
1000
0100
0000
0020
0000
,
0000
0000
0031
1000
0010
1000
0001
0010
0001
1000
0010
0100
0001
0000
0020
0000
,
0000
0130
1000
0001
0100
0010
0100
0002
0000
1003
0100
0000
0010
0000
0200
0000
,
0000
2300
3020
0032
0023
2030
0100
3002
,
0000
0000
0103
0000
0010
1000
0001
0010
0100
1000
0001
0100
0001
1000
0020
0000
,
0000
0000
0130
0000
0001
1000
0100
0000
1000
0000
0001
0100
0010
0000
2000
0000
,
0000
0000
3001
0000
0010
0001
1000
0010
0000
0010
0100
0000
0001
1000
0100
0000
,
1100
0000
0000
0000
0011
0000
0000
0000
1000
0001
1000
0001
0010
0100
1000
0010
,
0200
0000
0000
0000
,
0000
0301
1000
0010
0001
0010
1000
0001
,
0020
0000
0000
0031
0200
0000
0000
0301
,
1000
0100
0010
0001
2000
0000
3000
0000
,
0001
0001
0100
0100
,
0010
0000
0010
0000
1000
0000
1000
0000
0001
0010
0001
0010
0100
1000
0100
1000
,
0001
0000
0000
1000
0100
0010
0001
1000
,
1010
0001
0101
1000
2100
0000
3010
0000
,
1001
0000
1000
0000
0010
0000
1000
0100
0000
0010
0001
0000
0100
0000
0001
0000
,
0010
0000
1000
0000
0010
0000
0001
1000
0000
0010
0100
0000
0001
1000
0100
0000
,
0010
0000
0001
1000
0010
0000
0010
0100
0001
0000
0001
1000
0100
0000
0100
0010
,
1000
0000
1000
0010
0001
0000
0001
1000
0010
0000
0100
0000
0001
1000
0100
0000
,
1001
0000
0001
0000
0010
0000
0001
0100
0000
0010
1000
0000
0100
0000
1000
0000
,
0010
0000
0001
0000
0010
0000
1000
0001
0000
0010
0100
0000
1000
0001
0100
0000
,
0010
0000
1000
0001
0010
0000
0010
0100
1000
0000
1000
0010
0100
0000
0100
0010
,
0001
0000
0001
0010
1000
0000
0001
0000
0010
0100
1000
0002
0000
0000
0103
0000
,
1010
0000
0001
0000
1010
0000
0001
0100
0000
0100
0010
0000
1000
0000
0001
0000
,
0011
0000
1000
0000
0011
0000
1000
0100
0000
0100
0010
0000
0001
0000
0100
0000
,
0110
0000
0001
0000
0110
0000
0001
0010
0000
0010
0100
0000
1000
0000
1020
0000
,
0000
0032
2003
3200
0302
0023
0200
0330
,
1001
0000
1000
0000
1100
0000
0001
0100
0000
0100
0010
0000
1000
0000
1010
0000
,
1001
0000
0001
0000
0011
0000
1000
0010
0000
0010
0100
0000
0001
0000
0011
0000
,
1001
0000
1000
0000
0010
0000
1000
0000
0100
0010
0100
0010
0001
1000
0010
0100
,
0001
0001
0001
0001
2000
0000
0000
0000
,
0200
0000
0000
0000
,
0000
0000
3300
0000
,
0001
1000
0001
1000
0001
1000
0001
1000
0001
1000
0001
1000
0001
1000
0001
1000
,
0010
0100
0001
0010
0100
1000
0001
0100
0010
1000
0100
0010
0002
0000
0000
0000
,
0103
0000
0000
0000
,
0000
0000
0000
0000
,
1001
0000
0000
0000
0000
0000
1000
0000
0010
0000
0100
0000
0001
0000
0000
0000
0000
0000
0110
0000
0000
0000
0000
0000
1001
0000
0000
0000
0000
0000
0000
0000
0000
0000
0000
0000
0101
0000
0000
0000
0000
0000
0100
0000
0000
0001
0000
0000
,
1000
0000
0000
0100
0000
0000
0001
0000
0000
0100
0000
0000
1000
0000
0000
0100
0000
0000
0001
0000
0000
0100
0000
0000
1000
0000
0000
0001
0000
0000
0100
0000
0000
0000
0000
0000
0010
0000
0000
0000
0000
0000
1000
0000
0100
0000
0010
0000
,
0001
0000
0110
0000
1001
0000
0000
0000
1100
0000
0000
0000
1000
0001
0100
0010
,
1000
0000
0000
0010
0000
0000
0001
0000
0000
0010
0000
0000
1000
0000
0000
0010
0000
0000
0001
0000
0000
0010
0000
0000
1000
0000
0000
0001
0000
0000
0000
0000
0000
1001
0000
0000
0000
0000
0000
0000
0000
0000
0001
0000
0010
0000
0100
0000
,
1000
0000
1100
0000
0011
0000
0000
0000
1001
0000
0000
0000
1010
0000
0010
1000
,
0001
0010
1000
0010
0001
0010
1000
0010
0001
0001
0000
0000
0110
0000
1001
0000
,
0001
0100
1000
0100
0000
2002
0000
3003
1000
0100
0001
0100
0000
2002
0000
3003
,
1010
0000
0010
0110
0000
0100
0101
0000
0001
0011
0000
0010
0110
0000
0110
0000
,
2002
0000
0000
3003
0000
0000
0000
0000
;
