#TITLE:Crazy Party Night ~ぱんぷきんの逆襲~;
#SUBTITLE:;
#ARTIST:きゃりーぱみゅぱみゅ;
#TITLETRANSLIT:Crazy Party Night ~Pumpkin no Gyakyshuu~;
#SUBTITLETRANSLIT:;
#ARTISTTRANSLIT:Kyary Pamyu Pamyu;
#GENRE:;
#CREDIT:;
#BANNER:;
#BACKGROUND:;
#LYRICSPATH:;
#CDTITLE:;
#MUSIC:Crazy Party Night ~Pumpkin no Gyakushuu~.ogg;
#OFFSET:0.010624;
#SAMPLESTART:55.772629;
#SAMPLELENGTH:12.000000;
#SELECTABLE:YES;
#BPMS:0.000000=128.000000
;
#STOPS:
;
#BGCHANGES:0.000=Crazy Party Night ~Pumpkin no Gyakushuu~.mp4=1.000=0=0=0=StretchNoLoop====,
99999=-nosongbg-=1.000=0=0=0 // don't automatically add -songbackground-
;
#KEYSOUNDS:;
#ATTACKS:;

//---------------dance-single - ----------------
#NOTES:
     dance-single:
     :
     Hard:
     14:
     0.610039,0.674694,0.695337,0.619757,0.188950,565.000000,473.000000,92.000000,82.000000,0.000000,0.000000,0.610039,0.674694,0.695337,0.619757,0.188950,565.000000,473.000000,92.000000,82.000000,0.000000,0.000000:
// measure 0
0000
0000
0000
0000
,  // measure 1
0000
0000
0000
0000
,  // measure 2
1000
0000
0001
0100
0001
0000
1000
0000
0100
0000
0010
0000
0001
0000
0000
0000
,  // measure 3
1000
0000
0001
0100
0001
0000
1000
0000
0001
0000
0010
0000
0100
0000
0000
0000
,  // measure 4
1100
0000
1000
0001
1000
0000
0010
0000
0100
0000
0001
0000
1000
0000
0000
0000
,  // measure 5
0101
0000
0001
1000
0001
0000
0010
0000
0100
0000
1000
0000
0001
0000
0000
0000
,  // measure 6
1010
1000
0100
0010
0011
0001
0100
0010
,  // measure 7
0110
0100
0001
0010
0110
0100
1000
0001
,  // measure 8
0200
0010
0010
0010
0010
0010
0310
1000
,  // measure 9
0200
0010
0010
0010
0010
0010
0310
0001
,  // measure 10
2002
0000
0000
0000
,  // measure 11
0000
3003
0010
0100
,  // measure 12
1001
0000
1000
0100
0010
0000
0001
0000
0200
0000
0010
0000
0310
0000
1000
0001
,  // measure 13
0020
1030
0020
0031
0200
0310
0220
0330
,  // measure 14
1000
0000
0001
0010
0100
0000
1000
0000
0020
0000
0100
0000
0130
0000
0001
1000
,  // measure 15
0200
0301
0200
1300
0020
0100
0130
0000
,  // measure 16
0001
0000
1000
0010
1000
0000
0001
0010
0001
0000
0100
0000
0010
0000
0010
0000
,  // measure 17
0010
0000
1000
0100
0010
0000
0001
0000
0101
0000
0110
0000
0101
0000
0000
0000
,  // measure 18
1000
0000
0001
0100
0001
0000
1000
0100
1000
0000
0010
0000
0100
0000
0001
1000
,  // measure 19
0001
0000
1000
0100
0010
0000
0001
0000
0200
0000
0010
0000
0310
0000
0000
0000
,  // measure 20
1010
1010
1001
0000
0011
0011
1001
0000
,  // measure 21
1000
0000
0010
0000
0001
0000
0010
0100
0010
0000
1000
0000
0001
0000
0000
0000
,  // measure 22
0101
0101
1001
0000
1100
1100
1001
0000
,  // measure 23
0001
0000
0010
0000
1000
0000
0010
0100
0010
0000
0001
0000
1000
0000
0000
0000
,  // measure 24
1010
0110
1002
0000
1003
0110
2001
0000
,  // measure 25
3010
0000
0010
0000
0010
0000
1000
0100
0010
0000
0001
0000
0200
0000
0000
0000
,  // measure 26
0310
0010
0010
1000
0100
0100
0100
0010
,  // measure 27
0002
0100
2003
3200
0320
0032
0103
0000
,  // measure 28
0002
0010
1003
0001
2000
0010
3001
0000
,  // measure 29
1000
0100
0010
0100
0001
0000
0100
0100
,  // measure 30
0012
0000
0103
0010
2010
0000
3100
0000
,  // measure 31
2000
0100
3002
0100
2003
3001
2002
3003
,  // measure 32
0002
0010
0103
0001
2000
0010
3100
1000
,  // measure 33
1010
0000
0010
0000
0101
0000
0001
0000
1001
0000
0001
1000
0020
0000
0030
0000
,  // measure 34
2010
0000
3100
0010
0012
0000
0103
0000
,  // measure 35
0002
0000
0010
0000
2003
0000
0010
0000
3001
0010
0001
0010
0002
0000
1003
0000
,  // measure 36
0010
0010
0100
0100
0101
0000
1010
0000
,  // measure 37
1100
0000
0100
0000
0011
0000
0001
0000
1001
0000
0001
0100
0020
0000
0030
0000
,  // measure 38
1010
0000
0001
0100
0010
0000
1000
0000
0100
0000
0010
0000
0010
0000
0000
0000
,  // measure 39
0011
0000
1000
0010
0100
0000
0001
0000
0010
0000
0100
0000
0100
0000
0000
0000
,  // measure 40
1001
0000
1000
0010
0100
0000
1000
0000
0100
0000
0010
0000
0010
0000
0000
0000
,  // measure 41
1001
0000
0001
0100
0010
0000
0001
0000
0010
0000
0100
0000
0100
0000
0000
0000
,  // measure 42
1001
0000
0001
0010
0100
0000
1100
0000
1100
0000
1000
0010
0100
0000
0101
0000
,  // measure 43
0101
0000
1000
0100
0010
0000
0110
0000
0110
0000
0001
0000
1000
0000
0000
0000
,  // measure 44
1001
0000
1000
0100
0010
0000
0001
0000
0011
0000
0001
0100
0010
0000
1000
0000
,  // measure 45
1010
0000
0010
0100
0001
0000
1000
0000
1100
0000
0100
0010
0001
0000
1000
0000
,  // measure 46
2020
3030
2020
3030
2002
3003
2002
3003
,  // measure 47
0022
0033
0022
0033
2002
3003
2002
3003
,  // measure 48
0001
0100
1000
0100
0001
0100
1000
0100
,  // measure 49
0001
0011
0011
0110
0110
1100
1100
0010
,  // measure 50
2002
0000
0000
0000
,  // measure 51
3003
0000
0000
0000
0000
0000
0010
0010
,  // measure 52
1002
0103
0002
0023
0230
0010
2300
3001
,  // measure 53
2000
0010
3002
0100
1003
0001
0220
0330
,  // measure 54
0020
1000
0130
0010
2000
0100
3001
1000
,  // measure 55
1010
0000
0010
0000
0101
0000
0001
0000
1001
0000
0001
0010
0100
0000
1000
0000
,  // measure 56
2001
3100
2000
3020
0230
0310
2002
3003
,  // measure 57
0002
0000
0010
0000
2003
0000
0100
0000
3001
0100
0010
0100
0001
0000
1000
0000
,  // measure 58
0002
0000
0010
0000
2003
0000
3100
0000
1100
0000
0000
0000
1001
0000
0001
0100
,  // measure 59
0010
0000
0110
0000
0101
0010
1100
0010
,  // measure 60
1001
0000
0001
0100
0001
0000
1000
0010
1000
0000
0001
0010
0001
0000
1000
0100
,  // measure 61
1000
0000
0001
1000
0001
0000
0100
0010
0100
0000
0001
1000
0001
0000
0010
0100
,  // measure 62
0010
0000
0001
1000
0010
0000
1000
0001
0010
0000
0001
1000
0100
0000
1000
0001
,  // measure 63
0100
0000
0000
0000
1010
0000
0000
0000
0011
0000
0001
1000
0010
0000
0000
0000
,  // measure 64
1010
0110
0101
0110
,  // measure 65
2002
0000
0000
0000
,  // measure 66
0000
3003
0000
0000
0000
0000
0000
0000
;

//---------------dance-single - ----------------
#NOTES:
     dance-single:
     :
     Beginner:
     3:
     0.160878,0.225323,0.075580,0.007558,0.000000,149.000000,139.000000,10.000000,1.000000,0.000000,0.000000,0.160878,0.225323,0.075580,0.007558,0.000000,149.000000,139.000000,10.000000,1.000000,0.000000,0.000000:
// measure 0
0000
0000
0000
0000
,  // measure 1
0000
0000
0000
0000
,  // measure 2
0001
0000
0000
0000
,  // measure 3
0010
0000
0000
0000
,  // measure 4
0100
0000
0000
0000
,  // measure 5
1000
0000
0000
0000
,  // measure 6
0001
0000
0001
0000
,  // measure 7
0100
0000
0100
0000
,  // measure 8
0010
0000
0010
0000
,  // measure 9
1000
0000
1000
0000
,  // measure 10
1001
0000
0000
0000
,  // measure 11
0000
0000
0000
0000
,  // measure 12
0001
0001
0001
0000
,  // measure 13
0010
0000
0100
0000
,  // measure 14
1000
1000
1000
0000
,  // measure 15
0001
0000
0100
0000
,  // measure 16
0010
0010
0010
0000
,  // measure 17
1000
0000
0100
0000
,  // measure 18
0001
0001
0001
0000
,  // measure 19
0100
0000
0010
0000
,  // measure 20
1001
0000
1001
0000
,  // measure 21
0010
0010
0010
0000
,  // measure 22
1001
0000
1001
0000
,  // measure 23
0100
0100
0100
0000
,  // measure 24
0110
0000
0110
0000
,  // measure 25
0001
0001
0001
0000
,  // measure 26
0110
0000
0110
0000
,  // measure 27
1000
1000
1000
1000
,  // measure 28
1000
0000
0000
0000
,  // measure 29
0001
0001
0001
0000
,  // measure 30
0010
0000
0100
0000
,  // measure 31
1000
1000
1000
1000
,  // measure 32
1000
0000
0010
0000
,  // measure 33
0100
0100
0100
0000
,  // measure 34
0001
0000
0010
0000
,  // measure 35
0100
0100
0100
0100
,  // measure 36
0100
0000
1000
0000
,  // measure 37
0001
0001
0001
0000
,  // measure 38
0100
0000
0000
0000
,  // measure 39
0010
0000
0000
0000
,  // measure 40
1000
0000
0000
0000
,  // measure 41
0001
0000
0000
0000
,  // measure 42
0010
0000
0010
0000
,  // measure 43
0100
0000
0100
0000
,  // measure 44
1000
0000
1000
0000
,  // measure 45
0001
0000
0001
0000
,  // measure 46
0100
0100
0100
0000
,  // measure 47
0010
0010
0010
0000
,  // measure 48
1000
1000
1000
0000
,  // measure 49
0001
0001
0001
0000
,  // measure 50
1001
0000
0000
0000
,  // measure 51
0000
0000
0000
0000
,  // measure 52
0001
0000
0010
0000
,  // measure 53
0100
0100
0100
0000
,  // measure 54
1000
0000
0001
0000
,  // measure 55
0100
0100
0100
0000
,  // measure 56
0010
0000
1000
0000
,  // measure 57
0001
0001
0001
0000
,  // measure 58
0010
0000
0100
0000
,  // measure 59
0000
0000
1000
1000
,  // measure 60
1000
0000
0001
0000
,  // measure 61
0100
0100
0100
0000
,  // measure 62
0010
0000
1000
0000
,  // measure 63
0001
0001
0001
0000
,  // measure 64
1000
1000
1000
1000
,  // measure 65
2000
0000
0000
0000
,  // measure 66
0000
3000
0000
0000
;

//---------------dance-single - ----------------
#NOTES:
     dance-single:
     :
     Easy:
     6:
     0.269929,0.299864,0.249414,0.438364,0.000000,250.000000,217.000000,33.000000,58.000000,0.000000,0.000000,0.269929,0.299864,0.249414,0.438364,0.000000,250.000000,217.000000,33.000000,58.000000,0.000000,0.000000:
// measure 0
0000
0000
0000
0000
,  // measure 1
0000
0000
0000
0000
,  // measure 2
2000
3100
0010
0010
,  // measure 3
0002
0103
0010
0000
,  // measure 4
2000
3010
0100
0100
,  // measure 5
0002
0013
0100
0000
,  // measure 6
2000
3200
0320
0032
,  // measure 7
2003
3020
0230
0300
,  // measure 8
0002
0023
0230
2300
,  // measure 9
3020
0230
0302
1003
,  // measure 10
2002
0000
0000
0000
,  // measure 11
0000
0000
0000
3003
,  // measure 12
0001
0010
0100
0000
,  // measure 13
1000
0010
0100
0001
,  // measure 14
1000
0100
0001
0000
,  // measure 15
0100
1000
0010
0100
,  // measure 16
0001
0010
0100
0000
,  // measure 17
1000
0100
0010
0001
,  // measure 18
1000
0010
0100
0000
,  // measure 19
0001
0010
1000
0010
,  // measure 20
0001
0101
1000
1100
,  // measure 21
0001
0010
0100
1000
,  // measure 22
0001
0011
1000
1010
,  // measure 23
0001
0010
0100
1000
,  // measure 24
0001
1010
1000
0011
,  // measure 25
1000
0100
0010
0001
,  // measure 26
1000
1100
0001
0101
,  // measure 27
1000
0100
0010
0001
,  // measure 28
2000
0010
3002
0010
,  // measure 29
1003
0001
2002
3003
,  // measure 30
2000
3010
0200
0301
,  // measure 31
0110
0110
2002
3003
,  // measure 32
0002
0013
0200
1300
,  // measure 33
0110
0110
2002
3003
,  // measure 34
2000
3002
0100
0103
,  // measure 35
0002
2003
0100
3100
,  // measure 36
2000
3002
0010
0013
,  // measure 37
1001
0110
2002
3003
,  // measure 38
0001
0010
0100
0100
,  // measure 39
1000
0001
0010
0100
,  // measure 40
1000
0010
0100
0100
,  // measure 41
0001
1000
0100
0010
,  // measure 42
0001
0001
0010
0010
,  // measure 43
0100
0100
1000
1000
,  // measure 44
0001
0001
0100
0100
,  // measure 45
0010
0010
1000
1000
,  // measure 46
0001
1000
0100
0010
,  // measure 47
0001
1000
0010
0100
,  // measure 48
0001
0001
0010
0010
,  // measure 49
0100
0100
1000
1000
,  // measure 50
2002
3003
0000
0000
,  // measure 51
0000
0000
0000
0000
,  // measure 52
1000
0001
0010
0010
,  // measure 53
0110
0110
2002
3003
,  // measure 54
0001
1000
0010
0010
,  // measure 55
0110
0110
2002
3003
,  // measure 56
2000
3100
0002
0103
,  // measure 57
1001
0110
2002
3003
,  // measure 58
0002
0013
2000
3010
,  // measure 59
0000
0000
1001
0113
,  // measure 60
2002
3003
2000
0000
,  // measure 61
3000
1000
0100
0010
,  // measure 62
0001
0000
1000
0000
,  // measure 63
0001
0100
0020
0030
,  // measure 64
1000
1000
0100
0100
,  // measure 65
2002
0000
0000
0000
,  // measure 66
0000
3003
0000
0000
0000
0000
0000
0000
;

//---------------dance-single - ----------------
#NOTES:
     dance-single:
     :
     Medium:
     11:
     0.431886,0.449796,0.211624,0.196508,0.000000,400.000000,372.000000,28.000000,26.000000,0.000000,0.000000,0.431886,0.449796,0.211624,0.196508,0.000000,400.000000,372.000000,28.000000,26.000000,0.000000,0.000000:
// measure 0
0000
0000
0000
0000
,  // measure 1
0000
0000
0000
0000
,  // measure 2
0001
0100
1000
0100
0010
1000
1000
0000
,  // measure 3
0001
0010
1000
0001
0100
0010
0001
0000
,  // measure 4
1000
0010
0001
0010
0100
0001
0001
0000
,  // measure 5
1000
0100
0001
1000
0010
0100
1000
0000
,  // measure 6
0001
0100
0100
0001
1000
0010
0010
1000
,  // measure 7
0001
0010
0010
0001
1000
0100
0100
1000
,  // measure 8
0001
0100
1000
0100
0001
0100
1000
0100
,  // measure 9
0001
0010
1000
0010
0001
0010
1000
0010
,  // measure 10
0002
0000
0000
0000
,  // measure 11
0000
0003
1001
0110
,  // measure 12
0020
1000
0130
0010
,  // measure 13
1000
0100
0010
0001
1000
0100
0100
0000
,  // measure 14
2000
0000
0010
0000
3001
0000
1000
0010
,  // measure 15
0100
0001
0010
0100
1000
0010
0010
1000
,  // measure 16
0002
0000
0010
0000
1003
0000
0001
0010
,  // measure 17
0100
0000
1000
0010
0100
0001
0001
0000
,  // measure 18
2000
0000
0100
0000
3002
0000
0013
0001
,  // measure 19
0100
0010
1000
0100
0010
0001
0001
1000
,  // measure 20
0010
0010
0110
0000
0010
0010
0110
0000
,  // measure 21
1000
0100
0010
0000
0001
0100
0010
0000
,  // measure 22
1000
1000
1001
0000
0001
0001
1001
0000
,  // measure 23
0001
0010
0100
0000
1000
0010
0100
0000
,  // measure 24
0001
0001
0101
0000
1000
1000
1100
0000
,  // measure 25
0001
0010
0100
1000
0010
0100
0001
0000
,  // measure 26
1000
1000
1100
0000
0001
0001
0101
0000
,  // measure 27
1000
0100
0010
0001
0100
0010
1000
0000
,  // measure 28
0020
0100
0100
0130
,  // measure 29
0001
0000
1000
0100
0010
0000
0001
0001
,  // measure 30
1002
0000
0103
0010
2000
0000
3001
0000
,  // measure 31
1000
0100
0010
0100
0001
0100
1000
0000
,  // measure 32
0001
0100
0010
0100
0002
0000
0010
1003
,  // measure 33
0001
0010
0100
0001
0100
0000
1000
0001
,  // measure 34
2001
0000
3100
0010
0002
0000
1003
0000
,  // measure 35
0001
0100
0010
0100
1000
0100
0001
0000
,  // measure 36
1000
0100
0010
0100
2000
0000
0010
3000
,  // measure 37
0001
0100
1000
0100
0002
1000
1003
0000
,  // measure 38
1000
0100
1000
0100
0010
0010
0010
0000
,  // measure 39
0001
0100
0001
0100
0010
0010
0010
0000
,  // measure 40
1000
0010
1000
0010
0100
0100
0100
0000
,  // measure 41
0001
0010
0001
0010
0100
0100
0100
0000
,  // measure 42
1100
0000
0000
0001
0100
0000
0000
0010
,  // measure 43
1000
0000
0000
0001
0010
0000
0100
0000
,  // measure 44
1001
0000
0000
0001
0100
0000
0000
0010
,  // measure 45
1000
0000
0000
0001
0010
0000
0100
0000
,  // measure 46
1100
0011
1100
0011
,  // measure 47
0101
1010
0101
1010
,  // measure 48
0001
1000
0001
1000
0001
1000
0001
1000
,  // measure 49
0010
0100
0010
0100
0010
0100
0010
0100
,  // measure 50
0020
0000
0000
0000
,  // measure 51
0000
0000
0000
0000
0000
0000
1030
1000
,  // measure 52
2001
0000
3100
0010
0002
0000
1003
0000
,  // measure 53
0001
0100
0010
0100
1000
0100
0001
0000
,  // measure 54
1000
0100
0010
0000
0001
0100
0010
0000
,  // measure 55
1000
0100
0010
1000
0010
0000
0001
1000
,  // measure 56
1002
0000
0103
0010
2000
0000
3001
0000
,  // measure 57
1000
0100
0010
0100
0001
0100
1000
0000
,  // measure 58
0001
0100
0010
0100
0002
0000
0010
0003
,  // measure 59
1000
0000
1001
0000
0001
0100
1000
0100
,  // measure 60
0001
0000
0010
0001
2000
0000
3010
0000
,  // measure 61
1000
0100
0010
0100
1000
0010
0100
0000
,  // measure 62
0001
0000
0010
0002
1003
0000
0010
1000
,  // measure 63
0001
0010
0100
0001
0100
0010
0001
0000
,  // measure 64
0102
0013
2100
3010
,  // measure 65
2002
0000
0000
0000
,  // measure 66
0000
3003
0000
0000
0000
0000
0000
0000
;
