#VERSION:0.83;
#TITLE:Coral Crown (feat. Rena);
#SUBTITLE:From "Hades II";
#ARTIST:FalKKonE;
#TITLETRANSLIT:;
#SUBTITLETRANSLIT:;
#ARTISTTRANSLIT:;
#GENRE:Murderous Symphonic Metal;
#CREDIT:;
#MUSIC:Coral Crown (feat. Rena).ogg;
#BANNER:Coral Crown (feat. Rena).png;
#BACKGROUND:Coral Crown (feat. Rena)-bg.png;
#CDTITLE:;
#SAMPLESTART:39.517;
#SAMPLELENGTH:15.190;
#SELECTABLE:YES;
#OFFSET:-0.023;
#BPMS:0.000=158.000;
#STOPS:;
#BGCHANGES:-0.060=Coral Crown (feat. Rena).avi=1.000=1=0=0=StretchNoLoop==CrossFade==;
#FGCHANGES:;

//--------------- dance-single - ----------------
#NOTEDATA:;
#STEPSTYPE:dance-single;
#DESCRIPTION:;
#Credit:Kikoia;
#DIFFICULTY:Medium;
#METER:10;
#RADARVALUES:0,0,0,0,0;
#NOTES:
0000
0000
0000
0000
,
0000
0000
0000
0000
,
0000
0000
0000
0000
,
0000
0000
0000
0000
,
0000
0000
0000
0000
,
0000
0000
0000
0000
,
2000
3002
0023
0032
,
2003
3020
0230
0320
,
2030
3002
0023
0230
,
2300
3020
0230
0300
,
2001
0100
3200
0010
,
0320
0001
0032
2003
,
3020
0100
0230
0001
,
0302
1000
2000
3003
,
0002
0010
0203
0010
,
0320
1000
2030
0001
,
3002
0023
0230
2300
,
3020
0230
0002
0303
,
1002
0100
0203
0010
,
0320
1000
2030
3002
,
0023
0100
0230
1000
,
2300
0001
0002
3003
,
2000
0010
3200
0010
,
0320
0001
0032
1000
,
2003
3020
0230
0302
,
0023
0230
2000
3300
,
1010
0000
0101
0000
,
0011
0000
1100
0000
,
1000
0000
0100
0010
0100
0000
1000
0000
,
0010
0000
0100
0010
0100
0000
0010
0000
,
1010
0000
0101
0000
,
0011
0000
1100
0000
,
0001
0000
0100
0010
0100
0000
0001
0000
,
0020
0230
2300
3020
,
0130
0100
0000
0001
0100
0001
0000
0000
,
1000
0100
0010
0002
,
1003
1000
0000
0001
0010
0001
0000
0000
,
1000
0010
0100
0001
,
0020
0100
0230
1000
,
2300
0001
3002
0203
,
0320
1000
2030
0100
,
3200
0010
0320
0032
,
2003
0010
3020
0100
,
0230
0010
0320
2030
,
3002
0023
0230
2300
,
3002
0203
0020
0330
,
2000
0100
0100
3200
,
0320
0001
0032
1000
,
2003
3002
0100
0203
,
0320
1000
2030
0001
,
3002
0010
0023
0100
,
0230
1000
2300
3002
,
2003
3020
0230
0302
,
2003
3200
0010
0310
,
0110
0000
1001
0000
,
0110
0000
1001
0000
,
1000
0000
0100
0010
0001
0000
0100
0000
,
0010
0000
1000
0100
0010
0000
0001
0000
,
0110
0000
1001
0000
,
0110
0000
1001
0000
,
0001
0000
0100
0010
1000
0000
0001
0010
,
0200
2300
3002
0203
,
0310
0010
0000
1000
0100
1000
0000
0002
,
0000
0103
0010
1000
,
0100
0100
0000
0010
0001
0010
0000
0002
,
0000
1003
0010
0100
,
0001
0001
0000
1000
0010
1000
0000
0200
,
0000
0310
0001
1000
,
0010
0010
0000
0100
0001
0100
0000
0002
,
0000
1003
0100
1000
,
0001
0100
0001
0000
1000
0000
0010
0000
,
0001
0010
1000
0001
,
1000
0100
1000
0000
0001
0000
0010
0000
,
1000
0010
0001
1000
,
0001
1000
0001
0000
1000
0001
1000
0000
,
0001
0100
0001
0000
0100
0001
0100
0000
,
0001
1000
0001
0000
1000
0001
1000
0000
,
0100
1000
0100
0000
1000
0100
1000
0000
,
0001
0010
0001
0000
0010
0001
0010
0000
,
0001
1000
0001
0000
1000
0001
1000
0000
,
1000
0010
1000
0000
0010
1000
0010
0000
,
1000
0000
0000
0100
0000
0000
0010
0000
0000
0001
0000
0000
1000
0000
0000
0010
,
0000
0220
0000
0000
0000
0000
0000
0000
,
0330
0000
0000
0000
;

//--------------- dance-single - ----------------
#NOTEDATA:;
#STEPSTYPE:dance-single;
#DESCRIPTION:;
#Credit:Kikoia;
#DIFFICULTY:Hard;
#METER:15;
#RADARVALUES:0,0,0,0,0;
#NOTES:
0000
0000
0000
0000
,
0000
0000
0000
0000
,
0000
0000
0000
0000
,
0000
0000
0000
0000
,
0000
0000
0000
0000
,
0000
0000
0000
0000
,
1000
0001
0010
0001
1000
0001
0010
0001
,
1000
0010
0100
0010
1000
0010
0100
0010
,
1000
0001
0010
0010
0100
0100
1000
1000
,
0020
0230
2300
3200
0302
0000
0000
0000
,
1003
0001
1000
0000
0001
0000
0010
0000
0001
0000
0100
0000
0010
0000
1000
0000
,
0100
0010
0100
1000
0010
0100
0001
0010
,
0001
1000
0001
0000
0100
0000
0010
0000
1000
0000
0100
0000
1000
0000
0001
0000
,
0100
0000
0001
0000
0010
0000
0100
1000
0100
1000
0001
0000
0200
0000
0000
0000
,
0301
1000
0001
0000
0100
0000
0001
0000
0010
0000
0100
0000
1000
0000
0010
0000
,
0001
0010
1000
0001
0010
0100
1000
0001
,
1000
1000
0010
0010
0100
0100
0001
0001
,
0020
0230
0302
0203
2300
0000
0000
0000
,
3001
0100
0001
0000
1000
0000
0100
0000
1000
0000
0010
0000
0100
0000
0001
0000
,
0010
0100
0010
0001
0100
0010
1000
0100
,
0010
0100
0010
0000
0100
0000
1000
0000
0001
0000
0010
0000
0001
0000
1000
0000
,
0010
0000
0100
0000
0010
0000
1000
0001
1000
0001
0010
0000
0200
0000
0000
0000
,
1300
0010
1000
0000
0001
0000
0100
0000
0001
0000
0010
0000
0100
0000
1000
0000
,
0010
0001
0010
1000
0100
0010
0001
1000
,
0010
0010
0100
0100
0001
0001
1000
1000
,
0200
0000
0302
0000
0203
0000
1300
0001
0200
0000
0000
0000
0300
0000
0000
0000
,
1002
0000
0000
0000
0000
0000
0103
0010
1000
0000
0000
0000
0000
0000
0000
0000
,
2001
0000
0000
0000
0000
0000
3100
0010
0001
0000
0000
0000
0000
0000
0000
0000
,
1000
0001
1000
0001
0010
0000
0100
0000
1000
0000
0010
0000
0100
0000
0001
0000
,
1000
0100
1000
0100
0010
0000
0001
0000
0100
0000
0001
0000
0010
0000
0000
0000
,
1002
0000
0000
0000
0000
0000
0103
0010
1000
0000
0000
0000
0000
0000
0000
0000
,
2001
0000
0000
0000
0000
0000
3100
0010
0001
0000
0000
0000
0000
0000
0000
0000
,
0001
1000
0001
1000
0010
0000
0100
0000
0001
0000
0010
0000
1000
0000
0010
0000
,
0001
0001
0100
0100
0010
0010
2000
0000
,
3100
1100
0000
0100
0010
0001
0011
0000
,
0001
0100
0000
0100
0010
1000
2010
0000
,
3001
1001
0000
0001
0100
0100
0101
0000
,
1000
0000
0010
0000
0000
0000
0010
0000
1000
0001
1000
0001
0010
0000
0100
0000
,
1000
0001
1000
0000
0001
0000
0100
0000
0010
1000
0100
0000
1100
0000
0000
0000
,
0001
0000
0010
0000
0000
0000
0010
0000
0001
1000
0001
1000
0010
0000
0100
0000
,
0001
1000
0001
0000
1000
0000
0100
0000
0010
0001
0100
0000
0101
0000
0000
0000
,
1000
0000
0010
0000
0000
0000
0010
0000
1000
0100
0010
0001
0100
0000
0000
0000
,
0010
1000
0010
0000
0100
0000
0001
0000
1000
0100
1000
0000
1100
0000
0000
0000
,
1000
0000
0010
0000
0000
0000
0010
0000
0100
0001
0100
0001
1000
0000
0100
0000
,
0010
0001
0010
0000
0001
0000
1000
0000
0001
0100
0001
0000
0101
0000
0000
0000
,
0001
0000
1000
0000
0010
0000
0010
0000
1000
0001
0010
0100
2000
0000
0000
0000
,
3010
0100
0010
0000
1000
0000
0001
0000
0010
0100
0010
0000
0001
0000
1000
0000
,
0100
0010
0001
1000
0010
0010
0100
0001
,
0010
0100
0010
0000
0001
0000
1000
0000
0010
0100
0010
0000
1000
0000
0100
0000
,
1000
0010
0100
0001
1000
0100
1000
0001
,
0100
0010
1000
0000
0001
0000
1000
0000
0100
0010
0001
0000
1000
0000
0010
0000
,
0100
0001
0010
0000
0100
0000
1000
0000
0010
0100
0001
0000
0010
0000
0001
0000
,
1000
0010
0100
0001
0010
1000
0010
0001
,
1000
1000
0001
0001
0010
0010
0010
0100
,
1200
0000
0000
0000
0000
0000
0310
0001
0100
0000
0000
0000
0000
0000
0000
0000
,
0201
0000
0000
0000
0000
0000
0310
1000
0100
0000
0000
0000
0000
0000
0000
0000
,
0010
0001
0010
0001
1000
0000
0010
0000
0001
0000
0010
0000
1000
0000
0100
0000
,
1000
0001
1000
0001
0100
0000
0010
0000
1000
0000
0001
0000
0010
0000
0000
0000
,
1200
0000
0000
0000
0000
0000
0310
0001
0100
0000
0000
0000
0000
0000
0000
0000
,
0201
0000
0000
0000
0000
0000
0310
1000
0200
0000
0000
0000
0320
0000
0000
0000
,
0031
1000
0001
1000
0010
0000
0100
0000
0001
0000
0010
0000
1000
0000
0010
0000
,
0001
0001
1000
1000
0100
0100
0010
0010
,
0001
1000
0010
0100
0001
1000
0100
0002
,
0000
0000
0103
0000
1000
0000
0001
0100
0001
0100
0010
0000
1000
0000
0001
0000
,
0010
0010
0100
1000
0010
0001
0010
0200
,
0000
0000
1300
0000
0100
0000
0001
1000
0100
0010
0001
1000
0020
0000
0000
0000
,
0130
0100
0001
1000
0100
0100
0010
0002
,
0000
0000
1003
0000
0010
0000
0100
0001
0100
0001
1000
0000
0100
0000
1000
0000
,
0010
0010
0100
0001
0010
0010
0100
1000
,
0010
0000
1000
0000
0001
0000
1000
0000
0100
0000
1000
0000
0001
0100
0010
1000
,
0001
0000
1000
0100
1000
0000
0001
1000
0010
0000
0100
0000
0001
0000
1000
0000
,
0010
0000
1000
0000
0100
0000
1000
0001
0100
0010
1000
0100
0010
0000
0001
0100
,
0001
0000
1000
0001
0010
0000
0001
0000
0100
0000
0001
0000
0010
0000
0100
0000
,
1000
0000
0001
0100
0010
0000
1000
0000
0100
0000
0010
0000
0001
1000
0001
1000
,
0100
0000
1000
0001
0100
0000
0001
1000
0100
0000
1000
0001
0100
0000
0001
1000
,
0100
0000
1000
0001
0100
0000
0001
1000
0100
0000
0010
0000
0001
1000
0001
1000
,
0010
0000
0100
0001
0010
0000
0100
1000
0010
0000
0100
0001
0010
0000
0100
1000
,
0010
0000
0100
0001
0010
0000
0001
0000
1000
0100
1000
0100
0020
0000
0000
0000
,
0031
0000
1000
0010
0100
0000
0001
0010
0100
0000
1000
0010
0100
0000
0001
0010
,
0100
0000
1000
0010
0100
0000
0001
0000
0010
0100
0010
0100
1000
0000
0010
0000
,
0100
0001
0100
0001
1000
0000
0100
0000
0010
0001
0010
0001
0100
0000
0001
0000
,
1001
0000
0000
0101
0000
0000
1100
0000
0000
0011
0000
0000
1010
0000
0000
0110
,
0000
0000
0000
1002
0000
0000
0000
0000
0000
0000
0000
0000
0000
0000
0000
0000
0000
0000
0000
0000
0000
1003
0001
1000
,
0001
0000
0000
0000
;
