#VERSION:0.83;
#TITLE:†††カオスタイム the DARK†††;
#SUBTITLE:;
#ARTIST:t+pazolite;
#TITLETRANSLIT:Chaos Time the DARK;
#SUBTITLETRANSLIT:;
#ARTISTTRANSLIT:;
#GENRE:;
#CREDIT:;
#MUSIC:Chaos Time the DARK.ogg;
#BANNER:Chaos Time the DARK.png;
#BACKGROUND:Chaos Time the DARK-bg.png;
#CDTITLE:;
#SAMPLESTART:88.041;
#SAMPLELENGTH:19.385;
#SELECTABLE:YES;
#OFFSET:-0.001;
#BPMS:0.000=170.000
,12.000=180.000
,16.000=190.000
,20.000=200.000
,22.000=210.000
,24.000=55.000
,24.250=57.500
,24.500=60.000
,24.750=62.500
,25.000=256.000
,85.000=64.000
,86.000=256.000
,110.000=128.000
,114.000=256.000
,138.000=128.000
,147.000=64.000
,147.250=32.000
,147.750=64.000
,148.000=128.000
,156.000=256.000
,180.000=64.000
,181.000=41.250
,182.000=165.000
,246.000=41.250
,247.000=130.000
,251.000=260.000
,283.000=130.000
,285.000=45.000
,285.250=90.000
,285.500=180.000
,286.000=360.000
,358.000=180.000
,362.000=360.000
,386.000=200.000
,387.000=210.000
,388.000=220.000
,389.000=230.000
,390.000=240.000
,391.000=250.000
,392.000=260.000
,393.000=150.000
,394.000=270.000
,414.000=135.000
,416.000=270.000
,428.000=135.000
,430.000=270.000
,442.000=64.000
,443.000=280.000
,471.000=260.000
,473.000=120.000
,474.000=290.000
,506.000=145.000
,510.000=135.000
,514.000=270.000
,514.500=280.000
,515.000=290.000
,515.500=280.000
,516.000=260.000
,516.500=240.000
,517.000=220.000
,517.500=200.000
,518.000=100.000
;
#STOPS:;
#SPEEDS:0.000=1.000=0.000=0;
#SCROLLS:0.000=1.000,
8.000=1.250,
182.000=1.650,
246.000=1.450,
246.250=1.400,
246.500=1.350,
246.750=1.300,
247.000=1.250,
286.000=1.000,
386.000=1.200
;
#TIMESIGNATURES:0.000=4=4,
24.000=1=4,
25.000=4=4,
85.000=1=4,
86.000=4=4,
146.000=2=4,
148.000=4=4,
180.000=2=4,
182.000=4=4,
246.000=1=4,
247.000=4=4,
283.000=3=4,
286.000=4=4,
414.000=2=4,
416.000=4=4,
428.000=2=4,
430.000=4=4,
442.000=1=4,
443.000=4=4,
471.000=3=4,
474.000=4=4,
478.000=5=4,
483.000=4=4,
487.000=3=4,
490.000=4=4
;
#DISPLAYBPM:165.000:360.000;
#BGCHANGES:0.000=Chaos Time the DARK.mp4=1.000=0=0=0=StretchNoLoop====,
99999=-nosongbg-=1.000=0=0=0 // don't automatically add -songbackground-
;
#FGCHANGES:;

//--------------- dance-single - ----------------
#NOTEDATA:;
#STEPSTYPE:dance-single;
#DESCRIPTION:;
#DIFFICULTY:Beginner;
#METER:5;
#RADARVALUES:0,0,0,0,0;
#NOTES:
0000
0000
0000
0000
,
0000
0000
0000
0000
,
0000
0000
0000
0000
,
0000
0000
0000
0000
,
0000
0000
0000
0000
,
0000
0000
0000
0000
,
00M0
00M0
00M0
00M0
2002
3003
0000
0000
0000
0000
0000
0000
0000
0000
0000
0000
,
0000
1001
0000
0000
,
0000
1001
0000
0000
,
0000
1000
0000
0000
,
0000
1001
0000
0000
,
0000
1001
0000
0000
,
0000
1001
0000
0000
,
0000
0001
0000
0000
,
0000
1000
0000
0000
,
0000
0000
0000
0000
,
0000
0000
0000
0000
,
0000
0000
0000
0000
,
0000
0000
0000
0000
,
0000
0000
0000
0000
,
0000
0000
0000
0000
,
0000
0000
0000
0000
0000
0000
0000
0000
0002
0003
0000
0000
0000
0000
0000
0000
,
0001
0000
0001
0000
,
0000
0000
1000
0000
,
1000
0000
1000
0000
,
0000
0000
0100
0000
,
0100
0000
0100
0000
,
0000
0000
0000
0000
0000
0000
0000
0000
0020
0030
0000
0000
0000
0000
0000
0000
,
0000
0000
0000
0000
0000
0000
0000
0000
2002
3003
0000
0000
0000
0000
0000
0000
,
0000
0000
0000
0000
,
0000
0000
0001
0000
,
0001
0000
0001
0000
,
0000
0000
1000
0000
,
0001
0000
1000
0000
,
0000
0000
0000
0000
0000
0000
0000
0000
2002
3003
0000
0000
0000
0000
0000
0000
,
0000
0000
0000
0000
,
0000
0000
0000
0000
,
2000
3000
0000
0000
0010
0000
0000
0000
0000
0000
0000
0000
0010
0000
0000
0000
,
1000
0001
0000
0001
,
1000
0000
0100
0000
,
1000
0000
0000
0000
,
0001
0000
0100
0000
,
0001
0000
0000
0000
,
1000
0000
0000
0000
,
0000
0000
0000
0000
,
2002
3003
0000
0000
0000
0000
0000
0000
0002
0003
0000
0000
0000
0000
0000
0000
,
1000
0001
1000
0000
,
0001
0100
0001
0000
,
1000
0000
0001
0000
,
1000
0000
0000
0000
,
0000
0001
0000
0000
1000
0000
0000
0001
,
0000
0020
0031
1000
,
0001
0000
1000
0000
,
0001
0000
0000
0000
0000
0000
0000
0000
M000
00M0
MM0M
0000
M00M
0000
M00M
0000
,
M00M
0000
0000
0000
0000
0000
0000
0000
0MM0
0000
M00M
0000
0000
0000
M00M
0000
0000
0000
M00M
0000
0000
0000
M00M
0000
0MM0
0000
0000
0000
0000
0000
0000
0MM0
,
0000
0000
M00M
M00M
0MM0
0000
0000
0000
0001
0000
0000
0000
0000
0000
0000
0000
,
1000
0000
0001
0000
,
1000
0000
1000
0000
,
0001
1000
0001
0000
,
1000
0001
1000
0000
,
0001
0000
1000
0000
,
0001
0000
0000
0000
0000
0000
0000
0000
2002
3003
0000
0000
0000
0000
0000
0000
,
0000
0000
0000
0000
0000
0000
0000
0000
0000
0000
0000
0000
0220
0330
0000
0000
,
0000
0000
0000
0000
,
0000
0000
0000
0110
,
0000
0000
0000
0000
,
0000
0000
0000
0110
,
0000
0000
0000
0110
,
0000
0000
0000
1001
,
0000
0000
0000
0000
,
0000
0000
0000
0000
,
0000
0000
0000
0000
0000
0000
0002
0003
0000
0000
0000
0000
,
0000
0000
1000
0000
,
0000
0000
0001
0000
,
0000
0000
0000
0000
,
0000
0000
0100
0000
,
0000
0000
0010
0000
,
0000
0000
0100
0000
,
0000
0000
0000
0000
,
0000
0000
0001
0000
,
0000
0000
1000
0000
,
0000
0000
0001
0000
,
0000
0000
0000
0000
,
0000
0000
0010
0000
,
0000
0000
0100
0000
,
0000
0000
0010
0000
,
0000
0000
0000
0000
,
0000
0000
0001
0000
,
0000
0000
1000
0000
,
0000
0000
0000
0000
0000
0000
0002
0003
0000
0000
0000
0000
,
0000
0000
0100
0000
,
0000
0000
0010
0000
,
0000
0000
0100
0000
,
0000
0000
0001
0000
,
0000
0000
2000
0000
,
0000
0000
0000
0000
,
3000
0000
0000
0000
0000
0000
0000
0000
2002
3003
0000
0000
0000
0000
0000
0000
,
0000
0000
1001
0000
,
0000
0000
0000
0000
0000
0000
0000
0000
2002
3003
0000
0000
0000
0000
0000
0000
,
0000
0000
0001
0000
,
0000
0000
1001
0000
,
0000
0000
1001
0000
,
0000
0000
1001
0000
,
0000
0000
0000
0000
,
2000
3000
0000
0000
0000
0000
0000
0000
0100
0000
0000
0000
0000
0000
0000
0000
,
1000
0000
0000
0000
,
0001
0000
0100
0000
,
0002
0003
0000
0000
0000
0000
0000
0000
2000
3000
0000
0000
0000
0000
0000
0000
,
0010
0000
1000
0000
,
0000
0000
0001
0000
,
0010
0000
0000
0000
0000
0000
0000
0000
0002
0003
0000
0000
2000
3000
0000
0000
,
0000
0100
0000
0010
,
0000
0000
0000
0001
,
0000
0100
0000
0010
,
0000
0000
0000
1000
,
0000
0010
0000
0100
,
0000
0000
0000
0001
,
0000
0010
0000
0100
,
0000
0000
1000
0000
,
0100
0000
0010
0000
,
0000
0000
2000
3000
,
0000
0010
0000
0001
,
0000
0000
1000
0000
,
0001
0000
1000
0000
,
0001
0000
0100
0000
,
0010
0000
0100
0000
,
0000
0000
2002
0000
,
0000
0000
3003
0000
,
0000
0000
0000
0000
0000
0000
0000
0000
0220
M000
000M
M000
000M
M000
000M
M000
,
000M
M000
000M
M000
000M
M000
000M
M000
033M
0000
0000
0000
0000
0000
0000
0000
;

//--------------- dance-single - ----------------
#NOTEDATA:;
#STEPSTYPE:dance-single;
#DESCRIPTION:;
#DIFFICULTY:Easy;
#METER:9;
#RADARVALUES:0,0,0,0,0;
#NOTES:
0000
0000
0000
0000
,
0000
0000
0000
0000
,
0000
0000
0000
0000
,
0000
0000
0000
0000
,
0000
0000
0000
0000
,
0000
0000
0000
0000
,
000M
000M
000M
000M
2020
3030
0000
0000
0000
0000
0000
0000
0000
0000
0000
0000
,
0000
1010
0000
0000
,
0000
1010
0000
0000
,
0000
1001
0000
0000
,
0000
0011
0000
0000
,
0000
0011
0000
0000
,
0000
0011
0000
0000
,
0000
1001
0000
0000
,
0000
1000
0000
0001
,
0000
1000
0000
0000
,
0000
0010
0000
0100
,
0000
0010
0000
0000
,
0000
1000
0000
0001
,
0000
1000
0000
0100
,
0000
0010
0000
0001
,
0000
0000
0000
0000
2000
3000
0000
0000
0002
0003
0000
0000
0000
0000
0000
0000
,
0100
0000
0010
0000
,
0000
0000
1000
0000
,
0001
0000
0010
0000
,
0000
0000
0001
0000
,
0010
0000
0100
0000
,
0000
0000
0000
0000
0000
0000
0000
0000
2000
3000
0000
0000
0000
0000
0000
0000
,
0000
0000
0000
0000
0000
0000
0000
0000
2002
3003
0000
0000
0000
0000
0000
0000
,
0000
0000
0000
0000
,
0000
0000
0001
0000
,
1000
0000
0010
0000
,
0000
0000
1000
0000
,
0010
0000
0100
0000
,
0000
0000
0000
0000
0000
0000
0000
0000
2002
3003
0000
0000
0000
0000
0000
0000
,
0000
0000
0000
0000
,
0000
0000
0000
0000
,
2000
3000
0000
0000
0010
0000
0000
0000
0100
0000
0000
0000
0010
0000
0000
0000
,
1000
0100
0010
0100
,
2000
3000
0000
0000
0000
0000
0000
0000
0100
0000
0000
0000
0000
0000
0000
0000
,
0010
0000
0001
0000
,
1000
0000
0010
0000
,
0100
0000
0001
0000
,
1000
1000
1000
0000
,
0001
0001
0001
0000
,
2002
3003
0000
0000
0000
0000
0000
0000
2000
3000
0000
0001
0000
0000
1000
0000
,
0001
0000
0000
0000
1000
0000
0000
0000
0001
0000
0000
1000
0000
0000
0001
0000
,
1000
0000
0000
0000
0000
0000
0000
0000
0000
0000
0000
0000
0000
0000
0000
0000
0000
0000
0000
0000
0000
0000
0000
0000
0000
0000
0000
0000
0000
0000
0000
0000
0000
0000
0000
0000
0000
0000
0000
0000
0000
0000
0000
0000
0000
0000
0000
0000
0010
0000
0000
0000
0000
0000
0000
0000
0000
0000
0000
0000
0000
0000
0000
0000
0000
0000
0000
0000
0000
0000
0000
0000
0000
0000
0000
0000
0000
0000
0000
0000
0000
0000
0000
0000
0000
0000
0000
0000
0000
0000
0000
0000
0000
0000
0000
0000
1000
0000
0000
0000
0000
0000
0000
0000
0000
0000
0000
0000
0000
0000
0000
0000
0000
0000
0000
0000
0000
0000
0000
0000
0000
0000
0000
0000
0000
0001
0000
0000
0000
0000
0000
0000
0000
0000
0000
0000
0000
0000
0000
0000
0000
0000
0000
0000
0000
0000
0000
0000
0000
0000
0000
0000
0000
0000
1000
0000
0000
0000
0000
0000
0000
0000
0000
0000
0000
0000
0000
0000
0000
0000
0000
0000
0000
0000
0000
0000
0000
0000
0000
0000
0000
0000
0000
0000
0000
0000
0000
0000
0000
0000
0000
0000
,
0001
0000
0000
0000
0000
0000
0000
0000
0000
0000
0000
0000
0000
0000
0000
0000
0000
0000
0000
0000
0000
0000
0000
0000
0000
0000
0000
0000
0000
1000
0000
0000
0000
0000
0000
0000
0000
0000
0000
0000
0000
0000
0000
0000
0000
0000
0000
0000
0000
0000
0000
0000
0000
0000
0000
0000
0000
0000
0001
0000
0000
0000
0000
0000
0000
0000
0000
0000
0000
0000
0000
0000
0000
0000
0000
0000
0000
0000
0000
0000
0000
0000
0000
0000
0000
0000
0000
0000
0000
0000
0000
0000
0000
0000
0000
0000
1000
0000
0000
0000
0000
0000
0000
0000
0000
0000
0000
0000
0000
0000
0000
0000
0000
0000
0000
0000
0000
0000
0000
0000
0000
0000
0000
0001
0000
0000
0000
0000
0000
0000
0000
0000
0000
0000
0000
0000
0000
0000
0000
0000
0000
0000
0000
0000
0000
0000
0000
0000
0000
0000
0000
1000
0000
0000
0000
0000
0000
0000
0000
0000
0000
0000
0000
0000
0000
0000
0000
0000
0000
0000
0000
0000
0000
0000
0000
0000
0000
0000
0001
0000
0000
0000
0000
0000
0000
0000
0000
0000
0000
0000
0000
0000
,
1000
MMMM
0000
0000
,
0000
0000
0000
0000
0000
0000
0000
0000
0000
0000
0000
0000
0000
0000
0000
0000
0000
0000
0000
0000
0000
0000
0000
0000
0001
0000
0000
0000
0000
0000
0000
0000
0000
0000
0000
0000
0000
0000
0000
0000
0000
0000
0000
0000
0000
0000
0000
0000
0000
0000
0000
0000
0000
0000
0000
0000
0000
0000
0000
0000
0000
0000
0000
0000
0000
0000
0000
0000
0000
0000
0000
0000
1000
0000
0000
0000
0000
0000
0000
0000
0000
0000
0000
0000
0000
0000
0000
0000
0000
0000
0000
0000
0000
0000
0000
0000
0000
0000
0000
0000
0000
0000
0000
0000
0000
0000
0000
0000
0000
0000
0001
0000
0000
0000
0000
0000
0000
0000
0000
0000
0000
0000
0000
0000
0000
0000
0000
0000
0000
0000
0000
0000
0000
0000
0000
0000
0000
0000
0000
1000
0000
0000
0000
0000
0000
0000
0000
0000
0000
0000
0000
0000
0000
0000
0000
0000
0000
0000
0000
0000
0000
0000
0000
0000
0000
0000
0000
0000
0001
0000
0000
0000
0000
0000
0000
0000
0000
0000
0000
0000
0000
0000
0000
0000
0000
0000
0000
0000
0000
0000
0000
0000
,
0000
1000
0000
0000
0200
0000
0000
0000
1300
0000
0000
0000
0001
0000
0000
0000
,
1000
0000
0000
0000
0000
0000
0000
0000
0000
0000
0000
0000
0000
0000
0000
0000
0000
0000
0000
0000
0000
0000
0000
0000
0000
0000
0000
0000
0000
0000
0000
0000
0000
0000
0000
0000
0010
0000
0000
0000
0000
0000
0000
0000
0000
0000
0000
0000
0000
0000
0000
0000
0000
0000
0000
0000
0000
0000
0000
0000
0000
0000
0000
0000
0000
0000
1000
0000
0000
0000
0000
0000
0000
0000
0000
0000
0000
0000
0000
0000
0000
0000
0000
0000
0000
0000
0000
0000
0000
0000
0000
0000
0000
0000
0000
0000
0010
0000
0000
0000
0000
0000
0000
0000
0000
0000
0000
0000
0000
0000
0000
0000
0000
0000
0000
0000
0000
0000
0000
0000
0000
0000
0000
1000
0000
0000
0000
0000
0000
0000
0000
0000
0000
0000
0000
0000
0000
0000
0000
0000
0000
0000
0000
0000
0000
0000
0000
0000
0000
0000
0000
0001
0000
0000
0000
0000
0000
0000
0000
0000
0000
0000
0000
0000
0000
0000
0000
0000
0000
0000
0000
0000
0000
0000
0000
0000
0000
0000
1000
0000
0000
0000
0000
0000
0000
0000
0000
0000
0000
0000
0000
0000
,
0001
0000
0000
0000
0000
0000
0000
0000
M000
00M0
MM0M
0000
M00M
0000
M00M
0000
,
M00M
0000
0000
0000
0000
0000
0000
0000
0MM0
0000
M00M
0000
0000
0000
M00M
0000
0000
0000
M00M
0000
0000
0000
M00M
0000
0MM0
0000
0000
0000
0000
0000
0000
0MM0
,
0000
0000
0000
0000
0000
0000
0000
0000
0000
0000
0000
0000
0000
0000
0000
0000
0000
0000
0000
0000
0000
0000
0000
0000
M00M
0000
0000
0000
0000
0000
0000
0000
0000
0000
0000
0000
M00M
0000
0000
0000
0000
0000
0000
0000
0000
0000
0000
0000
0MM0
0000
0000
0000
0000
0000
0000
0000
0000
0000
0000
0000
0000
0000
0000
0000
0000
0000
0000
0000
0000
0000
0000
0000
0000
0000
0000
0000
0000
0000
0000
0000
0000
0000
0000
0000
0000
0000
0000
0000
0000
0000
0000
0000
0000
0000
0000
0000
1000
0000
0000
0000
0000
0000
0000
0000
0000
0000
0000
0000
0000
0000
0000
0000
0000
0000
0000
0000
0000
0000
0000
0000
0000
0000
0000
0000
0000
0001
0000
0000
0000
0000
0000
0000
0000
0000
0000
0000
0000
0000
0000
0000
0000
0000
0000
0000
0000
0000
0000
0000
0000
0000
0000
0000
0000
0000
1000
0000
0000
0000
0000
0000
0000
0000
0000
0000
0000
0000
0000
0000
0000
0000
0000
0000
0000
0000
0000
0000
0000
0000
0000
0000
0000
0000
0000
0000
0000
0000
0000
0000
0000
0000
0000
0000
,
0001
0000
0000
0000
0000
0000
0000
0000
0000
0000
0000
0000
0000
0000
0000
0000
0000
0000
0000
0000
0000
0000
0000
0000
0000
0000
0000
0000
0000
1000
0000
0000
0000
0000
0000
0000
0000
0000
0000
0000
0000
0000
0000
0000
0000
0000
0000
0000
0000
0000
0000
0000
0000
0000
0000
0000
0000
0000
0001
0000
0000
0000
0000
0000
0000
0000
0000
0000
0000
0000
0000
0000
0000
0000
0000
0000
0000
0000
0000
0000
0000
0000
0000
0000
0000
0000
0000
0000
0000
0000
0000
0000
0000
0000
0000
0000
1000
0000
0000
0000
0000
0000
0000
0000
0000
0000
0000
0000
0000
0000
0000
0000
0000
0000
0000
0000
0000
0000
0000
0000
0000
0000
0000
0001
0000
0000
0000
0000
0000
0000
0000
0000
0000
0000
0000
0000
0000
0000
0000
0000
0000
0000
0000
0000
0000
0000
0000
0000
0000
0000
0000
1000
0000
0000
0000
0000
0000
0000
0000
0000
0000
0000
0000
0000
0000
0000
0000
0000
0000
0000
0000
0000
0000
0000
0000
0000
0000
0000
0001
0000
0000
0000
0000
0000
0000
0000
0000
0000
0000
0000
0000
0000
,
1000
0000
0000
0000
MMMM
0000
0000
0000
0001
0000
0000
1000
0000
0000
0001
0000
,
1000
0000
0000
0000
0001
0000
0000
0000
1000
0000
0000
0001
0000
0000
1000
0000
,
0001
0000
0000
0000
1000
0000
0000
0000
0001
0000
0000
0100
0000
0000
0001
0000
,
1000
0000
0000
0000
0000
0000
0000
0000
0000
0000
0000
0000
0000
0000
0000
0000
0000
0000
0000
0000
0000
0000
0000
0000
0000
0000
0000
0000
0000
0000
0000
0000
0000
0000
0000
0000
0000
0000
0000
0000
0000
0000
0000
0000
0000
0000
0000
0000
0000
0000
0000
0100
0000
0000
0000
0000
0000
0000
0000
0000
0000
0000
0000
0000
0000
0000
0000
0000
0000
0000
0000
0000
0000
0000
0000
0000
0000
0000
0000
0000
0000
0000
0000
0000
0000
0000
0000
0000
0000
0000
0000
0000
0000
0000
0000
0000
1000
0000
0000
0000
0000
0000
0000
0000
0000
0000
0000
0000
0000
0000
0000
0000
0000
0000
0000
0000
0000
0000
0000
0000
0000
0000
0000
0001
0000
0000
0000
0000
0000
0000
0000
0000
0000
0000
0000
0000
0000
0000
0000
0000
0000
0000
0000
0000
0000
0000
0000
0000
0000
0000
0000
1000
0000
0000
0000
0000
0000
0000
0000
0000
0000
0000
0000
0000
0000
0000
0000
0000
0000
0000
0000
0000
0000
0000
0000
0000
0000
0000
0001
0000
0000
0000
0000
0000
0000
0000
0000
0000
0000
0000
0000
0000
,
1000
0000
0001
0000
0000
1000
0000
0000
2002
3003
0000
0000
0000
0000
0000
0000
,
0000
0000
0000
0000
0000
0000
0000
0000
0000
0000
0000
0000
0022
0033
0000
0000
,
0000
0000
0000
0000
,
0000
0000
0000
1001
,
0000
0000
0000
0000
,
0000
0000
0000
1010
,
0000
0000
0000
1001
,
0000
0000
0000
0001
,
0000
1000
0000
0001
,
0000
0000
0000
0000
0000
0000
0000
0000
0220
0330
0000
0000
,
0000
0000
0000
0000
0000
2002
0000
0000
0000
3003
0000
0000
2000
0000
3000
0000
0000
0000
0000
0000
0000
0000
0000
0000
,
0100
0000
1000
0000
,
0000
0000
0001
0000
,
0100
0000
0001
0000
,
0000
0000
1000
0000
,
0010
0000
1000
0000
,
0000
0000
0001
0000
,
0010
0000
0001
0000
,
0000
0000
1000
0000
,
0100
0000
0010
0000
,
0000
0000
0001
0000
,
0100
0000
0010
0000
,
0000
0000
1000
0000
,
0001
0000
1000
0000
,
0001
0000
1000
0000
,
0100
0000
0010
0000
,
0000
0000
0001
0000
,
0010
0000
0001
0000
,
0000
0000
0000
0000
0000
0000
2000
3000
0000
0000
0000
0000
,
0000
0000
0001
0000
,
0100
0000
0010
0000
,
0000
0000
1000
0000
,
0001
0000
1000
0000
,
0001
0000
0010
0000
,
0100
0000
0010
0000
,
0100
0000
0000
0000
0000
0000
0000
0000
2200
3300
0000
0000
0000
0000
0000
0000
,
0000
0000
1100
0000
,
0000
0000
0000
0000
0000
0000
0000
0000
2200
3300
0000
0000
0000
0000
0000
0000
,
0000
0000
1001
0000
,
0000
0000
0101
0000
,
0100
0000
0101
0000
,
0001
0000
0101
0000
,
1000
0000
0000
0000
0000
0000
0000
0000
0002
0003
0000
0000
0000
0000
0000
0000
,
2000
3000
0000
0000
0000
0000
0000
0000
0100
0000
0000
0000
0000
0000
0000
0000
,
0010
0000
0001
0000
,
1000
0000
0010
0000
,
0200
0300
0000
0000
0000
0000
0000
0000
0002
0003
0000
0000
0000
0000
0000
0000
,
0100
0000
0010
0000
,
1000
0000
0001
0000
,
0010
0000
0000
0000
0000
0000
0000
0000
0200
0300
0000
0000
1000
0000
0000
0000
,
0000
0100
0000
0010
,
0000
0100
0000
1000
,
0000
0010
0000
0100
,
0000
0010
0000
1000
,
0000
0010
0000
0100
,
0000
0001
0000
0010
,
0000
0100
0000
1000
,
0000
0000
0000
0000
0002
0003
0000
0000
1000
0000
0000
0000
0000
0000
0000
0000
,
0100
0000
0010
0100
,
0010
0000
2000
3010
,
0000
0100
0000
1000
,
0001
1000
0010
0100
,
0010
0000
0100
0010
,
0100
0000
0001
1000
,
0001
0000
0010
0000
,
0100
0000
2002
0000
,
0000
0000
3003
0000
,
0000
0000
0000
0000
0000
0000
0000
0000
0220
M000
000M
M000
000M
M000
000M
M000
,
000M
M000
000M
M000
000M
M000
000M
M000
033M
0000
0000
0000
0000
0000
0000
0000
;

//--------------- dance-single - ----------------
#NOTEDATA:;
#STEPSTYPE:dance-single;
#DESCRIPTION:;
#DIFFICULTY:Medium;
#METER:13;
#RADARVALUES:0,0,0,0,0;
#NOTES:
0000
0000
0000
0000
,
0000
0000
0000
0000
,
0000
0000
0000
0000
,
0000
0000
0000
0000
,
0000
0000
0000
0000
,
0000
0000
0000
0000
,
M000
M000
M000
M000
0022
0033
0000
0000
0000
0000
0000
0000
0000
0000
0000
0000
,
0001
1010
0000
0000
,
1000
0011
0000
0000
,
0001
1010
0010
0100
,
0001
0101
0000
0000
,
0001
1100
0000
0000
,
1000
0101
0000
0000
,
0001
1100
0100
0010
,
0001
1000
0000
0001
,
0000
1000
0000
0010
,
0000
0100
0000
0010
,
0000
0100
0000
0001
,
0000
1000
0001
1000
,
0000
0100
0010
0100
,
0000
1000
0100
0010
,
0001
0000
0000
0000
2000
3000
0000
0000
0001
0000
0000
0000
0100
0000
0000
0000
,
0010
0100
0001
1000
,
0001
0000
1000
0100
,
0001
0000
1000
0010
,
0001
0000
1000
0010
,
0100
0010
1000
0001
,
1000
0000
0000
0000
0000
0000
0000
0000
0002
0003
0000
0000
1000
0000
0000
0000
,
0001
0000
1000
0000
0001
0000
0000
0000
2002
3003
0000
0000
0000
0000
0000
0000
,
0000
0000
0000
0000
1000
0001
1000
0001
,
1000
0010
0100
0000
0001
0000
0100
0000
,
1000
0000
0001
0010
,
1000
0000
0001
0010
,
0100
0000
1000
0000
0001
1000
0001
0000
,
1000
0000
0001
0000
1000
0000
0000
0000
2002
3003
0000
0000
0000
0000
0000
0000
,
0000
0000
0000
0000
0000
0000
0000
0000
0001
0000
0000
0001
0000
0000
0001
0000
,
0000
0000
0000
0000
0000
0000
0000
0000
1000
0000
0000
2000
0000
3000
0000
0000
,
0001
0011
1000
1010
,
1000
0101
0001
1100
,
2000
3000
0000
0000
0100
0000
0000
0000
0010
0000
0000
0000
0000
0000
0000
0000
,
0001
0100
0010
0000
,
1000
0010
0100
0001
,
1000
0010
1000
0200
,
1300
0001
1000
0001
,
1000
0001
1000
0001
0010
0100
0010
0100
,
2000
0000
3000
0000
0000
0000
0000
0000
0000
0000
0000
0000
0000
0000
0000
0000
0002
0000
0003
1000
0000
0000
0001
0000
0000
1000
0000
0000
0001
0000
0000
0000
,
1000
0000
0000
0000
0001
0000
0000
0000
1000
0000
0000
0000
0010
0000
0000
0000
1000
0000
0000
0001
0000
0000
1000
0000
0000
0001
0000
0000
1000
0000
0000
0000
,
0001
0000
0000
0000
0000
0000
0000
0000
0000
0000
0000
0000
0000
0000
0000
0000
0000
0000
0000
0000
0000
0000
0000
0000
1000
0000
0000
0000
0000
0000
0000
0000
0000
0000
0000
0000
0000
0000
0000
0000
0000
0000
0000
0000
0000
0000
0000
0000
0001
0000
0000
0000
0000
0000
0000
0000
0000
0000
0000
0000
0010
0000
0000
0000
0000
0000
0000
0000
0000
0000
0000
0000
0000
0000
0000
0000
0000
0000
0000
0000
0000
0000
0000
0000
0000
0000
0000
0000
0000
0000
0000
0000
0000
0000
0000
0000
0001
0000
0000
0000
0000
0000
0000
0000
0000
0000
0000
0000
0000
0000
1000
0000
0000
0000
0000
0000
0000
0000
0000
0000
0000
0000
0000
0000
0000
0001
0000
0000
0000
0000
0000
0000
0000
0000
0000
0000
0000
0000
0000
1000
0000
0000
0000
0000
0000
0000
0000
0000
0000
0000
0000
0000
0000
0000
0001
0000
0000
0000
0000
0000
0000
0000
0000
0000
0000
0000
0000
0000
1000
0000
0000
0000
0000
0000
0000
0000
0000
0000
0000
0000
0000
0000
0000
0000
0000
0000
0000
0000
0000
0000
0000
0000
,
0001
0000
0000
0000
0000
0000
0000
0000
0000
0000
0000
0000
0000
0000
1000
0000
0000
0000
0000
0000
0000
0000
0000
0000
0000
0000
0000
0000
0000
0001
0000
0000
0000
0000
0000
0000
0000
0000
0000
0000
0000
0000
0000
1000
0000
0000
0000
0000
0000
0000
0000
0000
0000
0000
0000
0000
0000
0000
0001
0000
0000
0000
0000
0000
0000
0000
0000
0000
0000
0000
0000
0000
1000
0000
0000
0000
0000
0000
0000
0000
0000
0000
0000
0000
0000
0000
0000
0000
0000
0000
0000
0000
0000
0000
0000
0000
0001
0000
0000
0000
0000
0000
0000
0000
0000
0000
0000
0000
0000
0000
1000
0000
0000
0000
0000
0000
0000
0000
0000
0000
0000
0000
0000
0001
0000
0000
0000
0000
0000
0000
0000
0000
0000
0000
0000
0000
0000
1000
0000
0000
0000
0000
0000
0000
0000
0000
0000
0000
0000
0000
0000
0001
0000
0000
0000
0000
0000
0000
0000
0000
0000
0000
0000
0000
0000
1000
0000
0000
0000
0000
0000
0000
0000
0000
0000
0000
0000
0000
0001
0000
0000
0000
0000
0000
0000
0000
0000
0000
0000
0000
0000
0000
,
1000
MMMM
0000
0000
,
0000
0000
0000
0000
0000
0000
0000
0000
0000
0000
0000
0000
0000
0000
0000
0000
0000
0000
0000
0000
0000
0000
0000
0000
1000
0000
0000
0000
0000
0000
0000
0000
0000
0000
0000
0000
0000
0000
0000
0000
0000
0000
0000
0000
0000
0000
0000
0000
0001
0000
0000
0000
0000
0000
0000
0000
0000
0000
0000
0000
0000
0000
0000
0000
0000
0000
0000
0000
0000
0000
0000
0000
1000
0000
0000
0000
0000
0000
0000
0000
0000
0000
0000
0000
0000
0000
0000
0000
0000
0000
0000
0000
0000
0000
0000
0000
0001
0000
0000
0000
0000
0000
0000
0000
0000
0000
0000
0000
0000
0000
1000
0000
0000
0000
0000
0000
0000
0000
0000
0000
0000
0000
0000
0000
0000
0001
0000
0000
0000
0000
0000
0000
0000
0000
0000
0000
0000
0000
0000
1000
0000
0000
0000
0000
0000
0000
0000
0000
0000
0000
0000
0000
0000
0000
0001
0000
0000
0000
0000
0000
0000
0000
0000
0000
0000
0000
0000
0000
1000
0000
0000
0000
0000
0000
0000
0000
0000
0000
0000
0000
0000
0000
0000
0000
0000
0000
0001
0000
0000
0000
0000
0000
,
0000
0000
1000
0000
0000
0001
0000
0000
0020
0000
0000
0000
0000
0000
0000
0000
0031
0000
0000
0000
0010
0000
0000
0000
0001
0000
0000
0000
1000
0000
0000
0000
,
0001
0000
0000
0000
0000
0000
0000
0000
0000
0000
0000
0000
0000
0000
0000
0000
0000
0000
0000
0000
0000
0100
0000
0000
0000
0000
0000
0000
0000
0000
0000
0000
0000
0000
0000
0000
0001
0000
0000
0000
0000
0000
0000
0000
0000
0000
0000
0000
0000
0000
0000
0100
0000
0000
0000
0000
0000
0000
0000
0000
0000
0000
0000
0000
0000
0000
0001
0000
0000
0000
0000
0000
0000
0000
0000
0000
0000
0000
0000
0000
0000
0100
0000
0000
0000
0000
0000
0000
0000
0000
0000
0000
0000
0000
0000
0000
0001
0000
0000
0000
0000
0000
0000
0000
0000
0000
0000
0000
0000
1000
0000
0000
0000
0000
0000
0000
0000
0000
0000
0000
0000
0000
0000
0001
0000
0000
0000
0000
0000
0000
0000
0000
0000
0000
0000
0000
0000
1000
0000
0000
0000
0000
0000
0000
0000
0000
0000
0000
0000
0000
0000
0001
0000
0000
0000
0000
0000
0000
0000
0000
0000
0000
0000
0000
1000
0000
0000
0000
0000
0000
0000
0000
0000
0000
0000
0000
0000
0000
0001
0000
0000
0000
0000
0000
0000
0000
0000
0000
0000
0000
0000
0000
,
1000
0000
0000
0000
0000
0000
0000
0000
M000
00M0
MM0M
0000
M00M
0000
M00M
0000
,
M00M
0000
0000
0000
0000
0000
0000
0000
0MM0
0000
M00M
0000
0000
0000
M00M
0000
0000
0000
M00M
0000
0000
0000
M00M
0000
0MM0
0000
0000
0000
0000
0000
0000
0MM0
,
0000
0000
0000
0000
0000
0000
0000
0000
0000
0000
0000
0000
0000
0000
0000
0000
0000
0000
0000
0000
0000
0000
0000
0000
M00M
0000
0000
0000
0000
0000
0000
0000
0000
0000
0000
0000
M00M
0000
0000
0000
0000
0000
0000
0000
0000
0000
0000
0000
0MM0
0000
0000
0000
0000
0000
0000
0000
0000
0000
0000
0000
0000
0000
0000
0000
0000
0000
0000
0000
0000
0000
0000
0000
0000
0000
0000
0000
0000
0000
0000
0000
0000
0000
0000
0000
0000
0000
0000
0000
0000
0000
0000
0000
0000
0000
0000
0000
0001
0000
0000
0000
0000
0000
0000
0000
0000
0000
0000
0000
0000
0000
1000
0000
0000
0000
0000
0000
0000
0000
0000
0000
0000
0000
0000
0000
0000
0001
0000
0000
0000
0000
0000
0000
0000
0000
0000
0000
0000
0000
0000
1000
0000
0000
0000
0000
0000
0000
0000
0000
0000
0000
0000
0000
0000
0000
0001
0000
0000
0000
0000
0000
0000
0000
0000
0000
0000
0000
0000
0000
1000
0000
0000
0000
0000
0000
0000
0000
0000
0000
0000
0000
0000
0000
0000
0000
0000
0000
0000
0000
0000
0000
0000
0000
,
0001
0000
0000
0000
0000
0000
0000
0000
0000
0000
0000
0000
0000
0000
1000
0000
0000
0000
0000
0000
0000
0000
0000
0000
0000
0000
0000
0000
0000
0001
0000
0000
0000
0000
0000
0000
0000
0000
0000
0000
0000
0000
0000
1000
0000
0000
0000
0000
0000
0000
0000
0000
0000
0000
0000
0000
0000
0000
0001
0000
0000
0000
0000
0000
0000
0000
0000
0000
0000
0000
0000
0000
1000
0000
0000
0000
0000
0000
0000
0000
0000
0000
0000
0000
0000
0000
0000
0000
0000
0000
0000
0000
0000
0000
0000
0000
0001
0000
0000
0000
0000
0000
0000
0000
0000
0000
0000
0000
0000
0000
1000
0000
0000
0000
0000
0000
0000
0000
0000
0000
0000
0000
0000
0001
0000
0000
0000
0000
0000
0000
0000
0000
0000
0000
0000
0000
0000
1000
0000
0000
0000
0000
0000
0000
0000
0000
0000
0000
0000
0000
0000
0001
0000
0000
0000
0000
0000
0000
0000
0000
0000
0000
0000
0000
0000
1000
0000
0000
0000
0000
0000
0000
0000
0000
0000
0000
0000
0000
0001
0000
0000
0000
0000
0000
0000
0000
0000
0000
0000
0000
0000
0000
,
1000
0000
0000
0000
0000
0000
0000
0000
MMMM
0000
0000
0000
0000
0000
0000
0000
1000
0000
0000
0001
0000
0000
1000
0000
0000
0001
0000
0000
1000
0000
0000
0000
,
0001
0000
0000
0000
1000
0000
0000
0000
0001
0000
0000
0000
0010
0000
0000
0000
0001
0000
0000
1000
0000
0000
0001
0000
0000
1000
0000
0000
0001
0000
0000
0000
,
1000
0000
0000
0000
0001
0000
0000
0000
1000
0000
0000
0000
0000
0000
0000
0000
0001
0000
0000
1000
0000
0000
0010
0000
0000
1000
0000
0000
0010
0000
0000
0000
,
1000
0000
0000
0000
0000
0000
0000
0000
0000
0000
0000
0000
0000
0000
0000
0000
0000
0000
0000
0000
0000
0000
0000
0000
0001
0000
0000
0000
0000
0000
0000
0000
0000
0000
0000
0000
0000
0000
0000
0000
0000
0000
0000
0000
0000
0000
0000
0000
0000
0000
0000
0010
0000
0000
0000
0000
0000
0000
0000
0000
0000
0000
0000
0000
0000
0000
0001
0000
0000
0000
0000
0000
0000
0000
0000
0000
0000
0000
0000
0000
0000
0010
0000
0000
0000
0000
0000
0000
0000
0000
0000
0000
0000
0000
0000
0000
0001
0000
0000
0000
0000
0000
0000
0000
0000
0000
0000
0000
0000
1000
0000
0000
0000
0000
0000
0000
0000
0000
0000
0000
0000
0000
0000
0001
0000
0000
0000
0000
0000
0000
0000
0000
0000
0000
0000
0000
0000
1000
0000
0000
0000
0000
0000
0000
0000
0000
0000
0000
0000
0000
0000
0001
0000
0000
0000
0000
0000
0000
0000
0000
0000
0000
0000
0000
1000
0000
0000
0000
0000
0000
0000
0000
0000
0000
0000
0000
0000
0000
0001
0000
0000
0000
0000
0000
0000
0000
0000
0000
0000
0000
0000
0000
,
1000
0000
0001
0000
0000
1000
0000
0000
2002
3003
0000
0000
0000
0000
0000
0000
,
0000
0000
0000
0000
0000
0000
0000
0000
0000
0000
0000
0000
2020
3030
0000
0000
,
0000
0000
0000
0000
,
0000
0000
0000
0101
,
0000
0000
0000
0000
,
0000
0000
0000
0011
,
0000
1000
0000
1100
,
0000
0001
0000
0101
,
0100
0010
1000
0001
,
0000
0000
0000
0000
0000
0000
0000
0000
0220
0330
0000
0000
,
0000
0000
0000
0000
0000
2002
0000
0000
0000
3003
0000
0000
0002
0000
0003
0000
0000
0000
0010
0000
0000
0000
0000
0000
,
0100
1000
0010
0100
,
0010
0000
1000
0010
,
0100
0001
1000
0000
,
0010
1000
0100
0000
,
0010
0001
0100
0000
,
0010
1000
0100
0000
,
0001
0100
1000
0000
,
0001
0000
1000
0100
,
0010
0001
0100
0010
,
0100
0000
0001
0100
,
0010
1000
0001
0000
,
0100
0001
0010
0000
,
0100
1000
0010
0000
,
0100
0001
0010
0000
,
1000
0010
0001
0000
,
1000
0000
0001
0100
,
0010
1000
0100
0010
,
0100
0000
0000
0000
0000
0000
2000
3000
0000
1100
0000
0000
,
0011
0000
0000
0000
0000
0000
0010
0000
0000
0001
0000
0000
0200
0000
0300
0000
0000
0000
0000
0000
0000
0000
0000
0000
,
0010
1000
0100
0000
,
0001
0100
1000
0001
,
1000
0001
1000
0001
,
1000
0001
1000
0010
,
0100
0001
0010
0100
,
1000
0000
0000
0000
0010
0000
0000
0000
2020
3030
0000
0000
0000
0000
0000
0000
,
0000
1000
0011
0000
,
0000
0000
0000
0000
0002
0003
0000
0000
2020
3030
0000
0000
0000
0000
0000
0000
,
0000
1000
0011
0010
,
0100
1000
1100
0000
,
0110
0000
0011
0000
,
1001
0000
1010
0010
,
0100
0000
0000
0000
0001
0000
0000
0000
2000
3000
0010
0000
0100
0000
0001
0000
,
2000
3000
0000
0000
0100
0000
0000
0000
0001
0000
0000
0000
0100
0000
0000
0000
,
1000
0010
0100
0001
,
0101
0000
0100
0010
,
2000
3000
0000
0000
0000
0000
0000
0000
0001
0000
0000
0000
0010
0000
0000
0000
,
1000
0010
0001
0100
,
0010
1000
1010
0000
,
0010
0000
0000
0000
0100
0000
0000
0000
0002
0003
0000
0000
1000
0000
0000
0000
,
0100
0010
0001
1000
,
0010
0000
0100
0000
0001
1000
0001
0000
,
0010
0100
1000
0002
,
2003
3020
0230
0301
,
0100
0010
1000
0001
,
0010
0000
0100
0000
1000
0001
1000
0000
,
0010
0100
0001
2000
,
3002
0000
0000
0000
0023
0030
0000
0000
0001
0000
0010
0000
0001
0000
0000
0000
,
0010
0000
0100
1000
0100
0000
1000
0000
,
0001
0000
0100
0000
2000
0000
3100
0010
,
0100
0000
0001
1000
0001
0000
0010
0000
,
0100
0000
1000
0000
0001
0000
0010
0100
,
0000
0010
0100
0000
1000
0000
0010
0100
,
0010
0100
0001
0100
,
0010
0000
1000
0000
0100
1000
0100
0000
,
0010
0100
2002
0000
,
0000
0000
3003
0000
,
0000
0000
0000
0000
0000
0000
0000
0000
0220
M000
000M
M000
000M
M000
000M
M000
,
000M
M000
000M
M000
000M
M000
000M
M000
033M
0000
0000
0000
0000
0000
0000
0000
;

//--------------- dance-single - ----------------
#NOTEDATA:;
#STEPSTYPE:dance-single;
#DESCRIPTION:;
#DIFFICULTY:Hard;
#METER:16;
#RADARVALUES:0,0,0,0,0;
#NOTES:
0000
0000
0000
0000
,
0000
0000
0000
0000
,
0000
0000
0000
0000
,
0000
0000
0000
0000
,
0000
0000
0000
0000
,
0000
0000
0000
0000
,
000M
000M
000M
000M
2200
3300
0000
0000
1000
0000
0001
0000
0100
0000
0000
0000
,
0001
0000
0101
0000
0001
1000
0010
0000
,
1000
0000
1010
0000
1000
0001
0010
0000
,
0001
0012
1003
2010
,
3001
0000
0101
0000
0001
1000
0100
0000
,
1000
0000
1100
0000
1000
0001
0010
0000
,
0001
0000
0011
0000
0001
1000
0010
0000
,
1000
2010
3001
0012
,
1003
0001
0000
1000
,
0000
0001
1000
0001
,
0000
0100
0000
0010
,
0000
0100
0010
0100
,
0000
0001
1000
0001
,
1000
0100
0010
0100
,
0010
0000
0001
0010
0100
1000
0001
0100
,
0010
0000
1000
0000
0002
0003
0000
0000
2000
3000
0000
0000
1010
0000
0000
0000
,
0011
0000
0001
0010
0100
0000
1000
0010
,
0100
0000
0100
0010
0100
0000
0020
0000
,
0001
0000
1030
0001
0010
0000
0200
0001
,
0000
1300
0001
0011
,
1010
0000
1000
0010
0100
0000
0001
0010
,
0100
0000
0000
0000
0100
0000
0010
0000
0200
0300
0000
0000
1000
0000
0000
0000
,
0001
0000
1000
0000
0001
0000
0000
0000
2002
3003
0000
0000
0000
0000
0000
0000
,
1000
0010
1000
0010
0100
0001
1000
0100
,
1000
0001
0020
0000
0130
0000
0020
0000
,
1000
0000
0031
1000
0010
0000
0200
1000
,
0000
0000
0310
0000
1000
0001
1000
0001
,
0010
0100
1000
0001
1000
0010
0100
0001
,
4000
0000
3400
0000
0340
0000
0030
0000
2002
3003
0000
0000
0000
0000
0000
0000
,
0000
0000
0000
0000
0000
0000
0000
0000
0001
0000
0000
0100
0000
0000
0010
0000
,
0000
0000
1000
0000
0001
0000
0000
0000
1000
0000
0000
0200
0000
0300
0000
0000
,
2000
3000
0000
0000
1100
0000
0100
0000
0000
0010
0000
0000
0011
0000
0000
0000
,
0001
0000
0000
0000
0101
0000
0100
0000
0001
0100
0001
0000
1000
0010
1000
0000
,
0002
0003
0000
0000
0010
0000
0100
0000
1000
0000
0001
0000
1000
0000
0010
0000
,
0100
0000
0010
0100
0001
1000
0001
0010
,
0100
1000
0001
1000
0010
0100
0010
1000
,
0001
1000
0001
0100
0010
1000
0200
0000
,
1300
0001
1000
0001
,
1000
0010
0100
0001
0010
0100
1000
0001
,
2002
0000
3003
0000
0000
0000
0000
0000
0000
0000
0000
0000
0000
0000
0000
0000
0002
0000
0003
1000
0000
0000
0001
0000
0000
1000
0000
0000
0001
0000
1000
0000
,
0001
0000
1000
0000
0001
0000
0000
0000
1000
0000
0000
0000
0100
0000
0000
0000
1000
0000
0000
0001
0000
0000
1000
0000
0000
0001
0000
0000
1000
0000
0001
0000
,
1000
0000
0000
0000
0000
0000
0000
0000
0000
0000
0000
0000
0001
0000
0000
0000
0000
0000
0000
0000
0000
0000
0000
0000
1000
0000
0000
0000
0000
0000
0000
0000
0000
0000
0000
0000
0000
0000
0000
0000
0000
0000
0000
0000
0000
0000
0000
0000
0001
0000
0000
0000
0000
0000
0000
0000
0000
0000
0000
0000
0100
0000
0000
0000
0000
0000
0000
0000
0000
0000
0000
0000
0000
0000
0000
0000
0000
0000
0000
0000
0000
0000
0000
0000
0000
0000
0000
0000
0000
0000
0000
0000
0000
0000
0000
0000
0001
0000
0000
0000
0000
0000
0000
0000
0000
0000
0000
0000
0000
0000
1000
0000
0000
0000
0000
0000
0000
0000
0000
0000
0000
0000
0000
0000
0000
0001
0000
0000
0000
0000
0000
0000
0000
0000
0000
0000
0000
0000
0000
1000
0000
0000
0000
0000
0000
0000
0000
0000
0000
0000
0000
0000
0000
0000
0001
0000
0000
0000
0000
0000
0000
0000
0000
0000
0000
0000
0000
0000
1000
0000
0000
0000
0000
0000
0000
0000
0000
0000
0000
0000
0100
0000
0000
0000
0000
0000
0000
0000
0000
0000
0000
0000
,
0010
0000
0000
0000
0000
0000
0000
0000
0000
0000
0000
0000
0000
0000
0001
0000
0000
0000
0000
0000
0000
0000
0000
0000
0000
0000
0000
0000
0000
1000
0000
0000
0000
0000
0000
0000
0000
0000
0000
0000
0000
0000
0000
0001
0000
0000
0000
0000
0000
0000
0000
0000
0000
0000
0000
0000
0000
0000
1000
0000
0000
0000
0000
0000
0000
0000
0000
0000
0000
0000
0000
0000
0001
0000
0000
0000
0000
0000
0000
0000
0000
0000
0000
0000
1000
0000
0000
0000
0000
0000
0000
0000
0000
0000
0000
0000
0001
0000
0000
0000
0000
0000
0000
0000
0000
0000
0000
0000
0000
0000
1000
0000
0000
0000
0000
0000
0000
0000
0000
0000
0000
0000
0000
0001
0000
0000
0000
0000
0000
0000
0000
0000
0000
0000
0000
0000
0000
1000
0000
0000
0000
0000
0000
0000
0000
0000
0000
0000
0000
0000
0000
0001
0000
0000
0000
0000
0000
0000
0000
0000
0000
0000
0000
0000
0000
1000
0000
0000
0000
0000
0000
0000
0000
0000
0000
0000
0000
0000
0001
0000
0000
0000
0000
0000
0000
0000
0000
0000
0000
0000
0000
0000
,
1000
0000
0000
0000
0000
0000
0000
0000
0000
0000
0000
0000
0000
0000
0000
0000
0000
0000
0000
0000
0000
0000
0000
0000
0000
0000
0000
0000
0000
0000
0000
0000
0000
0000
0000
0000
0000
0000
0000
0000
0000
0000
0000
0000
0000
0000
0000
0000
MMMM
0000
0000
0000
0000
0000
0000
0000
0000
0000
0000
0000
0000
0000
0000
0000
0000
0000
0000
0000
0000
0000
0000
0000
0000
0000
0000
0000
0000
0000
0000
0000
0000
0000
0000
0000
0000
0000
0000
0000
0000
0000
0000
0000
0000
0000
0000
0000
1000
0000
0000
0000
0000
0000
0000
0000
0000
0000
0000
0000
0000
0000
0010
0000
0000
0000
0000
0000
0000
0000
0000
0000
0000
0000
0000
0000
0000
1000
0000
0000
0000
0000
0000
0000
0000
0000
0000
0000
0000
0000
0000
0000
0001
0000
0000
0000
0000
0000
0000
0000
0000
0000
0000
0000
0000
0000
0000
0000
0010
0000
0000
0000
0000
0000
0000
0000
0000
0000
0000
0000
0000
0001
0000
0000
0000
0000
0000
0000
0000
0000
0000
0000
0000
0000
1000
0000
0000
0000
0000
0000
0000
0000
0000
0000
,
0100
0000
0000
0000
0000
0000
0000
0000
0000
0000
0000
0000
0000
0000
0000
0000
0000
0000
0000
0000
0000
0000
0000
0000
1000
0000
0000
0000
0000
0000
0000
0000
0000
0000
0000
0000
0001
0000
0000
0000
0000
0000
0000
0000
0000
0000
0000
0000
1000
0000
0000
0000
0000
0000
0000
0000
0000
0000
0000
0000
0001
0000
0000
0000
0000
0000
0000
0000
0000
0000
0000
0000
1000
0000
0000
0000
0000
0000
0000
0000
0000
0000
0000
0000
0001
0000
0000
0000
0000
0000
0000
0000
0000
0000
0000
0000
1000
0000
0000
0000
0000
0000
0000
0000
0000
0000
0000
0000
0000
0000
0001
0000
0000
0000
0000
0000
0000
0000
0000
0000
0000
0000
0000
0000
0000
1000
0000
0000
0000
0000
0000
0000
0000
0000
0000
0000
0000
0000
0000
0001
0000
0000
0000
0000
0000
0000
0000
0000
0000
0000
0000
0000
0000
0000
1000
0000
0000
0000
0000
0000
0000
0000
0000
0000
0000
0000
0000
0000
0001
0000
0000
0000
0000
0000
0000
0000
0000
0000
0000
0000
0000
0000
0000
0000
0000
0000
1000
0000
0000
0000
0000
0000
,
0000
0000
0000
0000
0000
0000
0001
0000
0000
0000
0000
0000
0000
0000
0000
1000
0000
0000
0000
0000
0000
0000
0000
0000
0020
0000
0000
0000
0000
0000
0000
0000
0000
0000
0000
0000
0000
0000
0000
0000
0000
0000
0000
0000
0000
0000
0000
0000
1030
0000
0000
0000
0000
0000
0000
0000
0000
0000
0000
0000
0001
0000
0000
0000
0000
0000
0010
0000
0000
0000
0000
0000
0100
0000
0000
0000
0000
0000
0000
0000
0000
0000
0000
0000
1000
0000
0000
0000
0000
0000
0000
0010
0000
0000
0000
0000
,
0100
0000
0000
0000
0000
0000
0000
0000
0000
0000
0000
0000
0000
0000
0000
0000
0000
0000
0000
0000
0000
0010
0000
0000
0000
0000
0000
0000
0000
0000
0000
0000
0000
0000
0000
0000
1000
0000
0000
0000
0000
0000
0000
0000
0000
0000
0000
0000
0000
0000
0000
0010
0000
0000
0000
0000
0000
0000
0000
0000
0000
0000
0000
0000
0000
0000
1000
0000
0000
0000
0000
0000
0000
0000
0000
0000
0000
0000
0000
0000
0000
0010
0000
0000
0000
0000
0000
0000
0000
0000
0000
0000
0000
0000
0000
0000
1000
0000
0000
0000
0000
0000
0000
0000
0000
0000
0000
0000
0000
0001
0000
0000
0000
0000
0000
0000
0000
0000
0000
0000
0000
0000
0000
1000
0000
0000
0000
0000
0000
0000
0000
0000
0000
0000
0000
0000
0000
0001
0000
0000
0000
0000
0000
0000
0000
0000
0000
0000
0000
0000
0000
1000
0000
0000
0000
0000
0000
0000
0000
0000
0000
0000
0000
0000
0001
0000
0000
0000
0000
0000
0000
0000
0000
0000
0000
0000
0000
0000
1000
0000
0000
0000
0000
0000
0000
0000
0000
0000
0000
0000
0000
0000
,
0001
0000
0000
0000
0000
0000
0000
0000
M000
00M0
MM0M
0000
M00M
0000
M00M
0000
,
M00M
0000
0000
0000
0000
0000
0000
0000
0MM0
0000
M00M
0000
0000
0000
M00M
0000
0000
0000
M00M
0000
0000
0000
M00M
0000
0MM0
0000
0000
0000
0000
0000
0000
0MM0
,
0000
0000
0000
0000
0000
0000
0000
0000
0000
0000
0000
0000
0000
0000
0000
0000
0000
0000
0000
0000
0000
0000
0000
0000
M00M
0000
0000
0000
0000
0000
0000
0000
0000
0000
0000
0000
M00M
0000
0000
0000
0000
0000
0000
0000
0000
0000
0000
0000
0MM0
0000
0000
0000
0000
0000
0000
0000
0000
0000
0000
0000
0000
0000
0000
0000
0000
0000
0000
0000
0000
0000
0000
0000
0000
0000
0000
0000
0000
0000
0000
0000
0000
0000
0000
0000
0000
0000
0000
0000
0000
0000
0000
0000
0000
0000
0000
0000
0001
0000
0000
0000
0000
0000
0000
0000
0000
0000
0000
0000
0000
0000
1000
0000
0000
0000
0000
0000
0000
0000
0000
0000
0000
0000
0000
0000
0000
0001
0000
0000
0000
0000
0000
0000
0000
0000
0000
0000
0000
0000
0000
1000
0000
0000
0000
0000
0000
0000
0000
0000
0000
0000
0000
0000
0000
0000
0001
0000
0000
0000
0000
0000
0000
0000
0000
0000
0000
0000
0000
0000
1000
0000
0000
0000
0000
0000
0000
0000
0000
0000
0000
0000
0010
0000
0000
0000
0000
0000
0000
0000
0000
0000
0000
0000
,
0100
0000
0000
0000
0000
0000
0000
0000
0000
0000
0000
0000
0000
0000
0001
0000
0000
0000
0000
0000
0000
0000
0000
0000
0000
0000
0000
0000
0000
1000
0000
0000
0000
0000
0000
0000
0000
0000
0000
0000
0000
0000
0000
0001
0000
0000
0000
0000
0000
0000
0000
0000
0000
0000
0000
0000
0000
0000
1000
0000
0000
0000
0000
0000
0000
0000
0000
0000
0000
0000
0000
0000
0001
0000
0000
0000
0000
0000
0000
0000
0000
0000
0000
0000
1000
0000
0000
0000
0000
0000
0000
0000
0000
0000
0000
0000
0001
0000
0000
0000
0000
0000
0000
0000
0000
0000
0000
0000
0000
0000
1000
0000
0000
0000
0000
0000
0000
0000
0000
0000
0000
0000
0000
0001
0000
0000
0000
0000
0000
0000
0000
0000
0000
0000
0000
0000
0000
1000
0000
0000
0000
0000
0000
0000
0000
0000
0000
0000
0000
0000
0000
0001
0000
0000
0000
0000
0000
0000
0000
0000
0000
0000
0000
0000
0000
1000
0000
0000
0000
0000
0000
0000
0000
0000
0000
0000
0000
0000
0001
0000
0000
0000
0000
0000
0000
0000
0000
0000
0000
0000
0000
0000
,
1000
0000
0000
0000
0000
0000
0000
0000
MMMM
0000
0000
0000
0000
0000
0000
0000
1000
0000
0000
0001
0000
0000
1000
0000
0000
0001
0000
0000
1000
0000
0001
0000
,
1000
0000
0001
0000
1000
0000
0000
0000
0001
0000
0000
0000
0100
0000
0000
0000
0001
0000
0000
1000
0000
0000
0001
0000
0000
1000
0000
0000
0001
0000
1000
0000
,
0001
0000
1000
0000
0001
0000
0000
0000
1000
0000
0000
0000
0000
0000
0000
0000
0001
0000
0000
1000
0000
0000
0100
0000
0000
1000
0000
0000
0100
0000
0010
0000
,
0001
0000
0000
0000
0000
0000
0000
0000
0000
0000
0000
0000
1000
0000
0000
0000
0000
0000
0000
0000
0000
0000
0000
0000
0001
0000
0000
0000
0000
0000
0000
0000
0000
0000
0000
0000
1000
0000
0000
0000
0000
0000
0000
0000
0000
0000
0000
0000
0000
0000
0000
0010
0000
0000
0000
0000
0000
0000
0000
0000
0000
0000
0000
0000
0000
0000
1000
0000
0000
0000
0000
0000
0000
0000
0000
0000
0000
0000
0000
0000
0000
0010
0000
0000
0000
0000
0000
0000
0000
0000
0000
0000
0000
0000
0000
0000
1000
0000
0000
0000
0000
0000
0000
0000
0000
0000
0000
0000
0000
0001
0000
0000
0000
0000
0000
0000
0000
0000
0000
0000
0000
0000
0000
1000
0000
0000
0000
0000
0000
0000
0000
0000
0000
0000
0000
0000
0000
0001
0000
0000
0000
0000
0000
0000
0000
0000
0000
0000
0000
0000
0000
1000
0000
0000
0000
0000
0000
0000
0000
0000
0000
0000
0000
0000
0001
0000
0000
0000
0000
0000
0000
0000
0000
0000
0000
0000
0000
0000
1000
0000
0000
0000
0000
0000
0000
0000
0000
0000
0000
0000
0000
0000
,
0001
0000
1000
0000
0000
0001
0000
0000
2002
3003
0000
0000
0000
0000
0000
0000
,
0000
0000
0000
0000
0000
0000
0000
0000
0000
0000
0000
0000
0202
0303
0000
0000
,
0000
0200
0302
0023
,
0230
0000
0300
1100
,
0000
0200
2300
3020
,
0230
0000
0300
0101
,
0000
1010
0000
1100
,
0000
0011
0000
0101
,
1010
1100
0011
1001
,
0000
0000
0000
0000
0000
0000
0000
0000
0220
0330
0000
0000
,
0000
0000
0000
0000
0000
2002
0000
0000
0000
3003
0000
0000
2000
0000
3000
0000
0000
0000
0100
0000
0000
0000
0000
0000
,
0010
0001
0100
0010
,
1000
0001
1000
0100
,
0010
0100
0001
0100
,
0010
0001
0100
0010
,
0010
1000
0100
0010
,
0010
0001
0100
0010
,
0001
0010
1000
0000
,
0001
1000
0001
0010
,
0100
1000
0010
0100
,
0001
1000
0001
0010
,
0100
0010
1000
0010
,
0100
1000
0010
0100
,
0100
0001
0010
0100
,
0100
1000
0010
0100
,
1000
0100
0001
0000
,
1000
0001
1000
0010
,
0100
0001
0010
0100
,
1000
0000
0000
0001
0000
0000
2000
3000
0000
1010
0000
0000
,
0101
0000
0000
0000
0000
0000
0100
0000
0000
0001
0000
0000
0020
0000
0030
0000
0000
0000
0100
0000
0000
0000
0000
0000
,
0100
1000
0010
0100
,
0100
0001
2000
0010
,
3002
0010
2003
0010
,
3002
0010
2003
0100
,
3002
0100
2003
0100
,
3001
0000
0000
0000
1000
0000
0000
0000
2020
3030
0000
0000
1000
0000
0001
0000
,
0010
0000
0001
0000
0011
0000
0001
1000
,
0100
0000
0000
0000
2000
3000
0000
0000
2200
3300
0000
0000
1000
0000
0001
0000
,
0100
0001
0102
1003
,
2100
3001
0011
0000
,
1010
0000
1100
0000
,
0101
0000
0011
1010
,
1100
0000
0000
0000
0101
0000
0000
0000
0002
0103
0001
0100
0010
1000
0010
1000
,
0002
0003
0000
0000
0200
0000
0000
0000
1000
0000
0000
0000
0310
0000
0000
0000
,
1000
0001
1000
0001
0010
0100
1000
0000
,
1100
0000
0100
0000
0020
0100
0000
0031
,
0020
0030
0001
0000
1000
0000
0010
0000
2000
3000
0000
0000
0020
0000
0000
0000
,
0001
0000
0130
0000
0001
1000
0001
1000
,
0100
0010
0001
0000
0011
0000
0010
0000
,
0200
0000
0010
0000
0000
0000
1300
0000
0002
0003
0000
0000
2000
3000
0000
0000
,
0010
0110
0101
0001
,
0010
0000
0110
0000
0010
0100
1000
0000
,
0100
0110
0011
0002
,
2003
3020
0230
0301
,
0100
0110
1010
1000
,
0100
0000
0110
0000
0100
0010
0001
0000
,
0010
0110
1100
2000
,
3002
0000
0000
0000
0203
0300
0000
0000
0001
0000
0100
0000
0010
0000
0100
0000
,
0001
1000
0100
0010
0100
0010
0001
1000
,
0001
0000
1000
0010
0002
0000
0013
0100
,
0001
0000
0010
0100
1000
0000
0100
1000
,
0100
0000
0010
0000
0001
0000
0010
0100
,
0000
0100
1000
0000
0001
0000
1000
0010
,
0400
0304
0043
0030
0001
0010
0100
1000
,
0010
0100
0001
0010
0100
1000
0001
1000
,
0010
0100
2002
0000
,
0000
0000
3003
0000
,
0000
0000
0000
0000
0000
0000
0002
1003
0001
1000
0001
1000
,
0001
1000
0001
1000
0001
1000
0001
0000
0000
0000
0000
0000
;

//--------------- dance-single - ----------------
#NOTEDATA:;
#STEPSTYPE:dance-single;
#DESCRIPTION:;
#DIFFICULTY:Challenge;
#METER:18;
#RADARVALUES:0,0,0,0,0;
#NOTES:
0000
0000
0000
0000
,
0000
0000
0000
0000
,
0000
0000
0000
0000
,
0000
0000
0000
0000
,
0000
0000
0000
0000
,
0000
0000
0000
0000
,
M000
M000
M000
M000
0202
0303
0000
0000
0001
0000
0100
0000
0010
0000
1000
0000
,
0100
0000
1100
0000
1000
0100
0010
0001
,
0100
0000
0101
0000
0001
0100
0010
1000
,
0100
2100
3001
0102
,
1003
0000
1010
0000
1000
0010
0100
0001
,
0010
0000
0011
0000
0001
0010
0100
1000
,
0010
0000
1010
0000
1000
0010
0100
0001
,
0010
0012
1003
2010
,
3001
1000
0000
0010
,
0000
1000
0001
1000
,
0000
0001
0000
0010
,
0000
0001
1000
0001
,
0000
1000
0010
0100
,
0001
1000
0100
0010
,
0001
0000
0000
1000
0001
1000
0001
1000
0001
1000
0001
1000
,
0001
0000
0000
0000
0100
0000
0000
0000
0010
0000
0000
0000
2000
0000
0000
3000
0000
0000
0000
0000
0000
0000
0000
0000
0002
0000
0000
0003
0000
0000
0000
0000
0000
0000
0000
0000
0101
0000
0000
0000
0000
0000
0000
0000
0000
0000
0000
0000
,
1100
0000
1000
0100
1000
0000
0100
1000
,
0001
1000
0001
0000
1000
0000
0001
0000
0200
0000
0000
0000
0010
0000
0000
0000
,
1300
0000
0100
0010
0100
0000
0001
0000
1000
0000
0000
0000
0100
0000
0001
0000
,
0100
0010
0001
0000
1000
0000
1100
0000
,
0101
0000
0001
0100
0001
0000
0100
0001
,
1000
0001
1000
0000
0001
0000
1000
0000
0200
0300
0000
0000
0010
0000
0000
0000
,
0001
0000
1000
0000
0001
0000
0000
0000
2002
3003
0000
0000
0000
0000
0000
0000
,
1000
0000
0010
0000
0100
0000
0001
0100
0001
0000
1000
0001
1000
0000
0010
1000
,
0010
1000
0200
0000
0320
0000
0100
0000
,
1030
0000
0010
0100
0010
0000
0001
0000
1000
0000
0000
0000
0010
0000
0001
0000
,
0010
0100
0001
0000
0100
0001
0100
0001
,
1000
0001
1000
0000
0100
0000
0010
0000
0001
1000
0001
0000
0010
0100
0010
0000
,
0400
0000
4300
0000
3040
0000
0430
0000
0302
0003
0000
0000
0000
0000
0000
0000
,
0000
0000
0000
0000
0000
0000
0000
0000
1000
0000
0000
0010
0000
0000
0100
0000
,
0000
0000
0001
0000
1000
0000
0000
0000
0001
0000
0000
0020
0000
0030
0000
0000
,
0002
0003
0000
0000
0011
0000
0010
0000
0000
0100
0000
0000
1100
0000
0000
0000
,
1000
0000
0000
0000
1010
0000
0010
0000
0100
0001
0100
0001
1000
0100
0010
0001
,
2000
3000
0000
0000
0100
0000
1000
0000
0100
0000
0010
0000
0001
1000
0001
0000
,
1000
0000
0000
0000
0010
0000
1000
0000
0010
0000
0100
0000
0001
1000
0001
1000
,
0001
0000
0010
0000
0100
0000
1000
0100
1000
0000
0100
0000
0010
0000
0001
0000
,
1000
0001
1000
0001
1000
0000
0010
0000
0100
0000
0001
0000
0020
0000
0000
0000
,
0031
0001
0001
0001
,
0010
0001
0010
0100
1000
0001
0100
0010
,
2002
0000
3003
0000
0000
0000
0000
0000
0000
0000
0000
0000
0000
0000
0000
0000
2000
0000
3000
0001
0000
0000
1000
0000
0000
0001
0000
0000
1000
0000
0001
0000
,
1000
0000
0001
0000
1000
0000
0000
0000
0001
0000
0000
0000
0010
0000
0000
0000
0001
0000
0000
1000
0000
0000
0001
0000
0000
1000
0000
0000
0001
0000
1000
0000
,
0001
0000
0000
0000
0000
0000
0000
0000
1000
0000
0000
0000
0000
0000
0000
0000
0001
0000
0000
0000
0000
0000
0000
0000
1000
0000
0000
0000
0000
0000
0000
0000
0000
0000
0000
0000
0001
0000
0000
0000
0000
0000
0000
0000
0000
0000
0000
0000
1000
0000
0000
0000
0000
0000
0000
0000
0000
0000
0000
0000
0010
0000
0000
0000
0000
0000
0000
0000
0000
0000
0000
0000
0000
0000
0000
0000
0000
0000
0000
0000
0000
0000
0000
0000
0000
0000
0000
0000
0000
0000
0000
0000
0000
0000
0000
0000
1000
0000
0000
0000
0000
0000
0000
0000
0000
0000
0000
0000
0000
0000
0001
0000
0000
0000
0000
0000
0000
0000
0000
0000
0000
0000
0000
0000
0000
1000
0000
0000
0000
0000
0000
0000
0000
0000
0000
0000
0000
0000
0000
0001
0000
0000
0000
0000
0000
0000
0000
0000
0000
0000
0000
0000
0000
0000
1000
0000
0000
0000
0000
0000
0000
0000
0000
0000
0000
0000
0000
0000
0001
0000
0000
0000
0000
0000
0000
0000
0010
0000
0000
0000
0000
0000
0000
0000
0100
0000
0000
0000
0000
0000
0000
0000
,
1000
0000
0000
0000
0000
0000
0000
0000
0000
0000
0000
0000
0000
0000
0001
0000
0000
0000
0000
0000
0000
0000
0000
0000
0000
0000
0000
0000
0000
1000
0000
0000
0000
0000
0000
0000
0000
0000
0000
0000
0000
0000
0000
0001
0000
0000
0000
0000
0000
0000
0000
0000
0000
0000
0000
0000
0000
0000
1000
0000
0000
0000
0000
0000
0000
0000
0000
0000
0000
0000
0000
0000
0001
0000
0000
0000
0000
0000
0000
0000
1000
0000
0000
0000
0000
0000
0000
0000
0001
0000
0000
0000
0000
0000
0000
0000
1000
0000
0000
0000
0000
0000
0000
0000
0000
0000
0000
0000
0000
0000
0001
0000
0000
0000
0000
0000
0000
0000
0000
0000
0000
0000
0000
1000
0000
0000
0000
0000
0000
0000
0001
0000
0000
0000
0000
0000
0000
1000
0000
0000
0000
0000
0000
0000
0000
0000
0000
0000
0000
0000
0000
0001
0000
0000
0000
0000
0000
0000
0000
0000
0000
0000
0000
0000
0000
1000
0000
0000
0000
0000
0000
0001
0000
0000
0000
0000
0000
0000
1000
0000
0000
0000
0000
0000
0000
0001
0000
0000
0000
0000
0000
0000
,
1000
0000
0000
0000
0000
0000
0000
0000
0000
0000
0000
0000
0000
0000
0000
0000
0000
0000
0000
0000
0000
0000
0000
0000
0000
0000
0000
0000
0000
0000
0000
0000
0000
0000
0000
0000
0000
0000
0000
0000
0000
0000
0000
0000
0000
0000
0000
0000
MMMM
0000
0000
0000
0000
0000
0000
0000
0000
0000
0000
0000
0000
0000
0000
0000
0000
0000
0000
0000
0000
0000
0000
0000
0000
0000
0000
0000
0000
0000
0000
0000
0000
0000
0000
0000
0000
0000
0000
0000
0000
0000
0000
0000
0000
0000
0000
0000
0001
0000
0000
0000
0000
0000
0000
0000
0000
0000
0000
0000
0000
0000
0100
0000
0000
0000
0000
0000
0000
0000
0000
0000
0000
0000
0000
0000
0000
0001
0000
0000
0000
0000
0000
0000
0000
0000
0000
0000
0000
0000
0000
0000
1000
0000
0000
0000
0000
0000
0000
0000
0000
0000
0000
0000
0000
0000
0000
0000
0100
0000
0000
0000
0000
0000
0000
0000
0000
0000
0000
0000
0000
1000
0000
0000
0000
0000
0000
0000
0000
0000
0000
0000
0000
0000
0001
0000
0000
0000
0000
0000
0000
0000
0000
0000
,
0010
0000
0000
0000
0000
0000
0000
0000
0000
0000
0000
0000
0000
0000
0000
0000
0000
0000
0000
0000
0000
0000
0000
0000
0001
0000
0000
0000
0000
0000
0000
0000
0000
0000
0000
0000
1000
0000
0000
0000
0000
0000
0000
0000
0000
0000
0000
0000
0001
0000
0000
0000
0000
0000
0000
0000
0000
0000
0000
0000
1000
0000
0000
0000
0000
0000
0000
0000
0000
0000
0000
0000
0001
0000
0000
0000
0000
0000
0000
0000
0000
0000
0000
0000
1000
0000
0000
0000
0000
0000
0000
0000
0000
0000
0000
0000
0001
0000
0000
0000
0000
0000
0000
0000
0000
0000
0000
0000
0000
0000
1000
0000
0000
0000
0000
0000
0000
0000
0000
0000
0000
0000
0000
0000
0000
0001
0000
0000
0000
0000
0000
0000
0000
0000
0000
0000
0000
0000
0000
1000
0000
0000
0000
0000
0000
0000
0000
0000
0000
0000
0000
0000
0000
0000
0001
0000
0000
0000
0000
0000
0000
0000
0000
0000
0000
0000
0000
0000
1000
0000
0000
0000
0000
0000
0000
0000
0000
0000
0000
0000
0000
0000
0000
0000
0000
0000
0001
0000
0000
0000
0000
0000
,
0000
0000
0000
0000
0000
0000
1000
0000
0000
0000
0000
0000
0000
0000
0000
0001
0000
0000
0000
0000
0000
0000
0000
0000
0200
0000
0000
0000
0000
0000
0000
0000
0000
0000
0000
0000
0000
0000
0000
0000
0000
0000
0000
0000
0000
0000
0000
0000
0301
0000
0000
0000
0000
0000
0000
0000
0000
0000
0000
0000
1000
0000
0000
0000
0000
0000
0100
0000
0000
0000
0000
0000
0010
0000
0000
0000
0000
0000
0000
0000
0000
0000
0000
0000
0001
0000
0000
0000
0000
0000
0000
0100
0000
0000
0000
0000
,
0010
0000
0000
0000
0000
0000
0000
0000
0000
0000
0000
0000
0000
0000
0000
0000
0000
0000
0000
0000
0000
0100
0000
0000
0000
0000
0000
0000
0000
0000
0000
0000
0000
0000
0000
0000
0001
0000
0000
0000
0000
0000
0000
0000
0100
0000
0000
0000
0000
0000
0000
0001
0000
0000
0000
0000
0000
0000
0000
0100
0000
0000
0000
0000
0000
0000
0001
0000
0000
0000
0000
0000
0000
0100
0000
0000
0000
0000
0000
0000
0000
0001
0000
0000
0000
0000
0000
0000
0100
0000
0000
0000
0000
0000
0000
0000
0001
0000
0000
0000
0000
0000
0000
0000
0000
0000
0000
0000
0000
1000
0000
0000
0000
0000
0000
0000
0000
0000
0000
0000
0000
0000
0000
0001
0000
0000
0000
0000
0000
0000
1000
0000
0000
0000
0000
0000
0000
0001
0000
0000
0000
0000
0000
0000
0000
0000
0000
0000
0000
0000
0000
1000
0000
0000
0000
0000
0000
0000
0000
0000
0000
0000
0000
0000
0001
0000
0000
0000
0000
0000
0000
1000
0000
0000
0000
0000
0000
0000
0001
0000
0000
0000
0000
0000
0000
1000
0000
0000
0000
0000
0000
0000
,
0001
0000
0000
0000
0000
0000
0000
0000
M000
00M0
MM0M
0000
M00M
0000
M00M
0000
,
M00M
0000
0000
0000
0000
0000
0000
0000
0MM0
0000
M00M
0000
0000
0000
M00M
0000
0000
0000
M00M
0000
0000
0000
M00M
0000
0MM0
0000
0000
0000
0000
0000
0000
0MM0
,
0000
0000
0000
0000
0000
0000
0000
0000
0000
0000
0000
0000
0000
0000
0000
0000
0000
0000
0000
0000
0000
0000
0000
0000
M00M
0000
0000
0000
0000
0000
0000
0000
0000
0000
0000
0000
M00M
0000
0000
0000
0000
0000
0000
0000
0000
0000
0000
0000
0MM0
0000
0000
0000
0000
0000
0000
0000
0000
0000
0000
0000
0000
0000
0000
0000
0000
0000
0000
0000
0000
0000
0000
0000
0000
0000
0000
0000
0000
0000
0000
0000
0000
0000
0000
0000
0000
0000
0000
0000
0000
0000
0000
0000
0000
0000
0000
0000
1000
0000
0000
0000
0000
0000
0000
0000
0000
0000
0000
0000
0000
0000
0001
0000
0000
0000
0000
0000
0000
0000
0000
0000
0000
0000
0000
0000
0000
1000
0000
0000
0000
0000
0000
0000
0000
0000
0000
0000
0000
0000
0000
0001
0000
0000
0000
0000
0000
0000
0000
0000
0000
0000
0000
0000
0000
0000
1000
0000
0000
0000
0000
0000
0000
0000
0000
0000
0000
0000
0000
0000
0001
0000
0000
0000
0000
0000
0000
0000
0100
0000
0000
0000
0000
0000
0000
0000
0010
0000
0000
0000
0000
0000
0000
0000
,
1000
0000
0000
0000
0000
0000
0000
0000
0000
0000
0000
0000
0000
0000
0001
0000
0000
0000
0000
0000
0000
0000
0000
0000
0000
0000
0000
0000
0000
1000
0000
0000
0000
0000
0000
0000
0000
0000
0000
0000
0000
0000
0000
0001
0000
0000
0000
0000
0000
0000
0000
0000
0000
0000
0000
0000
0000
0000
1000
0000
0000
0000
0000
0000
0000
0000
0000
0000
0000
0000
0000
0000
0001
0000
0000
0000
0000
0000
0000
0000
1000
0000
0000
0000
0000
0000
0000
0000
0001
0000
0000
0000
0000
0000
0000
0000
1000
0000
0000
0000
0000
0000
0000
0000
0000
0000
0000
0000
0000
0000
0001
0000
0000
0000
0000
0000
0000
0000
0000
0000
0000
0000
0000
1000
0000
0000
0000
0000
0000
0000
0001
0000
0000
0000
0000
0000
0000
1000
0000
0000
0000
0000
0000
0000
0000
0000
0000
0000
0000
0000
0000
0001
0000
0000
0000
0000
0000
0000
0000
0000
0000
0000
0000
0000
0000
1000
0000
0000
0000
0000
0000
0001
0000
0000
0000
0000
0000
0000
1000
0000
0000
0000
0000
0000
0000
0001
0000
0000
0000
0000
0000
0000
,
1000
0000
0000
0000
0000
0000
0000
0000
MMMM
0000
0000
0000
0000
0000
0000
0000
0001
0000
0000
1000
0000
0000
0001
0000
0000
1000
0000
0000
0001
0000
1000
0000
,
0001
0000
1000
0000
0001
0000
0000
0000
1000
0000
0000
0000
0010
0000
0000
0000
1000
0000
0000
0001
0000
0000
1000
0000
0000
0001
0000
0000
1000
0000
0001
0000
,
1000
0000
0000
0000
0000
0000
0000
0000
0001
0000
0000
0000
0000
0000
0000
0000
1000
0000
0000
0000
0000
0000
0000
0000
0001
0000
0000
0000
0000
0000
0000
0000
0000
0000
0000
0000
1000
0000
0000
0000
0000
0000
0000
0000
0000
0000
0000
0000
0001
0000
0000
0000
0000
0000
0000
0000
0000
0000
0000
0000
0000
0000
0000
0000
0000
0000
0000
0000
0000
0000
0000
0000
0000
0000
0000
0000
0000
0000
0000
0000
0000
0000
0000
0000
0000
0000
0000
0000
0000
0000
0000
0000
0000
0000
0000
0000
1000
0000
0000
0000
0000
0000
0000
0000
0000
0000
0000
0000
0000
0000
0000
0000
0000
0000
0001
0000
0000
0000
0000
0000
0000
0000
0000
0010
0000
0000
0000
0000
0000
0000
0000
0000
0001
0000
0000
0000
0000
0000
0000
0000
0000
0010
0000
0000
0000
0000
0000
0000
0000
0000
0001
0000
0000
0000
0000
0000
0000
0000
0000
0010
0000
0000
0000
0000
0000
0000
0000
0000
0001
0000
0000
0000
0000
0000
0000
0000
0010
0000
0000
0000
0000
0000
0000
0000
0100
0000
0000
0000
0000
0000
0000
0000
,
1000
0000
0000
0000
0000
0000
0000
0000
0000
0000
0000
0000
0001
0000
0000
0000
0000
0000
0000
0000
0000
0000
0000
0000
1000
0000
0000
0000
0000
0000
0000
0000
0000
0000
0000
0000
0001
0000
0000
0000
0000
0000
0000
0000
0100
0000
0000
0000
0000
0000
0000
0001
0000
0000
0000
0000
0000
0000
0000
0100
0000
0000
0000
0000
0000
0000
0001
0000
0000
0000
0000
0000
0000
0100
0000
0000
0000
0000
0000
0000
0000
0001
0000
0000
0000
0000
0000
0000
0100
0000
0000
0000
0000
0000
0000
0000
0001
0000
0000
0000
0000
0000
0000
0000
0000
0000
0000
0000
0000
1000
0000
0000
0000
0000
0000
0000
0000
0000
0000
0000
0000
0000
0000
0001
0000
0000
0000
0000
0000
0000
1000
0000
0000
0000
0000
0000
0000
0001
0000
0000
0000
0000
0000
0000
0000
0000
0000
0000
0000
0000
0000
1000
0000
0000
0000
0000
0000
0000
0000
0000
0000
0000
0000
0000
0001
0000
0000
0000
0000
0000
0000
1000
0000
0000
0000
0000
0000
0000
0001
0000
0000
0000
0000
0000
0000
1000
0000
0000
0000
0000
0000
0000
,
0001
0000
1000
0000
0000
0001
0000
0000
2002
3003
0000
0000
0002
0003
1000
0000
,
0000
0000
1000
0000
0000
0000
1000
0000
0000
0000
1000
0000
2200
3300
0000
0000
,
0000
0200
2300
3020
,
0230
0000
0300
0101
,
0000
0200
0302
0023
,
0230
0000
0300
1100
,
0000
0011
0000
0101
,
0000
1010
0000
1100
,
0011
0101
1010
1001
,
0000
0000
0000
0000
0000
0000
0000
0000
0220
0330
0000
0000
,
0000
0000
0000
0000
0000
2002
0000
0000
0000
3003
0000
0000
0002
0000
0003
0000
0000
0000
0100
0000
0000
0000
0000
0000
,
0100
0000
0001
1000
0000
0100
0000
0000
0000
0100
0000
0000
,
1000
0000
0000
0001
0000
0000
1000
0000
0000
0010
0000
1000
,
0001
0000
1000
0100
0000
1000
0000
0000
0000
1100
0000
1000
,
0100
0000
0010
0001
0000
0100
0000
0000
0001
0100
0000
0000
,
0010
0000
1000
0000
0000
0100
0000
0000
1000
0100
0000
0000
,
0010
0000
0001
0000
0000
0100
0000
0000
0010
0100
0000
0000
,
1000
0000
0100
0010
0000
0100
0001
0000
0000
0100
0000
0000
,
0010
0000
1000
0010
0000
1000
0000
0000
0000
0010
0000
0000
,
0010
0000
1000
0001
0000
0010
0000
0000
0000
0010
0000
0000
,
0001
0000
0000
1000
0000
0000
0001
0000
0000
0100
0000
0001
,
1000
0000
0001
0010
0000
0001
0000
0000
0000
0011
0000
0001
,
0010
0000
0100
1000
0000
0010
0000
0000
1000
0010
0000
0000
,
0100
0000
0001
0000
0000
0010
0000
0000
0001
0010
0000
0000
,
0100
0000
1000
0000
0000
0010
0000
0000
0100
0010
0000
0000
,
0001
0000
0010
0100
0000
0010
1000
0000
0000
0010
0000
0000
,
0110
0000
0100
0001
0000
1000
0001
0000
0000
0100
0000
0000
,
0100
0000
0001
1000
0000
0100
0000
0000
0000
0100
0000
0000
,
1000
0000
0000
0100
0000
0000
2000
3100
0010
0001
0100
0010
,
1000
0000
0000
0000
0000
0000
0010
0000
0000
1000
0000
0000
0200
0000
0300
0000
1000
0000
0100
0000
0000
0000
0000
0000
,
0010
0000
0001
0000
0000
0100
0000
0000
0001
0100
0000
0000
,
0010
0000
0100
0000
0000
1002
0000
0000
0000
0100
0000
0000
,
2003
0010
3002
0100
,
2003
0010
3002
0010
,
2003
0100
3002
0010
,
1003
0000
0000
0000
0001
0000
0000
0000
0022
0033
0000
0000
0001
0000
0010
0000
,
0100
1000
0010
0000
1010
0000
1000
0010
,
0100
0000
0001
0000
0020
0030
0000
0000
0022
0033
0000
0000
0001
0000
0010
0000
,
0100
1000
0010
0000
2010
0000
3001
0000
,
0012
0000
1003
0000
1100
0000
1000
0001
,
1001
0000
1000
0010
1010
0000
1000
0001
,
1001
0000
1000
0100
1100
0000
0011
0000
,
0101
0000
0000
0000
1010
0000
0000
0000
2000
3010
0100
0001
1000
0001
0010
0100
,
2000
3000
0000
0000
0200
0000
0000
0000
0001
0000
0000
0000
1300
0000
0000
0000
,
0100
1000
0100
0000
0010
0000
0001
0000
0100
0001
0100
0000
0010
0000
0000
0000
,
1001
0000
0001
0100
0020
0100
0000
1030
,
0002
1003
0010
1000
0100
0000
0010
0000
0002
0003
0000
0000
0020
0000
0000
0000
,
1000
0000
0000
0000
0031
0000
0000
0000
0010
0001
0010
0000
0100
0000
1000
0000
,
0010
1000
0010
0000
0100
0000
0000
0000
1001
0000
0000
0000
1000
0000
0010
0000
,
0200
0000
0010
0000
0000
0000
0301
0000
2000
3000
0000
0000
0002
0003
0010
0000
,
0100
0010
0001
1000
0001
0100
0010
1000
,
0001
0100
0010
1000
0010
0010
1000
0010
,
0100
0010
1000
0001
1000
0100
0020
0000
,
0032
0000
0203
0000
0320
0000
1030
0010
,
0100
0010
1000
0001
1000
0100
0010
0001
,
1000
0001
0010
0100
0010
0010
0001
0010
,
0100
1000
0001
1000
0010
0100
0020
0000
,
2030
0000
0000
0000
3200
0300
0000
0000
2000
3000
0100
1000
0100
0000
0010
0000
,
0001
0000
1000
0000
0010
1000
0010
0000
0100
0001
0100
0000
0001
1000
0001
0000
,
0010
0000
0100
0000
1000
0000
0100
0000
0002
0000
0000
0000
0103
0010
0100
0000
,
1000
0000
0010
0000
0100
0010
0100
0000
0001
0000
0010
0000
0100
0000
1000
0000
,
0001
0000
0000
0000
1001
0000
0000
0000
1000
0010
1000
0000
0001
0000
0100
0001
,
0100
0000
0001
0000
1000
0000
0001
0000
0010
0000
0100
0000
1000
0100
1000
0000
,
0400
0000
4300
0000
3040
0000
0030
0000
1000
0010
1000
0000
0001
0100
0001
0000
,
1000
0100
1000
0000
0001
0010
0001
0000
0010
0000
0100
0000
1000
0000
0001
0000
,
0100
0010
2002
0000
,
0000
0000
3003
0000
,
0000
0000
0000
0000
0000
0000
0000
0000
2000
3001
1000
0001
1000
0001
1000
0001
,
1000
0001
1000
0001
1000
0001
1000
0001
1000
0000
0000
0000
0000
0000
0000
0000
;
