#TITLE:Calling All The Monsters;
#SUBTITLE:;
#ARTIST:China Anne McClain;
#TITLETRANSLIT:;
#SUBTITLETRANSLIT:;
#ARTISTTRANSLIT:;
#GENRE:;
#CREDIT:Evergreen & hdm300;
#MUSIC:Calling-All-The-Monsters-Edit.ogg;
#BANNER:ban.png;
#BACKGROUND:bg.png;
#CDTITLE:;
#SAMPLESTART:101.631;
#SAMPLELENGTH:26.901;
#SELECTABLE:YES;
#OFFSET:-0.023;
#BPMS:0.000=142.000;
#STOPS:110.000=0.423;
#BGCHANGES:;
#FGCHANGES:;

//--------------- dance-single - ----------------
#NOTES:
     dance-single:
     :
     Beginner:
     3:
     0.150238,0.203638,0.02191,0.116851,0,144,141,3,16,0,0,0.150238,0.203638,0.02191,0.116851,0,144,141,3,16,0,0:
0000
0000
0000
0000
,
0000
0000
0000
0000
,
0000
0000
0000
0000
,
0000
0000
0000
0000
,
0000
1000
0000
2000
,
3000
0001
0000
0002
,
0003
1000
0000
2000
,
3000
0010
0000
0020
,
0030
0000
0000
0000
,
1001
0000
0000
0000
,
0110
0000
0000
0000
,
1001
0000
0000
0000
,
1000
0000
0100
0000
,
0001
0000
0100
0000
,
1000
0000
0010
0000
,
1000
0000
0001
0000
,
1000
0000
0000
0001
,
0001
0000
0000
0010
,
0010
0000
0000
0100
,
0100
0000
0000
1000
,
1000
0000
0010
0000
,
0001
0000
0010
0000
,
1000
0000
0100
0000
,
1000
0000
1000
0000
,
0001
0000
0000
0000
,
0010
0000
0000
0000
,
0100
0000
0000
0000
,
1000
0000
0000
0000
,
0001
0001
0000
1000
,
0000
0010
0000
0100
,
0000
0001
0000
0001
,
0000
1000
1000
0000
,
0001
0001
0000
1000
,
0000
0010
0000
0100
,
0000
0001
0000
0001
,
0000
1000
1000
0000
,
0001
0000
0010
0000
,
0100
0000
0100
0000
,
1000
0000
0010
0000
,
0100
0000
0100
0000
,
0001
0001
0000
0010
,
0000
0100
0000
1000
,
0000
1000
0000
0001
,
0000
0001
0000
1000
,
0000
1000
1000
1000
,
0000
0001
0001
0001
,
0000
1000
0000
0001
,
0001
0001
0000
2000
,
0000
0000
3000
0020
,
0000
0000
0030
0100
,
0000
0100
0000
0200
,
0300
0000
0000
0002
,
0000
0000
0003
0020
,
0000
0000
0030
0100
,
0000
0100
0000
0200
,
0000
0300
0000
0000
,
1000
0000
0000
0000
,
0001
0000
0000
0000
,
1000
0000
0000
0000
,
0001
0000
2000
3000
,
0001
0001
0000
1000
,
0000
0100
0000
0002
,
0000
0000
0003
0001
,
0000
0100
0000
1000
,
0000
0001
0000
0100
,
0000
1000
0000
0001
,
0000
0010
0000
0100
,
0000
0001
0000
0000
,
1000
0000
0010
0000
,
0100
0100
0100
0000
,
0001
0000
0010
0000
,
0100
0100
0100
0000
,
1000
0000
0010
0000
,
0001
0000
0010
0000
,
1000
0000
1000
0000
,
0001
0000
0001
0000
,
0010
0000
0020
0030
,
0100
0000
0200
0300
,
1000
0000
2000
3001
,
0000
0000
0000
0001
0000
0000
2000
0000
3000
0000
0000
0000
;

//--------------- dance-single - ----------------
#NOTES:
     dance-single:
     :
     Easy:
     7:
     0.263959,0.320003,0.094942,0.292129,0.043819,253,240,13,40,0,0,0.263959,0.320003,0.094942,0.292129,0.043819,253,240,13,40,0,0:
0000
0000
0000
0000
,
0000
0000
0000
0000
,
0000
0000
0000
0000
,
0000
0000
0000
0000
,
1000
0010
0000
0200
,
0301
0010
0000
0200
,
1300
0010
0000
0200
,
0301
0010
0000
0020
,
0031
1000
0001
0000
,
0110
0001
1000
0000
,
0110
0001
1000
0000
,
0110
1000
1000
0001
,
1000
0100
0001
0000
,
0001
0100
1000
1000
,
0001
0100
1000
0000
,
1000
0100
0001
1000
,
0100
0010
0100
0000
,
1001
0100
0010
0000
,
1001
0100
0010
0000
,
0110
0011
0011
0000
,
1000
0010
0001
0000
,
0001
0010
1000
1000
,
0001
0010
1000
0000
,
1000
0010
0001
0001
,
1000
0000
0010
0000
,
0100
0001
1000
0000
,
0001
0000
0010
0000
,
0100
1000
0001
1000
,
0010
0100
0010
0002
,
0010
0023
0001
0031
,
0010
1000
0000
0001
,
0010
0100
1000
0001
,
0010
0100
0010
2000
,
0010
3020
1000
1030
,
0010
0001
0000
1000
,
0010
0100
0001
1000
,
0200
0000
0000
0000
0000
0001
0000
0000
0000
0010
0000
0000
,
0000
0000
1000
0000
0000
2300
0000
0000
0000
3001
0000
0000
,
0200
0000
0000
0000
0000
1000
0000
0000
0000
0010
0000
0000
,
0000
0000
0001
0000
0000
0302
0000
0000
0000
0003
0000
0000
,
0010
0100
0010
2000
,
0010
3020
1000
1030
,
0010
0001
0001
1000
,
0010
0001
0001
1000
,
0100
0001
0001
1000
,
0100
0001
0001
1000
,
0010
0001
0100
1000
,
0001
0010
1000
0002
,
0000
0000
0000
0023
,
0000
0000
0000
0230
,
0000
1000
0000
2300
,
0000
3002
0000
2003
,
0000
0000
0000
3020
,
0000
0000
0000
0230
,
0000
0001
0000
0302
,
0000
0000
0003
0000
,
1000
0000
1000
0100
,
0010
0000
0010
0001
,
1000
0000
1000
0010
,
0100
0001
2000
3000
,
0110
1000
0100
0002
,
1000
0203
1000
0301
,
0100
1000
1000
0001
,
0100
0010
0010
0000
,
1000
0001
0010
2000
,
0001
3020
0001
1030
,
0010
0001
0001
1000
,
0010
0100
0100
0001
,
0020
0000
0000
0000
0000
0100
0000
0000
0000
0031
0000
0000
,
0000
0000
1001
0000
0000
0220
0000
0000
0000
0330
0000
0000
,
0020
0000
0000
0000
0000
0100
0000
0000
0000
1030
0000
0000
,
0000
0000
1001
0000
0000
0220
0000
0000
0000
0330
0000
0000
,
1000
0001
0100
2000
,
0001
3200
0001
1300
,
0100
0001
0001
1000
,
0100
0001
0001
0100
,
1000
0000
0020
0130
,
0001
0000
0020
0130
,
1000
0000
0020
0130
,
0001
0000
0000
0010
0000
0000
0200
0000
0300
0000
0000
0000
;

//--------------- dance-single - ----------------
#NOTES:
     dance-single:
     :
     Medium:
     11:
     0.492445,0.55331,0.014606,0.496619,0.752231,472,470,2,68,0,0,0.492445,0.55331,0.014606,0.496619,0.752231,472,470,2,68,0,0:
0000
0000
0000
0000
,
0000
0000
0000
0000
,
0000
0000
0000
0000
,
0000
0000
0000
0000
,
1000
0000
0010
0100
0000
0001
0000
0000
0010
0002
0000
0000
,
1003
0000
0010
0100
0000
0001
0000
0000
0010
0200
0000
0000
,
1300
0000
0001
0010
0000
0100
0000
0000
1000
0020
0000
0000
,
0130
0000
0001
1000
0000
0000
0100
0000
1000
0001
0000
0100
,
0002
0000
0000
0023
0000
0000
0230
0000
0000
2300
0000
3000
,
1200
0000
0000
1300
0000
0010
0200
0000
0301
2000
0000
0000
,
3002
0023
0230
2300
,
3002
0000
0000
1003
0000
0010
1000
0000
0010
1000
0000
0001
,
0010
0000
0100
1000
0000
0020
0000
0000
0130
0001
0000
0000
,
1000
0000
0001
0010
0000
0200
0000
0000
1300
0001
0000
0000
,
1000
0000
0010
0100
0000
0002
0000
0000
1003
0001
0000
0000
,
1000
0000
0010
1000
0000
0000
0001
0000
0010
0001
0000
0000
,
2000
0000
0000
3020
0000
0000
0230
0000
0000
0302
0000
0003
,
0201
0000
0000
0301
0000
0010
0200
0000
1300
0002
0000
0000
,
2003
3020
0230
0302
,
2003
0000
0000
3001
0010
0001
0010
0000
0001
1000
0000
1000
,
0010
0000
0100
0001
0000
0020
0000
0000
0130
1000
0000
0000
,
0001
0000
1000
0010
0000
0200
0000
0000
0301
1000
0000
0000
,
0001
0000
0010
0100
0000
2000
0000
0000
3001
1000
0000
0000
,
0001
0000
0010
0001
0000
0000
1000
0000
0010
1000
0000
0001
,
0020
0130
2000
3001
,
0200
0000
0000
0310
0000
0100
0000
0000
0001
1000
0000
1000
,
0020
0130
0002
1003
,
0200
0000
0000
0310
0000
0001
1000
0000
0000
0001
0000
0010
,
0001
0000
0000
1000
0000
0010
1000
0000
0000
0001
0000
0100
,
0001
0000
0000
1000
0000
0100
1000
0000
0000
0001
0000
0010
,
0100
0000
2000
0000
0000
3001
0100
0000
0001
0010
0000
0100
,
1000
0000
0010
0000
0000
0100
0001
1000
0100
1000
0000
0010
,
1000
0000
0000
0001
0000
0010
0001
0000
0000
1000
0000
0100
,
1000
0000
0000
0001
0000
0100
0001
0000
0000
1000
0000
0010
,
0100
0000
0002
0000
0000
1003
0100
0000
1000
0010
0000
0100
,
0001
0000
0010
0000
0000
0100
1000
0001
0100
0001
0000
0000
,
0010
0000
0100
1000
0000
0010
0000
0100
0001
1000
0000
0001
,
0010
0000
0000
0001
0000
1000
0010
0000
1000
0001
0000
0000
,
0100
0000
0010
1000
0000
0100
0000
0010
0001
1000
0000
0001
,
0100
0000
0000
0001
0000
1000
0100
0010
0001
1000
0000
0100
,
1000
0000
0000
0001
0000
0100
0001
0000
0000
1000
0000
0010
,
1000
0000
0000
0001
0000
0010
0001
0000
0000
1000
0000
0100
,
0010
0000
0002
0000
0000
1003
0010
0000
1000
0100
0000
0010
,
0001
0000
2000
0000
0000
3001
0010
0100
1000
0001
0000
1000
,
0010
0000
1000
0200
0000
0000
0310
0000
0001
1000
0000
0001
,
0010
0000
0001
0200
0000
0000
0301
0000
1000
0100
0000
0010
,
0001
0000
1000
0010
0000
0100
0001
0000
1000
0001
0000
0010
,
0100
0000
1000
0002
0000
0000
1003
0000
0000
0002
0000
0000
,
0010
0000
0000
0000
0000
0000
0013
0000
0001
2000
0000
0000
,
0010
0000
0000
0000
0000
0000
3010
0000
1000
0001
0000
0000
,
0010
0000
0001
0100
0000
0000
0010
0000
1000
0200
0000
0000
,
0320
0032
2003
3020
,
0100
0000
0000
0000
0000
0000
0130
0000
0001
0020
0000
0000
,
0100
0000
0000
0000
0000
0000
0130
0000
1000
0000
0000
0010
,
0000
0000
0100
0000
0000
0001
0000
0000
1000
0001
0000
0000
,
0001
0000
0000
1000
0010
1000
0001
0000
0000
0020
0000
0000
,
0130
0000
0000
0000
0000
1000
0001
0000
0000
0200
0000
0000
,
0310
0000
0000
0000
0000
1000
0001
0000
0010
0200
0000
0000
,
1300
0000
0000
0000
0000
1000
0010
0000
0100
0002
0000
0000
,
0023
0000
0000
0230
0000
0000
2300
0000
0000
3000
0000
0010
,
1000
0000
0000
0001
0000
0010
0001
0000
0000
1000
0000
0100
,
1000
0000
0000
0001
0000
0100
0001
0000
0000
1000
0000
0010
,
0100
0000
0002
0000
0000
1003
0100
0000
1000
0010
0000
0100
,
0001
0000
0010
0000
0000
0100
1000
0001
0100
0001
0000
0010
,
0001
0000
0000
1000
0000
0010
1000
0000
0000
0001
0000
0100
,
0001
0000
0000
1000
0000
0100
1000
0000
0000
0001
0000
0010
,
0100
0000
2000
0000
0000
3001
0100
0000
0001
0010
0000
0100
,
1000
0000
0010
0100
0001
0010
0100
1000
0001
1000
0000
0000
,
0010
0000
0100
0001
0000
0010
0000
0100
1000
0001
0000
1000
,
0010
0000
1000
0001
0000
0010
0001
0100
0010
1000
0000
0000
,
0100
0000
0010
0001
0000
0100
0000
0010
1000
0001
0000
1000
,
0100
0000
1000
0001
1000
0100
0010
0001
1000
0001
0000
0100
,
0001
0000
0000
1000
0000
0100
1000
0000
0000
0001
0000
0010
,
0001
0000
0000
1000
0000
0010
1000
0000
0000
0001
0000
0100
,
0010
0000
2000
0000
0000
3001
0010
0100
1000
0001
0000
1000
,
0010
0000
2000
0000
0000
3001
0010
0100
1000
0001
0000
0010
,
0100
0000
1000
0000
0000
0010
2000
0000
0000
3001
0000
0010
,
0100
0000
1000
0000
0000
0010
0200
0000
0000
0301
0000
1000
,
0010
0000
0100
0000
0000
0001
0020
0000
0000
0130
0000
1000
,
0001
0000
0000
0100
0000
0001
1000
0001
1000
0001
0000
0000
;

//--------------- dance-single - ----------------
#NOTES:
     dance-single:
     :
     Hard:
     13:
     0.565477,0.610914,0.043819,0.438193,0.985934,542,536,6,60,0,0,0.565477,0.610914,0.043819,0.438193,0.985934,542,536,6,60,0,0:
0000
0000
0000
0000
,
0000
0000
0000
0000
,
0000
0000
0000
0000
,
0000
0000
0000
0000
,
2000
0000
3100
0010
0000
0100
0000
0000
1000
0001
0100
0001
,
2000
0000
3010
0100
0000
0010
0000
0000
1000
0001
1000
0100
,
0020
0000
0130
0001
0000
0100
0000
0000
1000
0010
0100
0001
,
1000
0000
0001
0010
0000
0100
1000
0000
0010
0100
0001
1000
,
0002
0000
0000
0023
0000
0000
0230
0000
0000
2300
0000
3000
,
2002
0000
3003
0002
0000
0103
0002
0000
1003
0200
0000
0300
,
0220
0000
0330
0020
0000
0000
0032
0000
1003
0020
0000
0030
,
0220
0000
0330
0100
0000
0001
1000
0000
0100
0010
0000
0001
,
1000
0000
0010
0100
0000
0002
0000
0000
1003
0100
0010
0100
,
1000
0000
0100
0010
0000
0002
0000
0000
1003
0010
0100
0010
,
1000
0000
0001
0010
0000
0200
0000
0000
1300
0001
1000
0001
,
1000
0000
0010
0100
0000
0001
0010
0000
0100
1000
0000
0001
,
2000
0000
0000
3020
0000
0000
0230
0000
0000
0302
0000
0003
,
2002
0000
3003
2000
0000
3100
2000
0000
3001
0200
0000
0300
,
0220
0000
0000
0000
0330
0000
0020
0000
0000
0000
0000
0000
2030
0000
0000
0000
0000
0000
3002
0000
0000
0003
0000
0000
,
0022
0000
0033
0010
0001
0010
0001
0000
0100
0001
0000
1000
,
0001
0000
0010
0100
0000
2000
0000
0000
3001
0100
0010
0100
,
0001
0000
0010
0100
0000
2000
0000
0000
3001
0010
0100
0010
,
0001
0000
1000
0010
0000
0200
0000
0000
0301
1000
0001
1000
,
0001
0000
0010
0100
0000
1000
0010
0000
0100
0001
0000
1000
,
0001
0000
0000
0001
0000
0000
0010
0000
0000
0010
0000
0100
,
1000
1000
0010
0010
,
0100
0000
0000
0100
0000
0000
0001
0000
0000
0001
0000
0010
,
0100
0000
0000
0100
0000
0000
2000
0000
0000
3010
0000
0100
,
0001
0000
0000
0010
0000
0100
1000
0000
0001
1000
0000
0010
,
0100
0000
0000
0001
0000
0010
0100
0000
1000
0001
0000
0010
,
0100
0000
0001
0000
0000
0100
1000
0000
0001
1000
0000
0010
,
0100
0000
0010
0000
0000
1000
0100
0010
0001
1000
0000
0001
,
0010
0000
0000
0001
0000
1000
0010
0000
0100
0010
0000
1000
,
0100
0000
0000
0010
0000
0001
0100
0000
0001
1000
0000
0010
,
0100
0000
1000
0000
0000
0100
0001
0000
1000
0001
0000
0010
,
0100
0000
1000
0001
0010
0001
1000
0010
1000
0001
0000
0100
,
0010
0000
1000
0000
0000
0100
1000
0001
0010
0001
0000
0100
,
0000
0010
1000
0001
0100
0001
1000
0100
1000
0001
0000
0010
,
0100
0000
1000
0000
0000
0010
0100
0001
1000
0100
0000
1000
,
0010
0000
0100
0001
0000
0010
0001
1000
0001
1000
0000
0001
,
0100
0000
0000
0001
0000
1000
0100
0000
0010
0100
0000
1000
,
0010
0000
0000
0100
0000
0001
0010
0000
0001
1000
0000
0100
,
0010
0000
1000
0000
0000
0010
0001
0000
1000
0010
0000
0100
,
1000
0000
0100
0001
0010
0001
1000
0010
1000
0002
0000
0103
,
0001
0000
0010
0100
0000
1000
0001
1000
0001
2000
0000
3010
,
0100
0000
0010
1000
0000
0001
1000
0001
1000
0002
0000
0013
,
0100
0000
1000
0010
0000
0100
0001
0000
0010
0100
0000
1000
,
0001
0000
1000
0020
0000
0000
1030
0100
0010
0002
0000
0000
,
0100
0000
0000
0010
0000
0000
0013
0000
0100
2000
0000
0000
,
0100
0000
0000
0010
0000
0000
3010
0000
0100
0001
0000
0000
,
1000
0000
0100
0010
0000
0000
0100
0000
0010
0001
0000
0000
,
1000
0000
0000
0010
0000
0100
0001
0000
0000
2000
0000
0000
,
0100
0000
0000
0010
0000
0000
3010
0000
0100
0002
0000
0000
,
0100
0000
0000
0000
0000
0000
0010
0003
0000
0000
0001
0000
0010
0000
0000
0000
0100
0000
0000
0000
0000
0000
1000
0000
,
0000
0000
0010
0000
0000
0100
0000
0000
0001
1000
0000
0000
,
1000
0000
0000
0100
0000
0000
0010
0000
0001
2000
0000
0000
,
3001
0000
0000
0000
0000
1000
0000
0010
0000
0200
0000
0000
,
0301
0000
0000
0000
0000
0001
0000
0010
0000
0200
0000
0000
,
1300
0000
0000
0000
0000
0010
0000
0100
0000
0002
0000
0000
,
0023
0000
0000
0230
0000
0000
2300
0000
0000
3000
0000
0100
,
1000
0000
0000
0010
0000
0100
0001
0000
1000
0001
0000
0010
,
0100
0000
0000
1000
0000
0010
0100
0000
0001
1000
0000
0010
,
0100
0000
1000
0000
0000
0100
0001
1000
0100
0010
0000
0001
,
0010
0000
0100
0000
0000
1000
0010
0100
0001
1000
0000
0001
,
0010
0000
0000
0001
0000
1000
0010
0000
0100
0010
0000
1000
,
0100
0000
0000
0010
0000
0001
0100
0000
0010
1000
0000
0100
,
0001
0000
0100
0000
0000
1000
0001
0000
1000
0001
0010
0001
,
1000
0010
1000
0001
0100
0001
1000
0100
1000
0001
0000
0100
,
0010
0000
1000
0000
0000
0100
1000
0001
0010
0001
0000
0100
,
0000
0010
1000
0001
0100
0001
1000
0100
1000
0001
0000
0010
,
0100
0000
1000
0000
0000
0010
0100
0001
1000
0100
0000
1000
,
0010
0000
0100
0001
0000
0010
0001
1000
0001
1000
0000
0001
,
0100
0000
0000
0001
0000
1000
0100
0000
0010
0100
0000
1000
,
0010
0000
0000
0100
0000
0001
0010
0000
0001
1000
0000
0010
,
0001
0000
0010
0000
0000
1000
0001
0000
1000
0100
0000
0001
,
0100
0000
1000
0001
0010
0001
1000
0010
1000
0002
0000
0013
,
0100
0000
0010
0000
0000
0001
1000
0010
1000
0002
0000
0103
,
0010
0000
0100
0000
0000
0001
1000
0001
0010
0200
0000
0310
,
1000
0000
0010
0000
0000
0001
0100
0010
1000
0001
0000
1000
,
0100
0000
0010
0001
0000
0100
0010
1000
0001
0000
0000
0000
;

//--------------- dance-single - ----------------
#NOTES:
     dance-single:
     :
     Challenge:
     14:
     0.590517,0.610914,0.043819,0.394374,1.066269,566,560,6,54,0,0,0.590517,0.610914,0.043819,0.394374,1.066269,566,560,6,54,0,0:
0000
0000
0000
0000
,
0000
0000
0000
0000
,
0000
0000
0000
0000
,
0000
0000
0000
0000
,
2000
0000
3010
0100
0000
0001
0000
0000
1000
0100
0010
1000
,
0020
0000
0130
1000
0000
0001
0000
0000
1000
0010
0100
1000
,
0200
0000
0310
1000
0000
0001
0000
0000
0010
0100
0001
0100
,
0020
0000
0130
1000
0000
0010
0100
0000
1000
0100
0010
1000
,
0002
0000
0000
0023
0000
0000
0032
0000
0000
2003
0000
3000
,
1020
0000
0000
0230
0000
0301
0200
0000
0301
0020
0000
0030
,
0012
0000
0000
0023
0000
0000
0230
0000
1300
0020
0000
0030
,
0210
0000
0000
0301
0000
0100
0001
0000
0010
0100
0000
0010
,
0001
0000
0100
0010
0000
0002
0000
0000
0013
0100
0001
1000
,
0100
0000
0010
0100
0000
0002
0000
0000
0103
0010
0001
1000
,
0010
0000
0100
1000
0000
0002
0000
0000
1003
0100
0010
1000
,
0001
0000
0010
0100
0000
0001
0100
0000
0010
0001
1000
0010
,
0200
0000
0302
0000
0023
0000
0032
0003
,
0021
0000
0000
0230
0000
1300
0200
0000
1300
0020
0000
0030
,
2010
0000
0000
3020
0000
0000
0230
0000
0000
0302
0000
0003
,
0201
0000
0000
0310
1000
0010
1000
0000
0010
0100
0000
0010
,
1000
0000
0100
0010
0000
2000
0000
0000
3010
0100
1000
0001
,
0100
0000
0010
0100
0000
2000
0000
0000
3100
0010
1000
0001
,
0010
0000
0100
0001
0000
2000
0000
0000
3001
0100
0010
0001
,
1000
0000
0010
0100
0000
1000
0100
0000
0010
1000
0000
1000
,
0001
0000
0000
0001
0000
0000
0010
0000
0000
0010
0000
0100
,
1000
0000
0000
1000
0000
0000
0010
0000
0000
0010
0000
0100
,
0001
0000
0000
0001
0000
0000
1000
0000
0000
1000
0000
0100
,
0010
0000
0000
0010
0000
0000
0001
0000
0000
1000
0000
0010
,
0100
0000
0000
0100
0000
0001
1000
0000
1000
0100
0000
0010
,
0100
0000
0010
1000
0000
0010
0100
0000
1000
0001
0000
0100
,
0010
0000
0001
0000
0000
0010
0100
0001
1000
0001
0000
0010
,
0100
0000
1000
0000
0000
0001
1000
0010
0100
0001
0000
0010
,
0100
0000
0000
0100
0000
1000
0001
0000
0001
0100
0000
0010
,
0100
0000
0010
0001
0000
0010
0100
0000
0001
1000
0000
0100
,
0010
0000
1000
0000
0000
0010
0100
1000
0001
0100
0000
0001
,
1000
0000
0001
0100
0010
1000
0001
0010
0100
1000
0000
0010
,
0100
0000
0010
0000
0000
0100
0010
1000
0100
0010
0000
0001
,
0000
1000
0010
0100
1000
0100
0010
0100
0001
1000
0000
0100
,
0010
0000
0100
0000
0000
0010
0100
1000
0010
0100
0000
0001
,
0000
1000
0100
0010
1000
0010
0100
1000
0010
0100
0000
0001
,
1000
0000
0000
0100
0000
1000
0001
0000
0010
0100
0000
0001
,
0100
0000
0010
0001
0000
0100
0010
0000
1000
0001
0000
0010
,
0100
0000
1000
0000
0000
0001
0100
0010
0001
0010
0000
1000
,
0001
0000
0010
0100
1000
0001
0100
0010
1000
0002
0000
0013
,
0100
0000
1000
0001
0000
0100
0010
0001
0010
2000
0000
3010
,
0100
0000
0001
1000
0000
0100
0010
1000
0010
0200
0000
1300
,
0010
0000
0100
1000
0000
0100
0010
0000
0100
0001
0000
0010
,
0100
0000
0001
0200
0000
0310
0001
1000
0001
2000
0000
0000
,
0100
0000
0000
0010
0000
0000
3010
0000
0100
0002
0000
0000
,
0100
0000
0000
0010
0000
0000
0013
0000
0100
1000
0000
0000
,
0001
0000
0100
0010
0000
0000
0100
0000
0010
1000
0000
0000
,
0001
0000
0000
0010
0000
0100
1000
0000
0000
0002
0000
0000
,
0100
0000
0000
0010
0000
0000
0013
0000
0100
2000
0000
0000
,
0100
0000
0000
0000
0000
0000
0010
3000
0000
0000
1000
0000
0010
0000
0000
0000
0100
0000
0000
0000
0000
0000
0001
0000
,
0000
0000
0010
0000
0000
0100
0000
0000
1000
0001
0000
0000
,
0001
0000
0000
0200
0000
0000
0310
0000
1000
0002
0000
0000
,
1003
0000
0000
0000
0000
1000
0100
0010
0001
2000
0000
0000
,
3001
0000
0000
0000
0000
0001
0100
0010
1000
0002
0000
0000
,
1003
0000
0000
0000
0000
0001
1000
0100
0010
0002
0000
0000
,
0023
0000
0000
0130
0000
0100
2000
0000
0000
3000
0000
0001
,
1000
0000
0000
0100
0000
1000
0001
0000
0001
0100
0000
0010
,
0100
0000
0010
0001
0000
0010
0100
0000
0001
1000
0000
0100
,
0010
0000
1000
0000
0000
0010
0100
1000
0001
0100
0000
0010
,
0100
0000
0001
0000
0000
1000
0001
0010
0100
1000
0000
0010
,
0100
0000
0000
0100
0000
0001
1000
0000
1000
0100
0000
0010
,
0100
0000
0010
1000
0000
0010
0100
0000
1000
0001
0000
0100
,
0010
0000
0001
0000
0000
0010
0100
0001
1000
0100
0010
0001
,
1000
0010
0100
0001
0010
0001
1000
0010
1000
0001
0000
0010
,
0100
0000
0010
0000
0000
0100
0010
0001
0100
0010
0000
1000
,
0000
0001
0010
0100
0001
1000
0010
0001
1000
0001
0000
0100
,
0010
0000
0100
0000
0000
0010
0100
0001
0010
0100
0000
1000
,
0001
1000
0010
0100
1000
0001
0010
1000
0001
0010
0000
0100
,
1000
0000
0000
0010
0000
0100
0001
0000
0010
0100
0000
1000
,
0010
0000
0100
1000
0000
0100
0010
0000
1000
0001
0000
0010
,
0100
0000
0001
0000
0000
1000
0010
0001
1000
0010
0000
0001
,
0010
0000
0100
0001
0010
0100
1000
0010
0100
0002
0000
0013
,
0100
0000
1000
0000
0000
0001
0100
0010
0001
0020
0000
0130
,
0001
0000
1000
0000
0000
0001
0010
0100
0001
0200
0000
0310
,
0001
0000
1000
0000
0000
0010
0100
1000
0100
0010
0000
1000
,
0100
0000
0001
0100
0000
0010
0001
0100
0010
0000
0000
0000
;

//--------------- dance-double - ----------------
#NOTES:
     dance-double:
     :
     Challenge:
     14:
     0.513312,0.581214,0.029213,0.211793,0.890992,492,488,4,29,0,0,0.513312,0.581214,0.029213,0.211793,0.890992,492,488,4,29,0,0:
00000000
00000000
00000000
00000000
,
00000000
00000000
00000000
00000000
,
00000000
00000000
00000000
00000000
,
00000000
00000000
00000000
00000000
,
10000000
00000000
01000000
00100000
00000000
00010000
00000000
00000000
00010000
01000000
00100000
00010000
,
00001000
00000000
00000010
00000100
00000000
00001000
00000000
00000000
00000010
00000100
00000000
00000000
,
00000001
00000000
00000010
00000100
00000000
00001000
00000000
00000000
00001000
00000010
00000100
00001000
,
00010000
00000000
00100000
00010000
00000000
00010000
00001000
00000000
00000010
00002000
00000000
00000000
,
00023000
00230000
00320000
00031000
,
00000110
00000000
00000000
00001000
00000000
00000010
00000100
00000000
00001000
00010000
00000000
00000000
,
01100000
00000000
00000000
00020000
00000000
00000000
10030000
00000000
01000000
00100000
00000000
00000000
,
00011000
00000000
00000000
00001000
00000000
00010000
00001000
00000000
00010000
00001000
00000000
00001000
,
00000100
00000000
00000000
00000001
00000000
00000010
00000000
00000000
00000001
00000100
00001000
00010000
,
00100000
00000000
00000000
01000000
00000000
00010000
00000000
00000000
00010000
00100000
00000000
00000000
,
01000000
00000000
00000000
10000000
00000000
00100000
00000000
00000000
10000000
01000000
00010000
00001000
,
00010000
00000000
00100000
00010000
00000000
00010000
00001000
00000000
00000010
00001000
00000000
00000000
,
00020000
02030000
23000000
30200000
,
00320000
00000000
00000000
00031000
00000000
00000100
00000010
00000000
00001000
00000200
00000000
00000000
,
00000320
00002030
00023000
02030000
,
23000000
00000000
00000000
30100000
00100000
10000000
00010000
00000000
00100000
01000000
00000000
10000000
,
00100000
00000000
00000000
10000000
00000000
01000000
00000000
00000000
10000000
00100000
00010000
00001000
,
00000100
00000000
00000000
00000010
00000000
00001000
00000000
00000000
00001000
00000100
00000000
00000000
,
00000010
00000000
00000000
00000001
00000000
00000100
00000000
00000000
00000001
00000010
00001000
00010000
,
00001000
00000000
00000010
00001000
00000000
00001000
00010000
00000000
00100000
00010000
00000000
00010000
,
00001000
00000000
00000000
00001000
00000000
00000000
00000010
00000000
00000000
00000010
00000000
00000100
,
00001000
00001000
00000001
00000001
,
00000100
00000000
00000000
00000100
00000000
00000000
00001000
00000000
00000000
00001000
00000000
00010000
,
00001000
00000000
00000000
00000100
00000000
00000000
00000001
00000000
00000000
00001000
00000000
00000100
,
00000010
00000000
00000100
00001000
00000000
00000010
00000100
00000000
00001000
00000000
00000000
00001000
,
00010000
00000000
00100000
00000000
00000000
00100000
10000000
00000000
00010000
00000000
00000000
10000000
,
01000000
00000000
00100000
00000000
00000000
00100000
00000000
00000000
01000000
10000000
00000000
00100000
,
01000000
00000000
10000000
00000000
00000000
10000000
00000000
00000000
01000000
00010000
00000000
00100000
,
01000000
00000000
00100000
00010000
00000000
01000000
00100000
00000000
00010000
00000000
00000000
00010000
,
00001000
00000000
00000100
00000000
00000000
00000100
00000001
00000000
00001000
00000000
00000000
00000001
,
00000010
00000000
00000100
00000000
00000000
00000100
00000000
00000000
00000010
00000001
00000000
00000100
,
00000010
00000000
00000001
00000000
00000000
00000001
00000000
00000000
00000010
00000100
00000000
00000001
,
00000010
00000000
00000100
00000000
00000000
00000100
00010000
00001000
00000100
00000010
00000000
00001000
,
00000000
00000001
00000010
00001000
00010000
00001000
00000100
00001000
00010000
00100000
00000000
10000000
,
01000000
00000000
00100000
00000000
00000000
00100000
00001000
00010000
00100000
01000000
00000000
00010000
,
00100000
00000000
01000000
10000000
00000000
00100000
00000000
00000000
01000000
00010000
00000000
00100000
,
01000000
00000000
00100000
00010000
00000000
01000000
00100000
00000000
00010000
00000000
00000000
00010000
,
00001000
00000000
00000100
00000000
00000000
00000100
00000001
00000000
00001000
00000100
00000000
00000010
,
00000001
00000000
00000100
00000000
00000000
00000100
00001000
00010000
00100000
01000000
00000000
00010000
,
00100000
00000000
01000000
00100000
00010000
01000000
00100000
00010000
00001000
00010000
00000000
01000000
,
10000000
00000000
00100000
00010000
00000000
00010000
00001000
00000100
00000000
00001000
00000000
00000100
,
00000001
00000000
00000010
00001000
00000000
00001000
00010000
01000000
00010000
00001000
00000000
00001000
,
00000100
00000000
00001000
00010000
00000000
00010000
01000000
00000000
00010000
00001000
00000000
00001000
,
00000100
00000000
00001000
00010000
00000000
00000000
01000000
00000000
00000000
20000000
00000000
00000000
,
00100000
00000000
00000000
00100000
00000000
00000000
30100000
00000000
01000000
00020000
00000000
00000000
,
00100000
00000000
00000000
00100000
00000000
00000000
00130000
00000000
01000000
20000000
00000000
00000000
,
30100000
00200000
00310000
00020000
,
00031000
00000100
00000100
00000002
,
00000010
00000000
00000000
00000010
00000000
00000000
00000013
00000000
00000100
00002000
00000000
00000000
,
00000010
00000000
00000000
00000010
00000000
00000000
00003010
00000000
00000100
00000002
00000000
00000000
,
00000013
00000020
00001030
00002000
,
00013000
01000000
01000000
10000000
,
10000000
00000000
00000000
00000000
00000000
10000000
01000000
00100000
00000000
00100000
00000000
00000000
,
00100000
00000000
00000000
00000000
00000000
00100000
00001000
00010000
00000000
00010000
00000000
00000000
,
00010000
00000000
00000000
00000000
00000000
00010000
00000100
00001000
00000000
00002000
00000000
00000000
,
00003002
00000000
00000000
00000203
00000000
00000010
00000000
00000000
00000000
00000300
00000000
00000001
,
00000011
00000000
00000100
00001000
00000000
00000010
00000100
00000000
00001000
00000000
00000000
00001000
,
00010000
00000000
00100000
00000000
00000000
00100000
10000000
00000000
00010000
00000000
00000000
10000000
,
01000000
00000000
00100000
00000000
00000000
00100000
00000000
00000000
01000000
10000000
00000000
00100000
,
01000000
00000000
10000000
00000000
00000000
10000000
00000000
00000000
01000000
00010000
00000000
00100000
,
01000000
00000000
00100000
00010000
00000000
01000000
00100000
00000000
00010000
00000000
00000000
00010000
,
00001000
00000000
00000100
00000000
00000000
00000100
00000001
00000000
00001000
00000000
00000000
00000001
,
00000010
00000000
00000100
00000000
00000000
00000100
00000000
00000000
00000010
00000001
00000000
00000100
,
00000010
00000000
00000001
00000000
00000000
00000001
00000000
00000000
00000010
00000100
00000000
00000001
,
00000010
00000000
00000100
00000000
00000000
00000100
00010000
00001000
00000100
00000010
00000000
00001000
,
00000000
00000001
00000010
00001000
00010000
00001000
00000100
00001000
00010000
00100000
00000000
10000000
,
01000000
00000000
00100000
00000000
00000000
00100000
00001000
00010000
00100000
01000000
00000000
00010000
,
00100000
00000000
01000000
10000000
00000000
00100000
00000000
00000000
01000000
00010000
00000000
00100000
,
01000000
00000000
00100000
00010000
00000000
01000000
00100000
00000000
00010000
00000000
00000000
00010000
,
00001000
00000000
00000100
00000000
00000000
00000100
00000001
00000000
00001000
00000100
00000000
00000010
,
00000001
00000000
00000100
00000000
00000000
00000100
00001000
00010000
00100000
01000000
00000000
00010000
,
00100000
00000000
01000000
00100000
00010000
01000000
00100000
00010000
00001000
00010000
00000000
01000000
,
00100000
00000000
00010000
00000000
00000000
00010000
01000000
00100000
00010000
00001000
00000000
00000010
,
00000100
00000000
00001000
00000000
00000000
00000010
00000100
00000000
00000000
00000001
00000000
00000010
,
00000100
00000000
00001000
00000000
00000000
00001000
00000010
00000100
00001000
00010000
00000000
00001000
,
00000100
00000000
00000001
00000010
00000000
00000100
00010000
00001000
00000000
00000000
00000000
00000000
;
