#VERSION:0.83;
#TITLE:撲殺天使ドクロちゃん(HAMA remix);
#SUBTITLE:;
#ARTIST:千葉紗子;
#TITLETRANSLIT:Bokusatsu tenshi Dokuro-chan (HAMA remix);
#SUBTITLETRANSLIT:;
#ARTISTTRANSLIT:Saeko Chiba;
#GENRE:Denpa;
#CREDIT:;
#MUSIC:Bokusatsu tenshi Dokuro-chan (HAMA remix).ogg;
#BANNER:Bokusatsu tenshi Dokuro-chan (HAMA remix).png;
#BACKGROUND:Bokusatsu tenshi Dokuro-chan (HAMA remix)-bg.png;
#CDTITLE:;
#SAMPLESTART:40.933;
#SAMPLELENGTH:15.000;
#SELECTABLE:YES;
#OFFSET:1.412;
#BPMS:0.000=170.000;
#STOPS:226.500=0.353
,229.500=0.353
;
#TIMESIGNATURES:0.000=4=4;
#BGCHANGES:3.375=Bokusatsu tenshi Dokuro-chan (HAMA remix).mp4=1.000=1=0=0=StretchNoLoop==CrossFade==;
#FGCHANGES:;

//--------------- dance-single - extra ----------------
#NOTEDATA:;
#STEPSTYPE:dance-single;
#DESCRIPTION:extra;
#DIFFICULTY:Beginner;
#METER:3;
#RADARVALUES:0,0,0,0,0;
#CREDIT:extra;
#NOTES:
0000
0000
0000
0000
,
0000
0000
0000
0000
,
0000
0000
0000
0000
,
0000
0000
0000
0000
,
0000
0000
0000
0000
,
1001
0000
0000
0000
,
1000
0000
0000
0000
,
1000
0000
1000
0000
,
0001
0000
0000
0000
,
0001
0000
0001
0000
,
0100
0000
0000
0000
,
0010
0000
0000
0000
,
1000
0000
0000
0000
,
0001
0000
0000
0000
,
1000
0000
0000
0000
,
1000
0000
1000
0000
,
0100
0000
0000
0000
,
0100
0000
0100
0000
,
0010
0000
0000
0000
,
0001
0000
0000
0000
,
0100
0000
0000
0000
,
1001
0000
0000
0000
,
1000
0000
0000
0000
,
0000
0000
0000
0000
,
0100
0000
0000
0000
,
0100
0000
0000
0000
,
1000
0000
0000
0000
,
0001
0000
0000
0000
,
0100
0000
0000
0000
,
1001
0000
0000
0000
,
1000
0000
0000
0000
,
0010
0000
0000
0000
,
0100
0000
0100
0000
,
0100
0000
0000
0000
,
0001
0000
0000
0000
,
1000
0000
0000
0000
,
0100
0000
0100
0000
,
0100
0000
0000
0000
,
1000
0000
0000
0000
,
0001
0000
0000
0000
,
0100
0000
0000
0000
,
0010
0000
0000
0000
,
1000
0000
0000
0000
,
0001
0000
0001
0000
,
0001
0000
0000
0000
,
1000
0000
0000
0000
,
1001
0000
0000
0000
,
0000
0000
0000
0000
,
1000
0000
0000
0000
,
0000
0000
0000
0000
,
0001
0000
0000
0000
,
0000
0000
0000
0000
,
0100
0000
0000
0000
,
0100
0000
0000
0000
,
0100
0000
0100
0000
,
0100
0000
0000
0000
,
0010
0000
0000
0000
,
0000
0000
0000
0000
,
0000
0000
0100
0000
,
0000
0000
0000
0000
,
0000
0000
0001
0000
,
0000
0000
1000
0000
,
0000
0000
0100
0000
,
0100
0000
0100
0000
,
0000
0000
1000
0000
,
0000
0000
0001
0000
,
0000
0000
0100
0000
,
0100
0000
0100
0000
,
0000
0000
0010
0000
,
0000
0000
1000
0000
,
0000
0000
0001
0000
,
0000
0000
1000
0000
,
0000
0000
0100
0000
,
0000
0000
0010
0000
,
0010
0000
0010
0000
,
0000
0000
0001
0000
,
0000
0000
0100
0000
,
0000
0000
0010
0000
,
0000
0000
1000
0000
,
0000
0000
0001
0001
,
0001
1001
0000
0000
;

//--------------- dance-single - kay ----------------
#NOTEDATA:;
#STEPSTYPE:dance-single;
#DESCRIPTION:kay;
#DIFFICULTY:Easy;
#METER:8;
#RADARVALUES:0,0,0,0,0;
#CREDIT:kay;
#NOTES:
0000
0000
0000
0000
,
0000
0000
0000
0000
,
0000
0000
0000
0000
,
0000
0000
0000
0000
,
1000
0000
1000
0000
1000
0000
0000
0001
,
0000
0001
0000
0002
0000
0000
0003
0000
,
1000
0001
1000
0100
,
0010
0010
0010
0000
,
0001
1000
0001
0100
,
0010
0010
0010
0000
,
1000
0100
0001
0100
,
1000
0000
1000
0000
,
0001
0100
1000
0100
,
0001
0000
0001
0000
,
1000
0100
0010
0001
,
0100
0100
0100
0000
,
0001
0100
0010
1000
,
0100
0100
0100
0000
,
1000
0010
0001
0010
,
1000
0000
1000
0000
,
0001
0010
1000
0010
,
0001
1000
0010
0100
,
0002
0000
0000
0000
,
0023
0000
0230
0000
,
2300
0000
0000
0000
,
0002
0000
3003
0000
,
2000
0000
3020
0000
,
0230
0000
0000
0002
0000
0000
0303
0000
,
0001
0001
0010
0010
,
0200
0000
0000
2000
0000
0000
3300
0000
,
1000
0010
0001
0010
,
1000
0001
0010
0100
,
1000
1000
0001
0001
,
0100
0010
1000
0000
,
0001
0010
1000
0010
,
0001
1000
0010
0100
,
0001
0001
1000
1000
,
0100
0010
0001
0000
,
0100
0100
0010
0010
,
1000
0100
0001
0000
,
0100
0100
0010
0010
,
0001
0100
1000
0000
,
0200
0000
0000
0000
0310
0000
0000
1000
,
0000
1000
0001
0000
0010
0000
0100
0000
,
2000
0000
3020
0000
,
0230
0000
0302
0000
,
0013
0100
2000
0000
,
0002
0000
0000
0000
0000
3003
0000
0000
,
1000
0000
0010
0000
,
0100
0000
0001
0000
,
0010
0000
0100
0000
,
1000
1000
1000
0000
,
0001
0000
0100
0000
,
0010
0000
1000
0000
,
0100
0000
0010
0000
,
0001
0001
0001
0000
,
1000
0010
2000
3001
,
0010
0002
1003
0010
,
0100
0001
0020
0000
,
0000
0000
0031
0000
,
0100
0010
1000
0100
,
0001
0100
1000
0010
,
0001
0010
0100
0100
,
0001
0001
0010
0100
,
1000
0000
0001
0100
,
1000
0100
0001
0010
,
1000
0010
0100
0100
,
1000
1000
0010
0100
,
0001
0000
1000
0100
,
0001
0100
1000
1000
,
1000
0000
0001
0100
,
1000
0100
0001
0001
,
0001
0000
0020
0000
,
0130
0000
0000
1000
0000
1000
0001
0000
,
0100
0010
1000
1000
,
0001
0001
0010
1000
,
0001
0100
1000
1000
,
0001
0001
0100
1000
,
0001
0010
2000
0000
,
0000
0000
3000
0000
0001
1000
0001
1000
,
0000
1001
0000
0000
;

//--------------- dance-single - kayxtrawr ----------------
#NOTEDATA:;
#STEPSTYPE:dance-single;
#DESCRIPTION:kayxtrawr;
#DIFFICULTY:Medium;
#METER:12;
#RADARVALUES:0,0,0,0,0;
#CREDIT:kayxtrawr;
#NOTES:
0000
0000
0000
0000
,
0000
0000
0000
0000
,
0000
0000
0000
0000
,
0000
0000
0000
0000
,
1000
0010
1000
0010
0100
0001
0000
0101
,
0000
1001
0000
0011
0000
0010
0200
0000
,
1300
0001
0100
0001
0100
0001
0100
0001
,
1000
0100
1000
0002
0000
0100
0103
0000
,
0001
1000
0010
1000
0010
1000
0010
1000
,
0001
0010
0001
2000
0000
0010
3010
0000
,
2001
0000
3200
0000
0320
0000
0031
0100
,
0000
0010
1000
0000
0100
0000
0110
0000
,
1002
0010
2003
0010
,
3001
0011
0110
1100
,
1000
0001
0100
0001
1000
0001
0100
0001
,
1000
0010
0100
0002
0000
0010
0013
0000
,
0001
1000
0010
1000
0001
1000
0010
1000
,
0001
0100
0010
2000
0000
0100
3100
0000
,
1002
0000
0203
0000
0320
0000
1030
0001
,
1000
0001
0000
0010
0100
0000
0110
0000
,
2000
0100
0100
0000
3002
0100
0100
0000
,
1003
1100
0110
0011
,
1002
0000
0000
1000
,
2003
3020
0230
0301
,
2001
0000
0000
0200
0000
0000
3300
0000
,
1002
0000
0000
0200
0000
0000
0303
0000
,
0002
0010
2003
0010
,
3001
0010
0100
2000
0000
0001
3001
0000
,
2001
3100
1002
0103
,
0110
0110
0000
1001
0000
0010
0100
0000
,
2001
3200
0302
0203
,
1300
0001
0000
0201
0000
0010
0310
0000
,
1000
0100
0010
0100
1000
1000
0001
0001
,
0100
0010
1000
0200
0000
0010
0310
0000
,
1002
0203
2300
3200
,
0301
1000
0000
1200
0000
0010
0310
0000
,
0010
0001
1000
0000
0001
0001
1000
1000
,
0100
0010
0001
0100
0010
0000
1001
0000
,
1000
0100
0010
0100
1000
0010
0100
0010
,
1000
0001
0000
0021
0000
0130
1000
0000
,
0001
0100
0010
0100
0001
0010
0100
0010
,
0001
1000
0000
1020
0000
0130
0001
0000
,
2000
0000
3100
0010
0100
0001
0000
0201
,
0000
0010
0310
0001
1000
0010
0100
0001
,
1000
2200
3300
0000
0001
0202
0303
0000
,
1000
2020
3030
0000
0001
0022
0033
0000
,
0001
0100
1000
0100
0001
2000
0000
0000
,
0002
0000
3003
0000
,
1000
1000
1010
0000
,
0001
0001
0011
0000
,
1000
1000
1100
0000
,
0001
0100
1000
0100
0001
0100
1000
0100
,
0001
0001
0101
0000
,
1000
1000
1100
0000
,
0001
0001
0011
0000
,
1000
0100
0001
1000
0010
0001
1000
0000
,
0001
0000
0100
0000
0001
0000
0100
0000
0001
0000
0200
0300
0010
0000
1000
0000
,
0010
0000
1000
0000
0010
0000
2000
3000
0001
0000
0010
0000
0001
0000
0010
0000
,
0100
1000
0001
0100
0220
0000
0000
0000
,
0000
0330
0001
1000
,
0100
0010
0001
0000
2001
0000
3020
0000
,
0032
0000
0023
0000
1030
0001
0000
0021
,
0000
0100
0130
0000
1010
0000
1000
0010
,
1000
1000
0001
0001
0010
0100
1000
0020
,
0000
0100
0130
0000
1002
0000
0023
0000
,
2030
0000
3020
0000
0031
1000
0000
1020
,
0000
0100
0130
0000
0100
0001
1000
1000
,
0100
0100
0010
0010
0001
1000
0010
0100
,
0001
0000
1001
0000
1000
0200
0000
0000
,
0000
0301
0100
1000
0001
0100
0000
0201
,
0000
0310
1000
0000
0001
0200
0000
0000
,
0000
1300
0100
0001
1000
0100
0000
1200
,
0000
0310
0001
0000
2000
0000
3010
0100
,
0010
0001
0000
0021
0000
0100
0130
0001
,
1000
0100
0010
0001
2000
0000
3200
0000
,
0302
0000
0203
0000
1300
0001
0100
0010
,
0000
1000
0100
0000
2000
0000
3020
0000
,
0032
0000
0023
0000
1030
0001
0010
0200
,
0000
0310
0100
0000
1000
0001
0100
0001
,
1000
0001
0010
0001
1000
0010
0100
0002
,
0000
1003
1001
0000
0000
0000
0000
0000
;

//--------------- dance-single - kayxtrawr ----------------
#NOTEDATA:;
#STEPSTYPE:dance-single;
#DESCRIPTION:kayxtrawr;
#DIFFICULTY:Hard;
#METER:15;
#RADARVALUES:0,0,0,0,0;
#CREDIT:kayxtrawr;
#NOTES:
0000
0000
0000
0000
,
0000
0000
0000
0000
,
0000
0000
0000
0000
,
0000
0000
0000
0000
,
0001
0001
0100
0100
0010
1000
0000
1010
,
0000
0000
1001
0000
0000
0000
2100
0000
0000
0000
3100
1000
0001
0000
0000
0000
,
1000
0001
0001
0100
0010
0100
0001
0100
,
0010
0010
0100
0002
0000
0103
0010
1000
,
0001
1000
1000
0100
0010
0100
1000
0100
,
0010
0010
0100
2000
0000
3001
0100
0010
,
0002
0000
0023
0000
2030
0000
3001
0020
,
0000
0130
1000
0001
0100
0000
0110
0000
,
0001
0001
1000
0100
0001
0100
1000
0002
,
0000
1003
1010
0010
0110
0100
0101
0000
,
0001
0010
0010
0001
1000
0001
0100
0001
,
0010
0010
0001
2000
0000
3100
0010
0001
,
1000
0010
0010
1000
0001
1000
0100
1000
,
0010
0010
1000
0002
0000
1003
0100
0010
,
2000
0000
3020
0000
0032
0000
1003
0010
,
0100
0002
0000
1003
0100
0000
0110
0000
,
1000
1000
0001
0100
1000
0100
0001
0010
,
0200
0000
1300
0001
0101
0100
0110
0010
,
2010
0000
0000
3200
,
0320
0000
0032
0000
2003
0000
3010
0100
,
0210
0000
0001
0002
0000
0000
0303
0000
,
1100
1000
0100
0020
0000
0000
0031
0000
,
0102
1003
2100
3001
,
0100
0010
1000
0200
0000
0010
0310
0000
,
0001
0100
0001
0000
0100
0010
0100
0000
0010
1000
0010
0000
1000
0001
0010
0000
,
0011
0000
0011
0000
0000
0000
0102
0000
0000
0000
0103
0001
1000
0000
0000
0000
,
0002
0023
0230
0302
,
1003
0020
0000
0032
0000
1000
1003
0000
,
0010
1000
0010
0000
0100
0010
0100
0000
0210
0000
0301
0000
0210
0000
0301
0000
,
1001
1000
0100
1200
0000
0310
0011
0000
,
2000
3020
0230
2300
,
3001
0020
0000
2030
0000
0001
3001
0000
,
0010
0001
0010
0000
0100
0010
0100
0000
0210
0000
1300
0000
0210
0000
1300
0000
,
1001
0001
0100
0201
0000
0310
1010
0000
,
0021
0130
0010
0001
0201
0310
0100
0001
,
1000
0100
1000
0000
0001
0000
1000
0100
1000
0100
1000
0100
1000
0000
0000
0000
,
1020
0130
0010
1000
1200
0310
0100
1000
,
0001
0100
0001
0000
1000
0000
0001
0100
0001
0100
0001
0100
0001
0000
0000
0000
,
0021
0000
0130
1000
1001
1001
0000
0201
,
0000
0000
0310
0001
0010
0000
0100
0000
0002
0000
0023
0000
0230
0000
1300
0000
,
1100
2200
3300
0000
0101
0202
0303
0000
,
0011
0022
0033
0000
1010
2020
3030
0000
,
0002
0023
2030
3020
0032
0203
0000
0000
,
0301
1000
0001
1000
0001
1000
0001
1000
0001
0000
0000
0000
0000
0000
0000
0000
,
0001
0100
0101
0000
,
1000
0000
0200
0000
,
1300
0010
1010
0000
,
0001
0000
1000
0100
0010
0001
0010
0100
1000
0000
0001
0100
0010
0100
0010
1000
,
0001
0010
0011
0000
,
1000
0000
0020
0000
,
1030
0100
1100
0000
,
0001
0100
0010
0100
0001
0000
1000
0010
0100
0010
1000
0001
0010
0100
1000
0000
,
0001
1000
0001
1000
0010
0000
0001
1000
0001
1000
0020
0030
1000
0001
1000
0001
,
0010
0000
1000
0001
1000
0001
0020
0030
0001
1000
0001
1000
0010
0000
1000
0001
,
1000
0001
0010
0000
0001
0100
0010
1000
0200
0000
0000
0000
0000
0000
0000
0000
,
0000
0000
0000
0000
2300
3020
0230
0302
,
1003
0100
0010
0001
0100
0000
0000
0000
0102
0000
0000
0000
1003
0000
0100
0000
,
0002
0000
1003
0010
0001
1000
0010
0210
,
0000
0000
0001
0000
0301
0000
1000
0000
0100
0010
0001
0000
1000
0010
0100
0000
,
0210
0301
0210
0301
1001
1000
0100
0120
,
0000
0031
0011
0000
2100
0000
3001
0100
,
2000
0000
3001
0010
1000
0001
0010
0210
,
0000
0000
1000
0000
1300
0000
0001
0000
0100
0010
1000
0000
0001
0010
0100
0000
,
0210
1300
0210
1300
1001
0001
0100
0120
,
0000
1030
1001
0000
0011
0021
0000
0000
,
0000
0000
0130
0000
1000
0000
0010
0000
1010
0000
1010
0000
0000
0000
0001
0010
,
0001
0010
0001
0010
0001
0000
0000
0000
1100
0000
1200
0000
0000
0000
0000
0000
,
0000
0000
0310
0000
0001
0000
0100
0000
0101
0000
0101
0000
0001
0000
1000
0100
,
1000
0100
1000
0100
1000
0000
0000
0000
1020
0000
0000
0000
0130
0000
0001
0000
,
1001
1001
0000
1200
0000
0320
2030
3002
,
0203
0000
0320
0000
0032
0000
0000
0000
1003
0000
0001
0100
0001
0000
1000
0100
,
1000
0000
0010
0100
0001
0000
0010
0000
0021
0000
0130
0000
0001
0000
0201
0000
,
0310
0000
0011
0000
0011
0000
0000
0000
0001
0000
1000
0100
1000
0000
0001
0100
,
0001
0000
0010
0100
1000
0000
0010
0000
1020
0000
0130
0000
1000
0000
1200
0000
,
0310
1010
2010
0000
3001
0010
0010
0001
,
1000
0001
0100
0001
0010
0010
0001
0100
,
0000
1001
0000
0000
;

//--------------- dance-double - kay ----------------
#NOTEDATA:;
#STEPSTYPE:dance-double;
#DESCRIPTION:kay;
#DIFFICULTY:Easy;
#METER:8;
#RADARVALUES:0,0,0,0,0;
#CREDIT:kay;
#NOTES:
00000000
00000000
00000000
00000000
,
00000000
00000000
00000000
00000000
,
00000000
00000000
00000000
00000000
,
00000000
00000000
00000000
00000000
,
00010000
00000000
00010000
00000000
00010000
00000000
00000000
00001000
,
00000000
00001000
00000000
00002000
00000000
00000000
00003000
00000000
,
00100000
00010000
10000000
00010000
,
01000000
01000000
01000000
00000000
,
00010000
10000000
00010000
00100000
,
01000000
01000000
01000000
00000000
,
00020000
00000000
00031000
00000000
,
00100000
00001000
00010000
00000000
,
00001000
00001000
00010000
00010000
,
00000020
00000000
00001030
00000000
,
00000001
00001000
00000001
00000010
,
00000100
00000100
00000100
00000000
,
00000010
00000001
00001000
00000001
,
00000100
00000100
00000100
00000000
,
00002000
00000000
00013000
00000000
,
00000010
00010000
00001000
00000000
,
00010000
00010000
00001000
00001000
,
00200000
00000000
00310000
00000000
,
20000000
00000000
00000000
00000000
,
30200000
00000000
02300000
00000000
,
03020000
00000000
00000000
00000000
,
00230000
00000000
00000000
00000000
,
00302000
00000000
00023000
00000000
,
00031000
00000000
00000000
00100000
00000000
00000000
00100000
00000000
,
00001000
00001000
00010000
00010000
,
00000010
00000000
00000000
00000010
00000000
00000000
00001000
00000000
,
00000001
00000010
00000100
00001000
,
00000002
00000000
00000103
00001000
,
00010000
00010000
00001000
00010000
,
00100000
01000000
00010000
00000000
,
10000000
00100000
01000000
00010000
,
20000000
00000000
31000000
00010000
,
00001000
00001000
00010000
00001000
,
00000010
00000100
00001000
00000000
,
00000001
00000001
00001000
00001000
,
00000010
00010000
00001000
01000000
,
00010000
00010000
10000000
10000000
,
00010000
00100000
00001000
00010000
,
00000200
00000000
00000000
00000000
00000310
00000000
00000000
00000001
,
00000000
00000001
00001000
00000000
00000010
00000000
00010000
00000000
,
00002000
00000000
02003000
00000000
,
03020000
00000000
20030000
00000000
,
31000000
00100000
00020000
00000000
,
00000000
00000000
00000000
00000000
,
10030000
00000000
00010000
00000000
,
01000000
00000000
00002000
00000000
,
00013000
00000000
00000010
00000000
,
00001000
00001000
00001000
00000000
,
00000001
00000000
00001000
00000000
,
00000100
00000000
00020000
00000000
,
00031000
00000000
00100000
00000000
,
00010000
00010000
00010000
00000000
,
20000000
00000000
30000000
00020000
,
00000000
00030000
10000000
00100000
,
01000000
00010000
00200000
00000000
,
00000000
00000000
00310000
00000000
,
01000000
00100000
10000000
01000000
,
00010000
01000000
20000000
00000000
,
30100000
01000000
00001000
00001000
,
00010000
00001000
00000100
00000010
,
00001000
00000000
00000001
00000100
,
00001000
00000100
00000002
00000000
,
00000013
00000100
00010000
00010000
,
00001000
00010000
01000000
00100000
,
00010000
00000000
20000000
00000000
,
30010000
00000000
01000000
00001000
,
00010000
00000010
00002000
00000000
,
00003001
00000000
00001000
00000100
,
00010000
00001000
00200000
00000000
,
01300000
00000000
00000000
10000000
00000000
10000000
00010000
00000000
,
01000000
00001000
00010000
00010000
,
00100000
00100000
10000000
01000000
,
00100000
00100000
00001000
00001000
,
00000010
00000010
00000001
00000100
,
00000010
00000010
00020000
00000000
,
00000000
00000000
00030000
00000000
00001000
00010000
00001000
00010000
,
00000000
00011000
00000000
00000000
;

//--------------- dance-double - kayxtrawr ----------------
#NOTEDATA:;
#STEPSTYPE:dance-double;
#DESCRIPTION:kayxtrawr;
#DIFFICULTY:Medium;
#METER:12;
#RADARVALUES:0,0,0,0,0;
#CREDIT:kayxtrawr;
#NOTES:
00000000
00000000
00000000
00000000
,
00000000
00000000
00000000
00000000
,
00000000
00000000
00000000
00000000
,
00000000
00000000
00000000
00000000
,
00010000
00001000
00010000
00001000
00010000
00001000
00000000
00011000
,
00000000
00011000
00000000
00012000
00000000
00103000
00001000
00000000
,
00010000
00001000
00100000
00010000
00100000
00001000
00010000
00001000
,
00100000
01000000
00010000
00002000
00000000
00010000
00013000
00000000
,
00001000
00010000
00000010
00001000
00000010
00010000
00001000
00010000
,
00000010
00000100
00001000
00020000
00000000
00001000
00031000
00000000
,
00020000
00000000
00230000
00000000
20300000
00000000
30100000
00020000
,
00000000
00031000
00010000
00100000
20000000
00000000
30010000
00000000
,
10000000
01000000
00010000
00001000
,
00011000
00000100
00011000
01000000
,
00001000
00010000
00000100
00001000
00000100
00010000
00001000
00010000
,
00000100
00000010
00001000
00020000
00000000
00001000
00031000
00000000
,
00010000
00001000
01000000
00010000
01000000
00001000
00010000
00001000
,
01000000
00100000
00010000
00002000
00000000
00010000
00013000
00000000
,
00002000
00000000
00003200
00000000
00000302
00000000
00000103
00000001
,
00000100
00002000
00000000
00003100
00000002
00000000
00001003
00000000
,
00000001
00000010
00001000
00010000
,
00011000
00011000
00011000
00001000
,
00020000
00000000
00000000
00100000
,
00230000
20300000
30020000
00130000
,
00012000
00000000
00000000
00200000
00000000
00000000
00303000
00000000
,
00021000
00000000
00000000
00000020
00000000
00000000
00030030
00000000
,
00011000
00000100
00001100
00000010
,
00000011
00000000
00000001
00002000
00000000
00000010
00003010
00000000
,
00000001
00000100
00001000
00010000
00100000
10000000
00010000
00000000
,
10010000
10010000
00000000
01100000
00000000
00010000
00100000
00000000
,
00012000
00023000
00230000
20300000
,
30010000
10000000
00000000
12000000
00000000
13000000
00010000
00000000
,
10000000
01000000
00010000
01000000
10000000
10000000
00010000
00010000
,
10000000
01000000
00010000
00002000
00000000
00010000
00013000
00000000
,
00021000
00032000
00003020
00000032
,
00001003
00000001
00000000
00000201
00000000
00000301
00001000
00000000
,
00000001
00000100
00002000
00000000
00003001
00000010
00001000
00001000
,
00000001
00000100
00001000
00020000
00000000
00001000
00031000
00000000
,
00020000
00000000
00130000
10000000
00020000
00000000
10030000
00100000
,
00010000
00002000
00000000
02003000
00000000
03001000
00010000
00000000
,
00002000
00000000
00003010
00000001
00002000
00000000
00003001
00000010
,
00001000
00020000
00000000
00030200
00000000
00010300
00001000
00000000
,
00020000
00000000
00130000
10000000
00010000
00100000
00000000
00021000
,
00000000
00100000
00130000
00000000
10000000
01000000
00100000
00010000
,
00110000
00220000
00330000
00000000
00011000
00022000
00033000
00000000
,
00001100
00002200
00003300
00000000
00000011
00000022
00000033
00000000
,
00000001
00000100
00001000
00010000
00100000
20000000
00000000
00000000
,
00020000
00000000
30030000
00000000
,
10000000
10000000
10100000
00000000
,
00010000
00010000
00110000
00000000
,
00001000
00001000
00011000
00000000
,
00010000
00100000
00010000
00001000
00010000
00100000
00010000
00001000
,
00010000
00010000
00011000
00000000
,
00000100
00000100
00001100
00000000
,
00000001
00000001
00000101
00000000
,
00000001
00000100
00001000
00000100
00000001
00000100
00001000
00000000
,
00010000
00000000
00001000
00000000
00010000
00000000
00001000
00000000
00010000
00000000
00002000
00003000
01000000
00000000
00010000
00000000
,
01000000
00000000
00010000
00000000
01000000
00000000
00020000
00030000
10000000
00000000
01000000
00000000
10000000
00000000
01000000
00000000
,
00010000
01000000
00010000
00001000
00022000
00000000
00000000
00000000
,
00000000
00033000
00010000
00001000
,
00010000
00010000
00001000
00000000
00021000
00000000
00032000
00000000
,
00003200
00000000
00000302
00000000
00001003
00000001
00000000
00000021
,
00000000
00000031
00001000
00000000
00001001
00000000
00000001
00000100
,
00000010
00000010
00001000
00001000
00000001
00000010
00001000
00020000
,
00000000
00001000
00031000
00000000
00012000
00000000
00023000
00000000
,
02030000
00000000
23000000
00000000
30010000
10000000
00000000
10200000
,
00000000
10300000
00010000
00000000
10000000
10000000
01000000
01000000
,
00100000
00100000
00010000
00010000
10000000
00100000
00010000
00002000
,
00000000
00010000
00013000
00000000
00001000
00002000
00000000
00000000
,
00000000
00003100
00000010
00000100
00001000
00020000
00000000
00030020
,
00000000
00010030
00001000
00000000
00010000
00020000
00000000
00000000
,
00000000
01030000
00100000
01000000
00010000
00002000
00000000
00203000
,
00000000
00301000
00010000
00000000
00002000
00000000
00003100
00000001
,
00001000
00000100
00000000
00012000
00000000
00000100
00003100
00000000
,
00000001
00001000
00000100
00010000
00002000
00000000
00023000
00000000
,
00230000
00000000
20300000
00000000
30010000
10000000
00000000
02000000
,
00000000
13000000
00010000
00000000
20000000
00000000
32000000
00000000
,
03020000
00000000
00032000
00000000
00013000
00001000
00010000
00200000
,
00000000
00010000
00310000
00000000
00001000
00010000
00001000
00000010
,
00001000
00010000
00001000
00000010
00001000
00010000
00001000
00000100
,
00000000
00001001
00000000
00000000
;

//--------------- dance-double - kayxtrawr ----------------
#NOTEDATA:;
#STEPSTYPE:dance-double;
#DESCRIPTION:kayxtrawr;
#DIFFICULTY:Hard;
#METER:15;
#RADARVALUES:0,0,0,0,0;
#CREDIT:kayxtrawr;
#NOTES:
00000000
00000000
00000000
00000000
,
00000000
00000000
00000000
00000000
,
00000000
00000000
00000000
00000000
,
00000000
00000000
00000000
00000000
,
00010000
00010000
00001000
00001000
00010000
00000100
00000000
00001100
,
00000000
00000000
00001001
00000000
00000000
00000000
00000201
00000000
00000000
00000000
00001300
00010000
00001000
00000000
00000000
00000000
,
00010000
00100000
01000000
00100000
00010000
00001000
00010000
00100000
,
01000000
01000000
00010000
02000000
00000000
03001000
00010000
00000000
,
00001000
00000010
00000100
00000010
00001000
00010000
00001000
00000010
,
00000100
00000100
00001000
00000200
00000000
00010300
00001000
00000000
,
00021000
00000000
00230000
00000000
20300000
00000000
30010000
00100000
,
00000000
01000000
10000000
00010000
01000000
00000000
01100000
00000000
,
10000000
10000000
01000000
00100000
00002000
00000000
00013000
00200000
,
00000000
00310000
00011000
00001000
00011000
00010000
00011000
00000000
,
00001000
00000010
00000001
00000010
00001000
00010000
00001000
00000010
,
00000001
00000001
00000100
00000020
00000000
00010030
00001000
00000000
,
00010000
00100000
10000000
00100000
00010000
00001000
00010000
00100000
,
10000000
10000000
01000000
00200000
00000000
00301000
00010000
00000000
,
00012000
00000000
00003020
00000000
00000032
00000000
00001003
00000010
,
00000100
00000002
00000000
00001003
00000100
00000000
00000110
00000000
,
00000001
00000001
00000100
00000010
00010000
00001000
00000100
00001000
,
00011000
00001000
00011000
00010000
00011000
00001000
00011000
00000000
,
00012000
00000000
00000000
00023000
,
00030200
00000000
00000320
00000000
00000032
00000000
00000103
00001000
,
00020000
00000000
00001000
00002000
00000000
00000000
00033000
00000000
,
00010000
00100000
10000000
00020000
00000000
00100000
00130000
00000000
,
00210000
00301000
00021000
00030100
,
00001000
00000001
00000100
00000020
00000000
00001000
00001030
00000000
,
00000010
00010000
00001000
01000000
00010000
10000000
01000000
00000000
,
00110000
00000000
00110000
00000000
00000000
00000000
12000000
00000000
00000000
00000000
03010000
00001000
00010000
00000000
00000000
00000000
,
00021000
00030200
00000302
00002003
,
00003010
00000002
00000000
00002003
00000000
00000001
00003001
00000000
,
00000100
00001000
00000100
00000000
00001000
00010000
00001000
00000000
00011000
00000000
00100000
00000000
00011000
00000000
00100000
00000000
,
00011000
00000000
00100000
00000000
00010000
00000000
20000000
00000000
00000000
00000000
31000000
00010000
00001000
00000000
00000000
00000000
,
00012000
02003000
23000000
30020000
,
00130000
20000000
00000000
30020000
00000000
10000000
10030000
00000000
,
01000000
00010000
01000000
00000000
00010000
00001000
00010000
00000000
00011000
00000000
00000010
00000000
00011000
00000000
00000010
00000000
,
00011000
00000000
00000010
00000000
00001000
00000000
00000002
00000000
00000000
00000000
00000103
00001000
00010000
00000000
00001000
00000000
,
00010000
00100000
10000000
01000000
00010000
01000000
10000000
00010000
,
01010000
00001000
00010000
00000020
00000000
00010030
00011000
00000000
,
00001000
00000010
00000001
00000100
00001000
00000100
00000001
00001000
,
00001100
00010000
00001000
00200000
00000000
00301000
00011000
00000000
,
02001000
00000000
03010000
10000000
01000000
00100000
00000000
00210000
,
00000000
00000000
00301000
00010000
00001000
00000000
00010000
00000000
00200000
00000000
00320000
00000000
00032000
00000000
00003100
00000000
,
00000010
00002020
00003030
00000000
00000101
00000202
00000303
00000000
,
00001100
00002200
00003300
00000000
00000011
00000022
00000033
00000000
,
00000020
00002030
00023000
02030000
03200000
00320000
00000000
00000000
,
10030000
00010000
10000000
00010000
10000000
00010000
10000000
00010000
10000000
00000000
00000000
00000000
00000000
00000000
00000000
00000000
,
10000000
00010000
10010000
00000000
,
00001000
00010000
00011000
00000000
,
00000100
00000010
00000110
00000000
,
00000001
00000000
00000100
00000010
00001000
00000010
00010000
00001000
00010000
00000000
00000100
00001000
00000100
00001000
00000100
00000010
,
00000001
00001000
00001001
00000000
,
00010000
00001000
00011000
00000000
,
01000000
00100000
01100000
00000000
,
10000000
01000000
00100000
00010000
00100000
00000000
00001000
00010000
00001000
01000000
00010000
01000000
00001000
00010000
00001000
00000000
,
00010000
00001000
00010000
00001000
01000000
00000000
00010000
00001000
00010000
00001000
02000000
03000000
00001000
00010000
00001000
00010000
,
00000100
00000000
00001000
00010000
00001000
00010000
00000200
00000300
00010000
00001000
00010000
00001000
00100000
00000000
00001000
00010000
,
00001000
00010000
00000010
00000000
00001000
00000001
00001000
00000001
00002000
00000000
00000000
00000000
00000000
00000000
00000000
00000000
,
00000000
00000000
00000000
00000000
00023000
02030000
03200000
20300000
,
30010000
10000000
01000000
00100000
00001000
00000000
00000000
00000000
00012000
00000000
00000000
00000000
01003000
00000000
10000000
00000000
,
00020000
00000000
00130000
10000000
00010000
00100000
01000000
20000000
,
00000000
00000000
00010000
00000000
30010000
00000000
00000000
00000000
00120000
00000000
00000000
00000000
00031000
00000100
00010000
00000000
,
00011000
00000100
00011000
00000100
00011000
00000100
00001000
00000002
,
00000000
00000103
00001000
00000000
00021000
00000000
00030100
00000001
,
00002000
00000000
00003010
00000001
00001000
00000010
00000100
00000002
,
00000000
00000000
00001000
00000000
00001003
00000000
00000000
00000000
00000010
00000100
00001000
00000000
00000100
00001000
00010000
00000000
,
00010000
00100000
01000000
00000000
01000000
00100000
00010000
00000000
00011000
00000000
01000000
00000000
00010000
00000000
20000000
00000000
,
00000000
31000000
00010000
00000000
00011000
00012000
00000000
00000000
,
00000000
00000000
00003010
00000000
00000001
00000000
00001000
00000000
00001010
00000000
00001010
00000000
00000000
00000000
00000001
00000100
,
00000001
00000100
00000001
00000100
00001000
00000000
00000000
00000000
00011000
00000000
00021000
00000000
00000000
00000000
00000000
00000000
,
00000000
00000000
00130000
00000000
10000000
00000000
00010000
00000000
00110000
00000000
00001000
00000000
00010000
00000000
00000010
00001000
,
00000010
00001000
00000010
00001000
00000001
00000000
00000000
00000000
00002001
00000000
00000000
00000000
00003001
00000000
00001000
00000000
,
00010000
10000000
00000000
20010000
00000000
32000000
03020000
00032000
,
00003020
00002030
00023000
01030000
10000000
00010000
10000000
01000000
,
00001000
00000100
00000010
00000001
00001000
00001010
00010000
00012000
,
00000000
00003010
00000011
00000000
00000001
00001000
00000001
00000100
,
00010000
01000000
00100000
10000000
10100000
00010000
00100000
00012000
,
00000000
00003010
00001000
00000000
00010000
01000000
10000000
01000000
,
00010000
00001000
00010000
01000000
10000000
10000000
00100000
02000000
,
00000000
03000010
00000000
00000000
;
