#VERSION:0.83;
#TITLE:Bloody Iron Maiden;
#SUBTITLE:;
#ARTIST:BEMANI Sound Team "Loz";
#TITLETRANSLIT:;
#SUBTITLETRANSLIT:;
#ARTISTTRANSLIT:;
#GENRE:;
#ORIGIN:GITADORA FUZZ-UP;
#TAGS:;
#CREDIT:;
#BANNER:Bloody Iron Maiden.png;
#BACKGROUND:Bloody Iron Maiden-bg.png;
#PREVIEWVID:;
#JACKET:Bloody Iron Maiden-jacket.png;
#CDIMAGE:;
#DISCIMAGE:;
#LYRICSPATH:;
#CDTITLE:;
#MUSIC:Bloody Iron Maiden.ogg;
#OFFSET:-0.265000;
#SAMPLESTART:67.342003;
#SAMPLELENGTH:22.153999;
#SELECTABLE:YES;
#BPMS:0.000000=195.000000
;
#STOPS:;
#DELAYS:;
#WARPS:;
#TIMESIGNATURES:0.000000=2=4
,2.000000=4=4
;
#TICKCOUNTS:0.000000=4
;
#COMBOS:0.000000=1
;
#SPEEDS:0.000000=1.000000=0.000000=0
;
#SCROLLS:0.000000=1.000000
;
#FAKES:;
#LABELS:0.000000=Song Start
;
#BGCHANGES:;
#KEYSOUNDS:;
#ATTACKS:
;

//---------------dance-single - ----------------
#NOTEDATA:;
#CHARTNAME:;
#CHARTHASH:2023622889;
#STEPSTYPE:dance-single;
#BANNER:;
#DESCRIPTION:;
#CHARTSTYLE:;
#DIFFICULTY:Medium;
#METER:12;
#METERF:0.000000;
#LASTSECONDHINT:113.957306;
#RADARVALUES:0.582300,0.598299,0.250438,0.189988,0.008636,472.000000,443.000000,29.000000,22.000000,0.000000,0.000000,0.000000,0.000000,0.000000,0.582300,0.598299,0.250438,0.189988,0.008636,472.000000,443.000000,29.000000,22.000000,0.000000,0.000000,0.000000,0.000000,0.000000;
#CREDIT:Yosefu & Flicks;
#NOTES:
// measure 0
0000
0000
0000
0000
,  // measure 1
0000
0000
0000
0000
,  // measure 2
0000
0000
0000
0000
,  // measure 3
0000
0000
0000
0000
,  // measure 4
0000
0000
0000
0001
0000
0010
0100
1000
,  // measure 5
0001
0000
0100
0000
0001
0000
1000
0001
,  // measure 6
0010
0001
0000
1000
0000
0010
0100
0001
,  // measure 7
1000
0000
0100
0000
1000
0000
0001
1000
,  // measure 8
0010
1000
0000
0001
0000
1000
0100
1000
,  // measure 9
0000
0100
0010
0001
0000
1000
0010
0100
,  // measure 10
1000
0000
0000
0100
0000
0000
0001
0000
0000
0000
1000
0000
0001
0000
0000
0000
,  // measure 11
0010
0001
0000
0000
1001
0000
0000
0001
,  // measure 12
0000
1000
0000
0001
0000
0000
0001
0000
,  // measure 13
0100
0001
0000
0000
1000
0100
0010
0001
,  // measure 14
0000
0100
0010
1000
0000
0001
0010
0100
,  // measure 15
0010
0001
1000
0000
0001
0000
1000
0000
,  // measure 16
0001
0100
0010
1000
0000
0001
0010
0001
,  // measure 17
0010
0000
0100
0000
1000
0000
0001
0100
,  // measure 18
0010
1000
0001
1000
0000
0001
0010
0001
,  // measure 19
0010
0100
1000
0000
0001
0000
1000
0000
,  // measure 20
0010
0100
0000
0001
0000
0100
1000
0100
,  // measure 21
0010
0100
0001
1000
,  // measure 22
0001
0010
0000
1001
0000
0001
0100
0010
,  // measure 23
0100
0001
1000
0000
0001
0000
1000
0000
,  // measure 24
0001
0010
0100
1000
0000
0001
0100
0001
,  // measure 25
0100
0000
0010
0000
1000
0000
0001
0010
,  // measure 26
0100
1000
0001
1000
0000
0001
0100
0001
,  // measure 27
0100
0010
1000
0000
0001
0000
1000
0000
,  // measure 28
0100
0010
0000
0001
0000
0010
1000
0010
,  // measure 29
0100
0010
0001
1000
,  // measure 30
0001
0100
0000
1001
0000
0001
1000
0000
,  // measure 31
0100
0000
0010
0001
1000
0000
0010
0000
,  // measure 32
1000
0010
0100
0001
0000
1000
0001
0000
,  // measure 33
0010
0000
0100
0000
1000
0010
0100
0001
,  // measure 34
0010
0100
1000
0001
0000
1000
0001
0000
,  // measure 35
0100
0000
0010
1000
0001
0000
0010
0000
,  // measure 36
0001
0010
0100
1000
0000
0001
1000
0000
,  // measure 37
0010
0000
0100
0000
0001
1000
0001
0010
,  // measure 38
0100
0000
0000
0001
0000
0000
0100
0000
1000
0000
0000
0000
0000
0000
0001
0000
,  // measure 39
1000
0002
0000
0000
0203
0000
0000
0320
,  // measure 40
0000
2030
0000
3001
1000
0000
1000
0200
,  // measure 41
0000
1300
0001
2000
0000
0000
0000
0000
,  // measure 42
0000
0000
3001
1000
0001
0000
1000
0002
,  // measure 43
0000
0203
0000
0301
0000
0100
0001
2000
,  // measure 44
0000
3001
0010
0001
1000
0000
0010
1000
,  // measure 45
0000
0001
0010
0000
0100
1000
0100
0010
,  // measure 46
0001
1000
0010
0100
0001
0000
1000
0000
,  // measure 47
0100
0000
1000
0001
0000
0100
0010
1000
,  // measure 48
0001
0000
0010
0000
0100
1000
0000
0001
,  // measure 49
0000
1001
0000
0001
0000
0100
0001
1000
,  // measure 50
0000
0001
0000
0010
0001
0000
0010
0000
,  // measure 51
0100
0001
0100
0010
,  // measure 52
0001
0000
1000
0001
0000
1001
0000
0000
,  // measure 53
1001
0000
0000
0101
0000
0000
0101
0000
,  // measure 54
0000
0001
0100
0001
0100
0000
0000
0010
,  // measure 55
0100
0001
0100
0010
,  // measure 56
1000
0001
1000
0002
0000
0000
1003
0000
,  // measure 57
0001
0000
0100
0020
0000
0000
1030
0000
,  // measure 58
0001
0000
0010
0200
0000
0000
1300
0000
,  // measure 59
0001
0100
0001
0200
0000
0000
0310
0000
,  // measure 60
1000
0001
0000
1002
0000
0000
1003
0000
,  // measure 61
0100
0010
0000
0002
0000
0000
0103
0000
,  // measure 62
0001
1000
0001
2000
0000
0000
3010
0000
,  // measure 63
0100
0001
1000
0100
,  // measure 64
0010
0001
0000
0020
0000
0000
0130
0000
,  // measure 65
1000
0001
1000
0002
0000
0000
0103
0000
,  // measure 66
0010
1000
0010
2000
0000
0000
3010
0000
,  // measure 67
0100
1000
0100
0010
0000
0110
0000
1001
,  // measure 68
0000
0110
0000
1001
0000
0000
0001
0100
,  // measure 69
0001
0000
1000
0100
1000
0000
0001
0100
,  // measure 70
0010
0000
1000
0000
0000
1010
0000
0000
,  // measure 71
1010
0000
0000
0101
0000
0000
0101
0000
,  // measure 72
0001
0000
0000
1002
0000
0000
0103
0010
,  // measure 73
0100
0000
0001
1000
0000
0000
0100
0000
,  // measure 74
0010
0001
0010
0000
0000
0110
0000
0000
,  // measure 75
0110
0000
0000
2002
0000
0000
0000
0000
,  // measure 76
0000
3003
0000
1001
0000
0001
0000
0100
,  // measure 77
0010
0000
1000
0001
1000
0000
0100
0000
,  // measure 78
0010
0001
0000
0100
0000
0101
0000
0000
,  // measure 79
0001
0000
1000
0100
1000
0100
0000
0010
,  // measure 80
0001
0010
0001
1000
0000
1001
0000
0001
,  // measure 81
0100
0000
0010
1000
0010
0000
0100
0001
,  // measure 82
1000
0001
0000
1000
0000
1100
0000
0100
,  // measure 83
0010
0000
0001
1000
0000
0010
0100
0000
,  // measure 84
0001
1000
0100
0010
0000
0001
0100
0000
,  // measure 85
0101
0000
0001
1000
0100
0000
0010
0000
,  // measure 86
0001
1000
0000
1001
0000
0001
0100
0000
,  // measure 87
0010
0000
1000
0000
0001
0010
0100
0000
,  // measure 88
1000
0000
0100
0010
0000
0001
0100
0010
,  // measure 89
0100
0000
0001
1000
0001
0000
0010
0100
,  // measure 90
0010
0100
0000
1100
0000
1001
0000
0001
,  // measure 91
0100
0000
0010
1000
0001
0000
0010
0100
,  // measure 92
1000
0001
1000
0001
0000
0000
0000
0000
;

//---------------dance-single - ----------------
#NOTEDATA:;
#CHARTNAME:;
#CHARTHASH:2210629538;
#STEPSTYPE:dance-single;
#BANNER:;
#DESCRIPTION:;
#CHARTSTYLE:;
#DIFFICULTY:Hard;
#METER:14;
#METERF:14.000000;
#LASTSECONDHINT:113.957306;
#RADARVALUES:0.726641,0.757846,0.241802,0.146809,0.077722,589.000000,561.000000,28.000000,17.000000,0.000000,0.000000,0.000000,0.000000,0.000000,0.726641,0.757846,0.241802,0.146809,0.077722,589.000000,561.000000,28.000000,17.000000,0.000000,0.000000,0.000000,0.000000,0.000000;
#CREDIT:Flicks & Yosefu;
#NOTES:
// measure 0
0000
0000
0000
0000
,  // measure 1
0000
0000
0000
0000
,  // measure 2
0000
0000
0000
0000
,  // measure 3
0000
0000
0000
0000
,  // measure 4
0000
0000
0000
1000
0000
0100
1000
0100
,  // measure 5
0010
0001
1000
0000
0001
0100
0010
0100
,  // measure 6
0001
1000
0000
0001
0000
0010
0001
0010
,  // measure 7
0100
1000
0001
0000
1000
0010
0100
0010
,  // measure 8
1000
0001
0000
1000
0000
0001
0010
0100
,  // measure 9
1000
0001
0100
0010
0000
1000
0010
0100
,  // measure 10
1000
0000
0000
0100
0000
0000
0001
0000
0000
0000
1000
0000
0001
0000
0000
0000
,  // measure 11
0010
0001
0000
0000
1000
0000
0000
1100
,  // measure 12
0000
0001
0000
1010
0000
0000
0010
0000
,  // measure 13
0100
0001
0000
0000
1000
0100
0010
0001
,  // measure 14
0000
0100
0010
1000
0000
0001
0010
0100
,  // measure 15
0010
0001
1000
0010
1000
0000
0001
0000
,  // measure 16
1000
0100
0010
0001
0000
1000
0010
1000
,  // measure 17
0010
1000
0001
0000
0010
0001
0010
0001
,  // measure 18
0010
0100
1000
0001
0000
1000
0010
0100
,  // measure 19
0010
1000
0001
0010
0100
0000
1000
0000
,  // measure 20
0010
0100
0000
0001
0000
0100
1000
0100
,  // measure 21
0010
0000
0100
0000
0001
0100
0010
1000
,  // measure 22
0001
0010
0000
1001
0000
0001
0100
0010
,  // measure 23
0100
0001
1000
0100
1000
0000
0001
0000
,  // measure 24
1000
0010
0100
0001
0000
1000
0100
1000
,  // measure 25
0100
1000
0001
0000
0100
0001
0100
0001
,  // measure 26
0100
0010
1000
0001
0000
1000
0100
0010
,  // measure 27
0100
1000
0001
0100
0010
0000
1000
0000
,  // measure 28
0100
0010
0000
0001
0000
0010
1000
0010
,  // measure 29
0100
0000
0010
0000
0001
0010
0100
1000
,  // measure 30
0001
0100
0000
0110
0000
0001
1000
0000
,  // measure 31
0100
0000
0000
0000
0010
0000
0001
0010
0001
0000
0010
0000
0100
0000
0000
0000
,  // measure 32
1000
0010
0100
0001
0000
1000
0001
0000
,  // measure 33
0010
0000
0000
0000
0100
0000
1000
0100
1000
0000
0001
0000
0100
0000
1000
0000
,  // measure 34
0100
0010
1000
0001
0000
1000
0001
0000
,  // measure 35
0100
0000
0000
0000
0010
0000
1000
0010
1000
0000
0010
0000
0100
0000
0000
0000
,  // measure 36
0001
0010
0100
1000
0000
0001
1000
0000
,  // measure 37
0010
0000
0000
0000
0100
0000
0001
0100
0001
0000
1000
0000
0001
0000
0010
0000
,  // measure 38
0100
0000
0000
0001
0000
0000
0100
0000
1000
0000
0000
0000
0000
0000
0001
0000
,  // measure 39
1000
0002
0000
0000
0203
0000
0000
0320
,  // measure 40
0000
2030
0000
3001
1000
0001
1000
0200
,  // measure 41
0000
1300
0001
2000
0000
0000
0000
0000
,  // measure 42
0000
0000
3001
1000
0100
0010
0001
0020
,  // measure 43
0000
0230
0000
1300
0001
0100
0001
2000
,  // measure 44
0000
3001
0010
0001
1000
0000
0010
1000
,  // measure 45
0000
0001
0010
0000
0100
1000
0100
0010
,  // measure 46
0001
1000
0010
0100
0001
0000
1000
0000
,  // measure 47
0100
0010
0001
0100
0000
0010
0100
0001
,  // measure 48
1000
0100
0010
0001
0010
0100
0000
1100
,  // measure 49
0000
0000
1001
0000
0000
0000
0101
0000
0000
0000
0100
0001
0100
0000
0010
0000
,  // measure 50
1000
0001
0010
0100
1000
0000
0100
0000
,  // measure 51
1001
0101
1001
0011
,  // measure 52
1001
0000
0001
1000
0000
0001
0000
1000
,  // measure 53
0100
0000
0010
0001
0000
1000
0010
0000
,  // measure 54
0000
0000
1000
0000
0001
0000
1000
0000
0001
0000
0000
0000
0000
0000
0001
0100
,  // measure 55
0010
1000
0010
0100
0001
0100
0010
1000
,  // measure 56
0100
0000
0010
0000
0001
0000
1000
0000
0000
0000
1000
0010
1000
0000
0010
0000
,  // measure 57
0100
0001
0010
0200
0000
1300
0001
0100
,  // measure 58
0010
0000
1000
0000
0100
0000
0020
0000
0000
0000
0031
1000
0001
0000
0100
0000
,  // measure 59
0010
0000
0100
0000
0001
0000
2000
0000
0000
0000
3100
0010
0001
0000
0000
0000
,  // measure 60
0100
0010
0000
1010
0000
1000
0100
0010
,  // measure 61
0001
0010
0100
1000
0000
0001
0100
0010
,  // measure 62
0100
0001
1000
0100
0000
0010
0100
1000
,  // measure 63
0001
0100
0010
1000
0010
0100
0001
1000
,  // measure 64
0100
0010
0001
1000
0000
0010
0100
0001
,  // measure 65
1000
0100
0010
0002
0000
0003
0010
0100
,  // measure 66
1000
0010
0100
0002
0000
1003
0001
0010
,  // measure 67
1000
0010
0001
1000
0000
1010
0000
0101
,  // measure 68
0000
0000
1001
0000
0000
0000
1100
0000
0000
0000
1000
0001
1000
0000
0001
0000
,  // measure 69
0100
0010
1000
0100
0010
0001
1000
0010
,  // measure 70
0100
0000
0001
0000
1000
0000
0100
0000
0000
0000
1100
0000
0000
0000
1000
0001
,  // measure 71
1000
0000
0001
0100
0000
0010
1000
0000
,  // measure 72
0001
0000
0010
0000
0100
0000
1000
0000
0000
0000
0001
0100
0010
0000
0100
0000
,  // measure 73
0001
0100
0010
2000
0000
3100
0010
0001
,  // measure 74
0100
0010
1000
0010
0000
1010
0000
0000
,  // measure 75
0011
0000
0000
2002
0000
0000
3003
0000
,  // measure 76
0001
0100
0010
1000
0000
1001
0000
1000
,  // measure 77
0100
0010
0100
1000
0001
1000
0010
0100
,  // measure 78
1000
0100
0000
0001
0000
1001
0000
1000
,  // measure 79
0100
0010
0100
1000
0010
0100
0010
1000
,  // measure 80
0001
1000
0100
1000
0000
1001
0000
0001
,  // measure 81
0100
0010
0100
0001
1000
0001
0010
0100
,  // measure 82
0001
0100
0000
1000
0000
1001
0000
1000
,  // measure 83
0010
0001
0010
1000
0001
1000
0001
0010
,  // measure 84
1000
0010
0001
1000
0000
0001
0010
0001
,  // measure 85
1000
0010
0100
0000
0001
0100
0010
1000
,  // measure 86
0001
0010
0000
0110
0000
0100
1000
0001
,  // measure 87
0100
0010
1000
0000
0001
0010
0100
1000
,  // measure 88
0010
0000
0100
0000
0001
0000
0010
0000
0000
0000
0100
0000
0010
0001
0010
0000
,  // measure 89
0001
0000
0100
0000
0010
1000
0010
0000
1000
0000
0100
0000
0010
0000
0001
0000
,  // measure 90
0000
0000
0011
0000
0000
0000
1010
0000
0000
0000
0010
0000
0100
0001
0100
0000
,  // measure 91
0001
0000
0010
0000
0100
1000
0100
0000
1000
0000
0001
0000
1000
0000
0100
0000
,  // measure 92
0010
1000
0010
0001
0000
0000
0000
0000
;
