#VERSION:0.83;
#TITLE:ビノミ;
#SUBTITLE:;
#ARTIST:MARETU;
#TITLETRANSLIT:Binomi;
#SUBTITLETRANSLIT:;
#ARTISTTRANSLIT:;
#GENRE:Vocaloid;
#CREDIT:;
#MUSIC:Binomi.ogg;
#BANNER:Binomi.png;
#BACKGROUND:Binomi-bg.png;
#CDTITLE:;
#SAMPLESTART:2.962;
#SAMPLELENGTH:15.000;
#SELECTABLE:YES;
#OFFSET:0.000;
#BPMS:0.000=162.000;
#STOPS:70.000=0.3703703703703704
,149.000=0.3703703703703704
,242.000=1.111111111111111
,291.000=2.593
;
#TIMESIGNATURES:0.000=4=4,
68.000=3=4,
71.000=4=4,
147.000=3=4,
150.000=4=4,
242.000=1=4,
243.000=4=4
;
#BGCHANGES:0.000=Binomi.mp4=1.000=0=0=0=StretchNoLoop====,
99999.000=-nosongbg-=1.000=0=0=0=StretchNoLoop====
;
#FGCHANGES:;

//--------------- dance-single - Extraordiberry ----------------
#NOTEDATA:;
#STEPSTYPE:dance-single;
#DESCRIPTION:Extraordiberry;
#DIFFICULTY:Beginner;
#METER:2;
#RADARVALUES:0,0,0,0,0;
#CREDIT:Extraordiberry;
#NOTES:
0000
0000
0000
0000
,
0000
0000
0000
0000
,
0000
0000
0000
0000
,
0000
0000
0000
0000
,
0000
0000
0000
0000
,
0000
0000
0000
0000
,
1000
0000
0000
0000
,
0000
0000
0000
0000
,
0001
0000
0000
0000
,
0000
0000
0000
0000
,
1000
0000
0000
0000
,
0100
0000
0000
0000
,
1000
0000
0000
0000
,
0000
0000
0000
0000
,
0001
0000
0000
0000
,
0100
0000
0000
0000
,
0001
0000
0000
0000
,
0000
0000
0000
1000
,
0000
0000
0000
0100
,
0000
0000
0000
1000
,
0000
0000
0000
0001
,
0000
0000
0000
0100
,
0000
0000
0000
0010
,
0000
0000
0000
0100
,
0000
0000
0000
0001
,
0001
0001
0000
1000
,
0000
0000
0000
0000
,
0000
0000
0000
0001
,
0000
0000
0000
0000
,
0000
0000
0000
1000
,
0000
0000
0000
0100
,
0000
0000
0000
0010
,
0000
0000
0000
0000
,
0000
0000
0000
0001
,
0000
0000
0000
0100
,
0000
0000
0000
0010
,
0000
0000
0000
0000
,
0000
0000
1000
0000
,
0000
0000
0100
0000
,
0000
0000
0010
0000
,
0000
0000
0100
0000
,
0100
0000
0100
0000
,
0000
0000
1000
0000
,
0000
0000
0001
0000
,
0000
0000
0100
0100
,
0100
0000
0010
0000
,
0000
0000
1000
0000
,
0000
0000
0001
0000
,
1000
0000
1001
0000
,
0000
0000
1000
0000
,
0000
0000
0100
0000
,
0000
0000
0010
0000
,
0000
0000
0001
0000
,
0000
0000
1000
0000
,
0000
0000
0010
0000
,
0000
0000
0100
0000
,
0000
0000
0001
0000
,
0000
0000
1000
0000
,
1000
0000
1000
1000
,
1000
0000
1001
0000
,
0000
0000
0000
1000
,
0000
0000
0000
0000
,
0000
0000
0000
0001
,
0000
0000
0000
0000
,
0000
0000
0000
1000
,
0000
0000
0000
0001
,
0000
0000
0000
1000
,
0000
0000
0000
0001
,
0001
0001
0000
2000
,
0000
0000
0000
0000
,
0000
0000
3000
0002
,
0000
0000
0000
0000
,
0000
0000
0003
1000
;

//--------------- dance-single - Extraordiberry ----------------
#NOTEDATA:;
#STEPSTYPE:dance-single;
#DESCRIPTION:Extraordiberry;
#DIFFICULTY:Easy;
#METER:6;
#RADARVALUES:0,0,0,0,0;
#CREDIT:Extraordiberry;
#NOTES:
0000
0000
0000
0000
,
0000
0000
0000
0000
,
0000
0000
0000
0000
,
0000
0000
0000
0000
,
0000
0000
0000
0000
,
0000
0000
0000
0000
,
2000
0000
3010
0000
,
2000
0000
3001
0000
,
2000
0000
3100
0000
,
1000
0001
1001
0000
,
0001
0100
0010
0000
,
0010
0100
0001
0000
,
1000
0100
0010
0000
,
0010
0100
1000
0000
,
0001
0100
0010
0100
,
0001
0000
1001
0000
,
1000
0100
0010
0100
,
1000
0000
0000
0000
0000
0000
0000
0000
0002
0003
0000
0000
1000
0000
0000
0000
,
0100
0010
0100
1000
,
0001
0001
0000
0001
,
0100
0010
0100
0001
,
1000
1000
0000
1000
,
0100
0010
0000
0010
,
0100
1000
0000
0001
,
0100
0010
0100
0001
,
1000
0001
1000
0002
,
0000
0013
0000
0002
,
0000
1003
0000
0002
,
0000
0103
0000
0001
,
1000
1001
0000
1000
,
0100
0010
0100
1000
,
1000
0001
0000
0001
,
0100
0010
0100
0001
,
0001
1000
0000
1000
,
0100
0010
0001
0010
,
0100
1000
0000
0001
,
0100
0010
1000
0010
,
0010
0000
0000
0000
0200
0300
0000
0000
0001
0000
0000
0000
0010
0000
0000
0000
,
0100
0000
0100
0010
,
0001
0000
1000
0010
,
0100
0000
0100
0010
,
1000
0001
1000
0100
,
0001
0000
0001
0100
,
1000
0000
0001
0100
,
0010
1000
0010
0100
,
0002
0000
1003
0000
,
0100
0000
0010
0000
,
0001
0000
1000
1000
,
0001
0001
1001
0000
,
0000
0000
0001
0100
,
0010
0100
1000
0100
,
0010
0000
1000
0010
,
0100
0010
0001
0010
,
0100
0000
0001
1000
,
0100
0010
0100
0001
,
0100
0000
1000
0001
,
0010
0100
0010
1000
,
0010
0000
0001
0000
,
0001
0000
1000
0000
,
1000
0001
2002
0000
,
0000
0000
3003
0002
,
0000
0103
0000
0002
,
0000
1003
0000
0002
,
0000
0013
0000
0100
,
1000
1001
0000
2000
,
0000
3010
0000
2000
,
0000
3001
0000
2000
,
0000
3100
0000
0010
,
0001
1001
0000
0002
,
0000
0010
0000
1000
,
0000
0103
0000
2000
,
0000
0010
0000
0001
,
0000
0000
0000
0000
3100
0000
0000
0000
0000
0000
0000
0000
2000
3000
0000
0000
;

//--------------- dance-single - Extraordiberry ----------------
#NOTEDATA:;
#STEPSTYPE:dance-single;
#DESCRIPTION:Extraordiberry;
#DIFFICULTY:Medium;
#METER:11;
#RADARVALUES:0,0,0,0,0;
#CREDIT:Extraordiberry;
#NOTES:
0000
0000
0000
0000
,
0000
0000
0000
0000
,
0000
0000
0000
0000
,
0000
0000
0000
0000
,
0000
0000
0000
0000
,
0000
0000
0000
0000
,
2000
0000
0000
3100
0020
0000
0130
1000
,
0001
0100
0020
0000
0130
0001
2000
0000
,
3002
0000
0000
0013
0200
0000
0310
0001
,
2000
3001
1001
1000
,
0001
0000
0001
0100
0001
0000
0001
0100
,
0001
1000
0001
0010
0001
0000
1001
0000
,
1000
0000
1000
0010
1000
0001
1000
0000
,
0100
1000
0001
0100
0010
0000
0110
0000
,
1000
0000
0100
0010
0100
1000
0100
0000
,
1000
0001
0100
0010
0100
0000
0110
0000
,
0001
0100
0001
0100
0010
1000
0010
1000
,
0001
0000
0001
0000
1000
0000
0000
0000
0002
0003
0000
0000
1000
0000
0000
0000
,
1000
0100
1000
0000
1000
0100
1000
0001
,
1000
0010
1000
0000
1001
0000
0001
0000
,
0001
0100
0010
0100
0000
0001
1000
0000
,
1000
0100
0010
0000
0110
0000
0001
0000
,
0100
0001
1000
0100
0010
0000
0100
1000
,
0001
0100
0010
0000
1001
0000
1000
0100
,
1000
0100
0010
0001
0010
0001
1000
0010
,
0100
0010
1000
0000
0001
0000
2000
0000
,
0000
3100
0020
0000
0130
1000
0001
0100
,
0020
0000
0130
0001
2000
0000
3002
0000
,
0000
0013
0200
0000
0310
0001
2000
0000
,
3001
1001
1000
0002
,
0203
0000
0310
1000
0001
1000
0100
0000
,
0010
0110
0001
2000
,
3020
0000
0130
0001
1000
0001
0010
0000
,
0100
0110
1000
0001
,
0100
0000
0101
0000
1010
0000
1000
0100
,
0010
0001
1000
0000
0001
0100
0010
1000
,
0010
1000
0001
0010
0001
0010
0100
1000
,
0001
0000
0100
0000
0020
0030
0000
0000
2000
0000
0000
0000
3200
0000
0000
0000
,
0310
0001
1000
0001
0100
0010
1000
0000
,
1010
1000
0002
0023
,
0130
1000
0001
1000
0010
0010
0100
0000
,
0110
1001
2000
3200
,
0310
0100
2000
0000
3001
0100
0010
0100
,
0001
0000
1001
0000
1000
0100
1000
0100
,
0010
0001
0010
0001
1000
0000
0001
0000
,
2002
0000
3003
0000
1000
0000
0001
0100
,
0000
0100
1000
0000
0100
0001
0000
0001
,
1000
0001
2000
3200
,
0320
0032
1000
1000
,
1003
0000
0000
0000
0001
0100
0001
0100
,
0010
1000
0010
1000
0001
0100
0010
1000
,
0001
0000
0000
0000
1000
0100
1000
0100
,
0010
0001
0010
0001
1000
0100
0010
0001
,
1000
0000
0000
0000
0001
0100
0001
0100
,
0010
1000
0010
1000
0001
0100
0010
1000
,
0001
0000
0000
0000
1000
0100
1000
0100
,
0010
0001
0010
0001
1000
0100
0010
0001
,
1000
0000
0000
0000
0001
0100
1000
0100
,
0001
0000
1000
0000
0001
0010
1000
0010
,
0001
1000
2002
0000
,
0000
0000
3003
2000
,
0000
3010
0200
0000
0310
1000
0001
0010
,
0200
0000
0310
0001
2000
0000
3002
0000
,
0000
0103
0020
0000
0130
0001
2000
0000
,
3001
1001
0000
0002
,
0000
0013
0200
0000
0310
0001
1000
0010
,
0200
0000
0310
1000
0002
0000
2003
0000
,
0000
3100
0020
0000
0130
1000
0002
0000
,
1003
1001
1001
0002
,
0000
0010
1000
0100
,
1000
0013
0000
2000
,
0000
0010
0001
0100
,
0001
0000
0000
0000
3010
0000
0000
0000
0000
0000
0000
0000
2002
3003
0000
0000
;

//--------------- dance-single - Extraordiberry ----------------
#NOTEDATA:;
#STEPSTYPE:dance-single;
#DESCRIPTION:Extraordiberry;
#DIFFICULTY:Hard;
#METER:15;
#RADARVALUES:0,0,0,0,0;
#CREDIT:Extraordiberry;
#NOTES:
0000
0000
0000
0000
,
0000
0000
0000
0000
,
0000
0000
0000
0000
,
0000
0000
0000
0000
,
0000
0000
0000
0000
,
0000
0000
0000
0000
,
2000
0000
3001
0200
0010
0000
0301
0100
,
0010
0200
0001
0000
0310
0100
0001
0000
,
0002
0000
1003
0200
0010
0000
1300
0100
,
0010
0100
1000
0000
1100
1000
1001
0000
,
0101
0000
0001
0100
0010
0000
0010
0100
,
0001
1000
0100
0010
0001
0000
1000
0010
,
0100
0000
0100
0010
1000
0100
0010
0000
,
0010
0000
0100
0000
1000
0000
0001
0000
0100
0000
0010
0100
0010
0000
0100
0000
,
0101
0000
0001
1000
0100
0010
0100
0000
,
0100
1000
0001
0100
0010
0000
0100
0001
,
1000
0000
1000
0000
0100
0000
0100
0000
0010
0001
0010
0000
0001
1000
0001
0000
,
0100
0010
0100
0010
0100
0010
0100
0010
2000
3000
0000
0000
1100
0000
0000
0000
,
1000
0000
0100
0000
0010
0000
0000
0000
0010
0000
0100
0000
1000
0100
1000
0000
,
0001
1000
0001
0000
0100
0000
0100
0000
0001
0000
0010
0000
0100
0000
0000
0000
,
0100
0000
1000
0000
0010
0000
1000
0000
0100
0000
0010
0000
0001
0100
0001
0100
,
0010
1000
0010
1000
0001
0000
0000
0000
1000
0000
0100
0000
1100
0000
0000
0000
,
0100
0010
0001
0100
0010
0000
0010
0100
,
0001
0000
1000
0000
0100
0000
0000
0000
0010
0000
0100
0000
1000
0001
1000
0000
,
0001
0100
0001
0000
0100
0010
0100
0000
0010
1000
0010
0000
1000
0100
1000
0100
,
0010
0001
0010
0001
1000
0000
0001
0100
0010
0000
0010
0100
0002
0000
0000
0000
,
1003
0200
0010
0000
1300
0100
0010
0200
,
1000
0000
0310
0100
1000
0000
2000
0000
,
3001
0000
0200
0000
0010
0000
0000
0000
0301
0000
0100
0000
0110
0000
0000
0010
,
1000
0000
0001
0000
1000
0100
0010
0001
1000
0000
0000
0000
1010
0000
0000
0000
,
0110
0000
0100
0010
1000
0001
1000
0100
,
0010
0100
0001
0000
0101
0000
0110
0000
,
1100
0000
1000
0001
0100
0100
0001
0100
,
0010
0100
1000
0000
0100
0001
0101
0000
,
1001
0000
0000
0000
1000
0100
0010
0000
0100
0000
0000
0000
0100
0000
1000
0000
,
0001
0000
0100
0000
0010
0000
0000
0000
1000
0000
0100
0000
0010
0001
1000
0000
,
0001
0100
0010
0000
0100
0010
1000
0000
0001
1000
0100
0000
0010
0001
0010
0001
,
0010
0001
0010
0001
2000
3000
0000
0000
1010
0000
0000
0000
0110
0000
0000
0000
,
0010
0000
1000
0000
0001
0000
0010
0000
0001
0010
0001
0000
0010
0100
0010
0000
,
1000
1010
0110
0011
,
0010
0000
0001
0000
1000
0000
0001
0000
0100
0010
0100
0010
0001
0010
0001
0010
,
0100
0010
0100
0010
1000
0001
1000
0001
0010
0000
0000
0000
0011
0000
0000
0000
,
0001
0010
0100
0000
0010
0000
0000
0000
0010
0000
0001
0000
1000
0000
0010
0000
,
0100
0000
0000
0000
0001
0000
0010
0000
0100
1000
0100
1000
0001
0100
0001
0100
,
0010
1000
0010
1000
0001
0000
1000
0000
0001
0000
0010
0000
1000
0000
0001
0000
,
0200
0000
0000
0000
0000
0000
0000
0000
1300
0000
0000
0100
0010
0000
0011
0000
,
0000
0001
0100
0000
0101
0000
0000
0010
1000
0000
1010
0000
0000
0001
0010
0000
,
0100
0000
0000
1000
0001
1000
0001
0000
0000
0000
0000
0000
1000
0000
0000
0100
0000
0000
0010
0000
0000
0001
0000
0000
,
0100
0010
1000
0100
MMMM
0000
MMMM
0000
,
MMMM
0000
1000
0100
0001
1000
0001
0100
,
1000
0001
1000
0010
0001
1000
0001
0010
,
1000
0000
0001
0010
1000
0001
1000
0010
,
0001
1000
0001
0100
1000
0001
1000
0100
,
0001
0000
0000
0000
1000
0000
0100
0000
0001
0100
0001
0000
1000
0000
0010
0000
,
0001
0010
0001
0000
1000
0000
0010
0000
0001
0010
0001
0000
0010
0000
1000
0000
,
1000
0000
0000
0000
0001
0000
0010
0000
1000
0010
1000
0000
0001
0000
0100
0000
,
1000
0100
1000
0000
0001
0000
0100
0000
1000
0100
1000
0000
0100
0000
0001
0000
,
0002
0000
0000
0000
0000
0000
0000
0000
1003
0000
0100
0000
0010
0100
0010
0000
,
0001
0000
0100
0000
0010
0100
0010
0000
1000
0100
1000
0100
0010
0001
0010
0001
,
0100
0010
0100
0010
1000
0100
0010
0001
0200
0000
0000
0000
0000
0000
0000
0000
,
0000
0000
0310
2000
,
3001
0020
0100
0000
0031
0010
0100
0020
,
0001
0000
0130
0010
0001
0000
0002
0000
,
1003
0020
0100
0000
1030
0010
0100
0010
,
1000
0000
1010
1000
1001
0000
2000
0000
,
3001
0020
1000
0000
0031
0010
1000
0020
,
0001
0000
1030
0010
0001
0000
0002
0000
,
1003
0020
0001
0000
1030
0010
0001
0010
,
1000
0001
0011
0110
1100
0000
2001
0000
,
0000
3010
0002
0000
1003
0100
0001
2000
,
0100
0000
3001
1000
0100
0000
1002
0000
,
0000
1003
0020
0000
0031
1000
0200
0000
,
0010
0000
0000
0000
0302
0000
0000
0000
1003
0000
0000
0000
2002
3003
0000
0000
;

//--------------- dance-double - Extraordiberry ----------------
#NOTEDATA:;
#STEPSTYPE:dance-double;
#DESCRIPTION:Extraordiberry;
#DIFFICULTY:Easy;
#METER:7;
#RADARVALUES:0,0,0,0,0;
#CREDIT:Extraordiberry;
#NOTES:
00000000
00000000
00000000
00000000
,
00000000
00000000
00000000
00000000
,
00000000
00000000
00000000
00000000
,
00000000
00000000
00000000
00000000
,
00000000
00000000
00000000
00000000
,
00000000
00000000
00000000
00000000
,
00020000
00000000
00031000
00000000
,
00020000
00000000
00030100
00000000
,
00020000
00000000
00031000
00000000
,
00010000
00001000
00011000
00000000
,
00010000
00000100
00001000
00000100
,
00000010
00000001
00001000
00000000
,
00000001
00000100
00000001
00001000
,
00000010
00010000
00001000
00000000
,
00010000
00001000
00100000
00010000
,
10000000
01000000
00100000
00000000
,
00002000
00000000
00023000
00000000
,
00130000
00000000
00000000
00000000
10000000
00000000
00000000
00000000
00020000
00030000
00000000
00000000
10000000
00000000
00000000
00000000
,
01000000
00100000
01000000
10000000
,
00010000
00100000
00000000
00001000
,
00010000
00000100
00001000
00000100
,
00010000
00001000
00001000
00010000
,
00001000
00010000
00000100
00001000
,
00000001
00000100
00000000
00000010
,
00001000
00000010
00001000
00000010
,
00010000
00001000
00010000
00002000
,
00000000
00013000
00000000
00002000
,
00000000
00103000
00000000
00002000
,
00000000
00013000
00000000
00001000
,
00010000
00011000
00000000
00001000
,
00010000
00000010
00001000
00000010
,
00000100
00000001
00000000
00001000
,
00000001
00000100
00000010
00001000
,
00000010
00010000
00000000
00001000
,
00100000
00010000
00100000
00010000
,
10000000
00100000
00000000
10000000
,
00100000
00010000
00001000
00010000
,
00010000
00000000
00000000
00000000
00002000
00003000
00000000
00000000
00010000
00000000
00000000
00000000
00000010
00000000
00000000
00000000
,
00001000
00000001
00000100
00000010
,
00010000
00000000
00001000
00100000
,
00010000
10000000
01000000
00010000
,
00001000
00000000
00010000
00000100
,
00001000
00000001
00000010
00000100
,
00010000
00000000
00001000
00010000
,
00100000
10000000
00010000
10000000
,
10010000
00000000
20000000
00000000
,
32000000
00000000
03200000
00000000
,
00302000
00000000
00013000
00001000
,
00000010
00000001
00001001
00000000
,
00000000
00000000
00000001
00000100
,
00000010
00010000
00001000
01000000
,
00010000
00000000
10000000
01000000
,
00100000
00001000
00010000
00000100
,
00001000
00000000
00000001
00000100
,
00000010
00010000
00001000
01000000
,
00010000
00000000
10000000
01000000
,
00100000
00001000
00010000
00000100
,
00000010
00000000
00000001
00000100
,
00001000
00000000
00010000
00100000
,
10000000
00000000
20020000
00000000
,
00000000
00000000
30030000
20000000
,
00000000
31000000
00000000
02000000
,
00000000
03010000
00000000
00020000
,
00000000
00031000
00000000
00010000
,
00001000
00011000
00000000
00020000
,
00000000
00031000
00000000
00002000
,
00000000
00003010
00000000
00000020
,
00000000
00000031
00000000
00000001
,
00001000
00001001
00000000
00002000
,
00000000
00000100
00000000
00000001
,
00000000
00000010
00000000
00023000
,
00000000
01000000
00000000
10000000
,
00000000
00000000
00000000
00000000
00130000
00000000
00000000
00000000
00000000
00000000
00000000
00000000
00022000
00033000
00000000
00000000
;

//--------------- dance-double - Extraordiberry ----------------
#NOTEDATA:;
#STEPSTYPE:dance-double;
#DESCRIPTION:Extraordiberry;
#DIFFICULTY:Medium;
#METER:11;
#RADARVALUES:0,0,0,0,0;
#CREDIT:Extraordiberry;
#NOTES:
00000000
00000000
00000000
00000000
,
00000000
00000000
00000000
00000000
,
00000000
00000000
00000000
00000000
,
00000000
00000000
00000000
00000000
,
00000000
00000000
00000000
00000000
,
00000000
00000000
00000000
00000000
,
00020000
00000000
00000000
00031000
02000000
00000000
03100000
10000000
,
00010000
10000000
02000000
00000000
03100000
00001000
00020000
00000000
,
00032000
00000000
00000000
00013000
00000200
00000000
00000310
00000001
,
00002000
00003010
00011000
00010000
,
00001000
00000000
00001000
00010000
00001000
00000000
00001000
00010000
,
00001000
01000000
00010000
10000000
00010000
00000000
10010000
00000000
,
10000000
00000000
10000000
01000000
10000000
01000000
00000000
01000000
,
10000000
00010000
00100000
00001000
00010000
00000000
00011000
00000000
,
00001000
00000000
00010000
00000000
00010000
00001000
00010000
00000000
,
00010000
00001000
00010000
00000100
00001000
00000000
00001001
00000000
,
00000001
00000100
00000001
00000100
00000010
00001000
00000010
00010000
,
00001000
00000000
00001000
00000000
00010000
00000000
00000000
00000000
00002000
00003000
00000000
00000000
00010000
00000000
00000000
00000000
,
00001000
00010000
00001000
00000000
00001000
00010000
00001000
00100000
,
00010000
10000000
01000000
00000000
10010000
00000000
00010000
00000000
,
10000000
00100000
01000000
00100000
00000000
00100000
10000000
00010000
,
10000000
01000000
00010000
00000000
00011000
00000000
00001000
00000000
,
00001000
00010000
00000100
00001000
00000100
00000000
00000100
00010000
,
00001000
01000000
00010000
00000000
10010000
00000000
10000000
01000000
,
10000000
01000000
00100000
00010000
00100000
00010000
10000000
01000000
,
00010000
00001000
00010000
00000000
00011000
00000000
00002000
00000000
,
00000000
00013000
00000020
00000000
00000130
00000001
00001000
00000001
,
00000020
00000000
00000130
00010000
00002000
00000000
00023000
00000000
,
00000000
00031000
00200000
00000000
01300000
10000000
00020000
00000000
,
01030000
00011000
00001000
00020000
,
00230000
00000000
10300000
00010000
10000000
00000000
01000000
00100000
,
01000000
00010000
00001000
00000000
00011000
00000000
00002000
00000000
,
00003020
00000000
00000031
00001000
00000001
00000000
00000100
00000010
,
00000100
00001000
00010000
00000000
00011000
00000000
00020000
00000000
,
00230000
00000000
10300000
00010000
00100000
00000000
00010000
10000000
,
01000000
00010000
00001000
00000000
00010000
00001000
00010000
00000100
,
00001000
00000100
00000010
00000001
00000010
00000001
00001000
00000001
,
00000100
00000000
00001000
00000000
00020000
00030000
00000000
00000000
00002000
00000000
00000000
00000000
00023000
00000000
00000000
00000000
,
00130000
10000000
00010000
00000000
10000000
01000000
00100000
00000000
,
00001000
00011000
00020000
00032000
,
00003010
00000001
00001000
00000000
00000001
00000100
00000001
00000100
,
00000010
00001000
00000010
00010000
00002000
00000000
00023000
00000000
,
00130000
10000000
00020000
00000000
10030000
00010000
00100000
00001000
,
00010000
00000000
00011000
00000000
00001000
00010000
00000100
00001000
,
00000001
00000100
00000010
00000100
00001000
00000000
00010000
00000000
,
00022000
00000000
00033000
00000000
00010000
00000000
00100000
10000000
,
00000000
00010000
01000000
00000000
00010000
10000000
00000000
01000000
,
00010000
00001000
00020000
00032000
,
00003020
00000032
00001000
00001000
,
00001003
00000000
00000000
00000000
00000001
00000100
00000001
00000100
,
00000010
00001000
00000010
00010000
00002000
00000000
02003000
00000000
,
03020000
00000000
00030000
00000000
10000000
01000000
10000000
01000000
,
00100000
00010000
00100000
00001000
00020000
00000000
00030200
00000000
,
00002300
00000000
00003000
00000000
00000001
00000100
00000001
00000100
,
00000010
00001000
00000010
00010000
00002000
00000000
02003000
00000000
,
03020000
00000000
00030000
00000000
10000000
01000000
10000000
01000000
,
00100000
00010000
00100000
00001000
00020000
00000000
00030200
00000000
,
00002300
00000000
00003000
00000000
00000001
00000100
00001000
00010000
,
00000000
00001000
00010000
00100000
00000000
00010000
00100000
10000000
,
00010000
00100000
00002000
00000000
,
00000000
00000000
00013000
00021000
,
00000000
00031000
00200000
00000000
01300000
10000000
00010000
10000000
,
00200000
00000000
01300000
00100000
00020000
00000000
00032000
00000000
,
00000000
00013000
00000020
00000000
00000130
00000001
00002000
00000000
,
00003100
00010000
00001000
00012000
,
00000000
00013000
00000020
00000000
00000130
00000001
00001000
00000001
,
00000020
00000000
00000130
00000010
00002000
00000000
00023000
00000000
,
00000000
00031000
00200000
00000000
01300000
10000000
00020000
00000000
,
01030000
00001000
00011000
00020000
,
00000000
00000010
00001000
00000100
,
00001000
00030010
00000000
00002000
,
00000000
00100000
00010000
01000000
,
00010000
00000000
00000000
00000000
00103000
00000000
00000000
00000000
00000000
00000000
00000000
00000000
00022000
00033000
00000000
00000000
;

//--------------- dance-double - Extraordiberry ----------------
#NOTEDATA:;
#STEPSTYPE:dance-double;
#DESCRIPTION:Extraordiberry;
#DIFFICULTY:Hard;
#METER:15;
#RADARVALUES:0,0,0,0,0;
#CREDIT:Extraordiberry;
#NOTES:
00000000
00000000
00000000
00000000
,
00000000
00000000
00000000
00000000
,
00000000
00000000
00000000
00000000
,
00000000
00000000
00000000
00000000
,
00000000
00000000
00000000
00000000
,
00000000
00000000
00000000
00000000
,
00020000
00000000
00031000
00020000
00100000
00000000
00031000
00010000
,
00100000
00020000
00001000
00000000
00130000
00010000
00001000
00000000
,
00002000
00000000
00013000
00002000
00000010
00000000
00013000
00001000
,
00000010
00000001
00001000
00000000
00000101
00000010
00001010
00000000
,
00011000
00000000
00010000
00100000
01000000
00000000
01000000
00100000
,
00010000
00001000
00010000
01000000
00100000
00000000
00010000
10000000
,
00100000
00000000
00100000
10000000
00010000
00200000
00000000
00300000
,
01000000
00010000
00001000
00010000
00100000
00000000
00010000
00001000
,
00011000
00000000
00001000
00000010
00000001
00001000
00000001
00000000
,
00000001
00000010
00001000
00010000
00000010
00000000
00010000
00001000
,
00010000
00000000
00010000
00000000
00100000
00000000
00100000
00000000
10000000
00010000
10000000
00000000
01000000
00100000
01000000
00000000
,
00010000
00001000
00010000
00001000
00010000
00001000
00010000
00001000
00020000
00030000
00000000
00000000
00011000
00000000
00000000
00000000
,
00001000
00000010
00000100
00000000
00000100
00000010
00001000
00010000
,
00001000
00000100
00000010
00000000
00001000
00000001
00000010
00000000
,
00000010
00000000
00000010
00000000
00000001
00000000
00000001
00000000
00001000
00000000
00000000
00000000
00000001
00000100
00000001
00000100
,
00000010
00001000
00000010
00001000
00000001
00000000
00000000
00000000
00000100
00000000
00001000
00000000
00011000
00000000
00000000
00000000
,
00010000
00100000
10000000
00010000
10000000
00000000
10000000
00100000
,
00010000
00000000
00001000
00000000
00100000
00000000
00000000
00000000
00001000
00000000
00010000
00000000
00100000
10000000
00100000
00000000
,
10000000
00010000
10000000
00000000
01000000
10000000
01000000
00000000
00100000
00010000
00100000
00000000
00001000
00010000
00001000
00010000
,
00000100
00001000
00000100
00001000
00000001
00000000
00000000
00000000
00001001
00000000
00000000
00000000
00012000
00000000
00000000
00000000
,
00013000
00002000
00000100
00000000
00013000
00001000
00000100
00002000
,
00010000
00000000
00003100
00001000
00010000
00000000
00020000
00000000
,
00031000
00000000
00020000
00000000
01000000
00000000
00000000
00000000
00031000
00000000
00010000
00000000
01000000
00000000
00000000
10000000
,
00010000
00000000
01000000
00000000
00010000
01000000
00001000
00010000
00001000
00000000
00000000
00000000
00011000
00000000
00000000
00000000
,
00001100
00000000
00001000
00000001
00000010
00001000
00010000
00001000
,
00000100
00000001
00001000
00000000
00001001
00000000
00000101
00000000
,
00001010
00000000
00000010
00000100
00001000
00001000
00010000
00001000
,
00000010
00000001
00001000
00000000
00000010
00010000
00011000
00000000
,
01010000
00000000
01000000
00100000
10000000
00000000
10000000
00100000
,
01000000
00000000
00100000
00000000
00010000
00000000
00000000
00000000
00001000
00000000
00010000
00000000
00001000
00000010
00001000
00000000
,
00000010
00000100
00000010
00000000
00000001
00001000
00000001
00000000
00000100
00000010
00000100
00000000
00001000
00010000
00001000
00010000
,
00001000
00010000
00001000
00010000
00002000
00003000
00000000
00000000
00011000
00000000
00000000
00000000
10010000
00000000
00000000
00000000
,
00010000
10000000
01000000
00010000
00001000
00010000
00100000
00010000
,
10000000
20010000
31000000
01010000
,
00010000
00000000
10000000
00000000
01000000
00000000
10000000
00000000
00010000
00100000
00010000
00100000
00001000
00010000
00001000
00010000
,
00000100
00001000
00000100
00001000
00000001
00000100
00000001
00000100
00000010
00000000
00000000
00000000
00000101
00000000
00000000
00000000
,
00000100
00001000
00010000
00000000
00010000
00001000
00000010
00001000
,
00000001
00000000
00000000
00000000
00000100
00001000
00000001
00000000
00000100
00000001
00000100
00000001
00001000
00000010
00001000
00000010
,
00010000
00001000
00010000
00001000
01000000
00010000
01000000
00010000
10000000
00000000
01000000
00000000
00010000
00000000
00001000
00000000
,
02000000
00000000
00000000
00000000
00000000
00000000
00000000
00000000
03010000
00000000
00000000
10000000
01000000
00000000
11000000
00000000
,
00000000
00100000
00010000
00000000
00110000
00000000
00000000
00001000
00000100
00000000
00001100
00000000
00000000
00000010
00000001
00000000
,
00000012
00000000
00001003
00000000
00000001
00000100
00001000
00010000
,
00100000
10000000
00010000
00100000
MMMM0000
00000000
MMMM0000
00000000
,
MMMM0000
00000000
00001000
00010000
00100000
00010000
00001000
00010000
,
00100000
00010000
00001000
00010000
00100000
10000000
00010000
00100000
,
00001000
00000000
00010000
00001000
00000010
00001000
00010000
00001000
,
00000010
00001000
00010000
00001000
00000010
00000001
00001000
00000010
,
00010000
00000000
00001000
00010000
00100000
00010000
10000000
00010000
,
00100000
00010000
00001000
00010000
00100000
00010000
10000000
01000000
,
00001000
00000000
00010000
00001000
00000010
00001000
00000001
00001000
,
00000010
00001000
00010000
00001000
00000010
00001000
00000001
00000100
,
00020000
00000000
00031000
00000000
00001000
00010000
00100000
01000000
,
00001000
00000000
00010000
00000000
00100000
00000000
10000000
00000000
01000000
10000000
01000000
10000000
00010000
00100000
00010000
00100000
,
00001000
00010000
00001000
00010000
00000100
00001000
00000100
00001000
00000020
00000000
00000000
00000000
00000000
00000000
00000000
00000000
,
00000000
00000000
00010030
00012000
,
00013000
00002000
00000010
00000000
00013000
00001000
00000010
00002000
,
00010000
00000000
00003010
00001000
00010000
00000000
00020000
00000000
,
00031000
00020000
00100000
00000000
00031000
00010000
00100000
10000000
,
00010000
00000000
11000000
00100000
00110000
00000000
00021000
00000000
,
00130000
00020000
10000000
00000000
00130000
00010000
10000000
00020000
,
00100000
00000000
10030000
00010000
00100000
00000000
00012000
00000000
,
00003010
00002000
00000001
00000000
00003010
00001000
00000001
00000100
,
00001000
00000000
00000101
00000110
00001010
00000000
00021000
00000000
,
00000000
10030000
02000000
00000000
03010000
10000000
01000000
00020000
,
00001000
00000000
01030000
00010000
00001000
00000000
00012000
00000000
,
00000000
00003001
00000200
00000000
00001300
00000001
00000200
00000000
,
00002300
00000000
00000000
00000000
00020000
00000000
00000000
00000000
00033000
00000000
00000000
00000000
00022000
00033000
00000000
00000000
;
