#VERSION:0.83;
#TITLE:Big Shot Remix;
#SUBTITLE:;
#ARTIST:emamouse;
#TITLETRANSLIT:;
#SUBTITLETRANSLIT:;
#ARTISTTRANSLIT:;
#GENRE:pipis;
#CREDIT:;
#MUSIC:Big Shot Remix.ogg;
#BANNER:Big Shot Remix.png;
#BACKGROUND:Big Shot Remix-bg.png;
#CDTITLE:;
#SAMPLESTART:54.583;
#SAMPLELENGTH:15.000;
#SELECTABLE:YES;
#OFFSET:0.000;
#BPMS:0.000=180.000;
#STOPS:;
#TIMESIGNATURES:0.000=4=4;
#BGCHANGES:4.000=Big Shot Remix.mp4=1.000=0=0=0=StretchNoLoop====,
99999.000=-nosongbg-=1.000=0=0=0=StretchNoLoop====
;
#FGCHANGES:;

//--------------- dance-single - Extraordiberry ----------------
#NOTEDATA:;
#STEPSTYPE:dance-single;
#DESCRIPTION:Extraordiberry;
#DIFFICULTY:Beginner;
#METER:3;
#RADARVALUES:0,0,0,0,0;
#CREDIT:Extraordiberry;
#NOTES:
0000
0000
0000
0000
,
0000
0000
0000
0000
,
0000
0000
0000
0000
,
0000
0000
0000
0000
,
0000
0000
0000
0000
,
1000
0000
0000
0000
,
0000
0000
0000
0000
,
0001
0000
0000
0000
,
0000
0000
0000
0000
,
1000
0000
0000
0000
,
0010
0000
0000
0000
,
0100
0000
0000
0000
,
0001
0000
0000
0000
,
1000
0000
0000
0000
,
0100
0000
0000
0000
,
0010
0000
0000
0000
,
0001
0000
0001
0000
,
1000
0000
0000
0000
,
0010
0000
0000
0000
,
0100
0000
0000
0000
,
0001
0000
0000
0000
,
1000
0000
0000
0000
,
0100
0000
0000
0000
,
0010
0000
0000
0000
,
0001
0000
0001
0000
,
1000
0000
0000
0000
,
0000
0000
0000
0000
,
0000
0000
0000
0000
,
0000
0000
0000
0000
,
0001
0000
0000
0000
,
0000
0000
0000
0000
,
0100
0000
0000
0000
,
0000
0000
0000
0000
,
0010
0000
0000
0000
,
0000
0000
0000
0000
,
0000
0000
0000
0000
,
0000
0000
0000
0000
,
1000
0000
0000
0000
,
0000
0000
0000
0000
,
0001
0000
0001
0000
,
1000
0000
0000
0000
,
0001
0000
0000
0000
,
0001
0000
0000
0000
,
1000
0000
0000
0000
,
1000
0000
0000
0000
,
0010
0000
0000
0000
,
0010
0000
0000
0000
,
0100
0000
0000
0000
,
0100
0000
0100
0000
,
0001
0000
0000
0000
,
0001
0000
0000
0000
,
0010
0000
0000
0000
,
0010
0000
0000
0000
,
0100
0000
0000
0000
,
0100
0000
0000
0000
,
1000
0000
0000
0000
,
1000
0000
1000
0000
,
0001
0000
0000
0000
,
0100
0000
0000
0000
,
0010
0000
0000
0000
,
1000
0000
0001
0000
,
1000
0000
0000
0000
,
0100
0000
0000
0000
,
0010
0000
0000
0000
,
0001
0000
0001
0000
,
1000
0000
0000
0000
,
0010
0000
0000
0000
,
0100
0000
0000
0000
,
0001
0000
1000
0000
,
0001
0000
0000
0000
,
0010
0000
0000
0000
,
0100
0000
0000
0000
,
1000
0000
1000
0000
;

//--------------- dance-single - Extraordiberry ----------------
#NOTEDATA:;
#STEPSTYPE:dance-single;
#DESCRIPTION:Extraordiberry;
#DIFFICULTY:Easy;
#METER:6;
#RADARVALUES:0,0,0,0,0;
#CREDIT:Extraordiberry;
#NOTES:
0000
0000
0000
0000
,
0000
0000
0000
0000
,
0000
0000
0000
0000
,
0000
0000
0000
0000
,
0000
0000
0000
0000
,
2000
0000
0000
3000
,
0002
0000
0000
0003
,
0200
0000
0000
0300
,
0010
0000
1000
0001
,
1000
0000
0100
0000
,
0010
0010
0010
0000
,
0001
0000
0100
0000
,
0010
0010
0010
0000
,
1000
0000
0001
0000
,
0010
0010
0010
0000
,
0100
0000
1000
0000
,
0001
0100
0010
0010
,
1000
0000
0100
0000
,
0010
0010
0010
0000
,
0001
0000
0100
0000
,
0010
0010
0010
0000
,
1000
0000
0001
0000
,
0010
0010
0010
0000
,
0100
0000
1000
0000
,
0001
0100
0010
0010
,
2000
0000
0000
0000
,
0000
0000
0000
0000
,
0000
0000
0000
0000
,
0000
3000
0000
0001
,
0020
0000
0000
0000
,
0000
0000
0030
0000
,
0200
0000
0000
0000
,
0000
0000
0300
0000
,
2000
0000
0000
0000
,
0000
0000
0000
0000
,
0000
0000
0000
0000
,
0000
0000
3000
0000
,
2002
0000
0000
0000
,
0000
0000
3003
0000
,
0001
0001
1000
1000
,
0002
0000
1003
0000
,
0001
0100
0010
0000
,
0100
0001
1000
0000
,
0001
0010
0100
0000
,
0010
0001
1000
0000
,
0001
0100
0010
0000
,
0100
0001
1000
0000
,
0100
0010
0001
0000
,
1000
1000
0001
0001
,
1000
0010
0100
0000
,
0010
1000
0001
0000
,
1000
0100
0010
0000
,
0100
1000
0001
0000
,
0100
0010
1000
0000
,
0001
1000
0010
0000
,
1000
0100
0010
0000
,
0001
0001
1000
1000
,
0001
0100
1000
0000
,
0100
0001
1000
0000
,
0001
0010
1000
0000
,
0010
0001
1000
0000
,
0001
0100
1000
0000
,
0100
0001
1000
0000
,
0001
0010
1000
0000
,
0010
0010
0001
0001
,
1000
0001
0100
0000
,
1000
0100
0001
0000
,
1000
0100
0001
0000
,
0100
1000
0001
0000
,
1000
0010
0001
0000
,
0010
1000
0001
0000
,
1000
0100
0001
0000
,
1000
0010
0001
1000
;

//--------------- dance-single - Extraordiberry ----------------
#NOTEDATA:;
#STEPSTYPE:dance-single;
#DESCRIPTION:Extraordiberry;
#DIFFICULTY:Medium;
#METER:9;
#RADARVALUES:0,0,0,0,0;
#CREDIT:Extraordiberry;
#NOTES:
0000
0000
0000
0000
,
0000
0000
0000
0000
,
0000
0000
0000
0000
,
0000
0000
0000
0000
,
0000
0000
0000
0000
,
2000
0000
0000
3000
,
0002
0000
0000
0003
,
0200
0000
0000
0300
,
0010
0000
0100
0000
0001
1000
0001
0000
,
2000
0000
3100
0020
0000
0230
0000
0300
,
1000
0001
1000
0001
0200
0000
0300
0000
,
0002
0000
0013
0200
0000
0320
0000
0030
,
0001
1000
0001
1000
0020
0000
0030
0000
,
2000
0000
3100
0020
0000
0230
0000
0300
,
1000
0001
1000
0001
0200
0000
0300
0000
,
0002
0000
0013
0200
0000
0320
0000
0030
,
0001
0001
0001
0000
1000
1000
1000
0000
,
0002
0000
0103
0020
0000
0230
0000
0300
,
0001
1000
0001
1000
0200
0000
0300
0000
,
2000
0000
3010
0200
0000
0320
0000
0030
,
1000
0001
1000
0001
0020
0000
0030
0000
,
0002
0000
0103
0020
0000
0230
0000
0300
,
0001
1000
0001
1000
0200
0000
0300
0000
,
2000
0000
3010
0200
0000
0320
0000
0030
,
1000
1000
1000
0000
0001
0001
0001
0000
,
2002
0000
0000
0000
,
0000
0000
0000
0000
,
0000
0000
0000
0000
,
0000
3003
0000
1100
,
0022
0000
0000
0000
,
0000
0000
0033
0000
,
0202
0000
0000
0000
,
0000
0000
0303
0000
0000
0001
0000
0100
,
0020
0000
0000
0000
,
0000
0000
0000
0000
,
0000
0000
0000
0000
,
0000
0000
0030
0000
0000
1000
0000
0100
,
0020
0000
0000
0000
,
0000
0000
0030
0000
,
0001
1000
0001
0000
0001
1000
0001
0000
,
1000
0100
0010
0001
2000
0000
3000
0000
,
1001
0000
0000
0110
0000
0000
1001
0000
,
1000
0000
0001
0100
0010
0000
0100
0000
,
0110
0000
0000
1001
0000
0000
0110
0000
,
0001
0000
1000
0100
0010
0000
0001
0000
,
1001
0000
0000
0110
0000
0000
1001
0000
,
0001
0000
1000
0010
0100
0000
0010
0000
,
0110
0000
0000
1001
0000
0000
0110
0000
,
1000
0000
1000
0000
0001
0010
0100
0000
,
1001
0000
0000
0110
0000
0000
1001
0000
,
1000
0000
0001
0100
0010
0000
0100
0000
,
0110
0000
0000
1001
0000
0000
0110
0000
,
1000
0000
0100
0010
0001
0000
1000
0000
,
1001
0000
0000
0110
0000
0000
1001
0000
,
0001
0000
1000
0010
0100
0000
0010
0000
,
0110
0000
0000
1001
0000
0000
0110
0000
,
0001
0000
0001
0000
1000
0001
1000
0000
,
1100
0000
0000
0011
0000
0000
1100
0000
,
1000
0000
0001
0100
0010
0000
1000
0000
,
0101
0000
0000
1010
0000
0000
0101
0000
,
0001
0000
1000
0100
0010
0000
0001
0000
,
1100
0000
0000
0011
0000
0000
1100
0000
,
1000
0000
0001
0100
0010
0000
1000
0000
,
0101
0000
0000
1010
0000
0000
0101
0000
,
0001
0000
0001
0000
1000
0001
1000
0000
,
0011
0000
0000
1100
0000
0000
0011
0000
,
0001
0000
1000
0010
0100
0000
0001
0000
,
1010
0000
0000
0101
0000
0000
1010
0000
,
1000
0000
0100
0010
0001
0000
1000
0000
,
0011
0000
0000
1100
0000
0000
0011
0000
,
0001
0000
0100
0010
1000
0000
0001
0000
,
1100
0000
0000
0101
0000
0000
0011
0000
,
0001
0000
0001
0100
0010
1000
0001
0010
;

//--------------- dance-single - Extraordiberry ----------------
#NOTEDATA:;
#STEPSTYPE:dance-single;
#DESCRIPTION:Extraordiberry;
#DIFFICULTY:Hard;
#METER:13;
#RADARVALUES:0,0,0,0,0;
#CREDIT:Extraordiberry;
#NOTES:
0000
0000
0000
0000
,
0000
0000
0000
0000
,
0000
0000
0000
0000
,
0000
0000
0000
0000
,
0000
0000
0000
0000
,
1000
0000
1000
0000
1000
0000
1000
0001
,
0010
0000
0010
0000
0010
0000
0010
0100
,
1000
0000
1000
0000
1000
0000
1000
0010
,
0100
0000
0000
0000
0100
0000
0000
0000
0001
0000
1000
0000
0001
1000
0001
0000
,
0020
0000
0130
0020
0000
0130
1000
0001
,
0200
0000
0000
0000
0310
0000
1000
0000
0100
0000
0000
0000
1000
0001
1000
0000
,
0020
0000
0130
0020
0000
0130
0001
1000
,
0200
0000
0000
0000
0310
0000
0001
0000
1000
0000
0000
0000
0001
1000
0001
0000
,
0200
0000
0310
0200
0000
0310
1000
0001
,
0020
0000
0000
0000
0130
0000
1000
0000
0010
0000
0000
0000
1000
0001
1000
0000
,
0200
0000
0301
0200
0000
1300
0001
1000
,
0010
0000
0100
0000
0010
0000
0100
0000
0001
0000
1000
0000
0001
1000
0001
0000
,
0010
0100
1000
0100
0010
0002
0000
1003
,
0001
0000
0100
0000
1000
0000
0100
0000
0010
0000
0000
0000
1000
0001
1000
0000
,
0010
0100
0001
0100
0010
2000
0000
3001
,
1000
0000
0100
0000
0001
0000
0100
0000
0010
0000
0000
0000
0001
1000
0001
0000
,
0100
0010
1000
0010
0100
0002
0000
1003
,
0001
0000
0010
0000
1000
0000
0010
0000
0100
0000
0000
0000
1000
0001
1000
0000
,
0100
0010
0001
0010
0100
2000
0000
3001
,
1000
0000
0010
0000
0001
0000
0010
0000
0100
0000
1000
0000
0100
0000
0010
0100
,
0002
0000
0000
0000
,
0000
0000
0000
0003
,
2000
0000
0000
0000
,
0000
0000
3000
1001
,
0220
0000
0000
0000
,
0000
0000
0330
0000
,
2002
0000
0000
0000
,
0000
0000
0000
3003
0000
1000
0000
1000
,
2200
0000
0000
0000
,
0000
0000
3300
0000
,
0022
0000
0000
0000
,
0000
0000
0000
0033
0000
0001
0000
0001
,
0202
0000
0000
0000
,
0000
0000
0303
0000
,
0001
1000
0010
0000
0010
1000
0001
0000
,
1000
0000
0100
0000
0010
0000
0001
0000
0000
1000
0000
0000
0002
0000
0000
0000
0000
0000
0000
0000
0000
0000
0000
0000
,
1003
1000
0010
0100
0100
0001
1000
0100
,
0002
0000
1003
0010
0002
0000
0103
0000
,
0001
0001
0010
0100
0100
1000
0001
0100
,
2000
0000
3001
0010
2000
0000
3001
0010
,
0001
0001
0100
0010
0010
1000
0001
0010
,
2000
0000
3001
0100
2000
0000
3010
0000
,
1000
1000
0100
0010
0010
0001
1000
0010
,
0110
0000
1001
0000
0001
1000
0100
1000
,
0001
0001
0100
0010
0010
0100
1000
0001
,
0020
0000
1030
0001
0020
0000
0130
0000
,
1000
1000
0100
0010
0010
0100
0001
1000
,
0020
0000
0031
1000
0020
0000
1030
0100
,
1000
1000
0010
0100
0100
0010
0001
1000
,
0200
0000
0301
1000
0200
0000
0310
0000
,
0001
0001
0010
1000
1000
0010
0100
0010
,
0011
0000
1100
0000
0001
1000
0010
1000
,
0001
0001
1000
0100
0100
0001
1000
0010
,
0100
1000
0001
0100
0020
0000
1030
0100
,
1000
1000
0001
0100
0100
1000
0001
0010
,
0100
0001
1000
0100
0020
0000
0031
1000
,
0001
0001
1000
0010
0010
0001
1000
0100
,
0010
1000
0001
0010
0200
0000
1300
0001
,
1000
1000
0010
0001
0001
0010
1000
0001
,
1001
0000
0110
0000
1000
0100
0001
0100
,
1000
1000
0001
0100
0100
1000
0001
0010
,
0100
0001
0010
0100
2000
0000
3001
0010
,
0001
0001
1000
0100
0100
0001
1000
0010
,
0100
1000
0010
0100
0002
0000
1003
0001
,
1000
1000
0001
0010
0010
1000
0001
0100
,
0010
0000
0001
0000
0100
0000
0010
0000
1000
0001
1000
0000
0001
0000
0100
0000
,
0001
0001
0010
1000
1000
0010
0001
1000
,
0001
0100
0001
0000
1000
0010
1000
0000
0001
0000
1000
0000
1001
0000
0001
0000
;

//--------------- dance-double - Extraordiberry ----------------
#NOTEDATA:;
#STEPSTYPE:dance-double;
#DESCRIPTION:Extraordiberry;
#DIFFICULTY:Easy;
#METER:6;
#RADARVALUES:0,0,0,0,0;
#CREDIT:Extraordiberry;
#NOTES:
00000000
00000000
00000000
00000000
,
00000000
00000000
00000000
00000000
,
00000000
00000000
00000000
00000000
,
00000000
00000000
00000000
00000000
,
00000000
00000000
00000000
00000000
,
00020000
00000000
00000000
00030000
,
00002000
00000000
00000000
00003000
,
00020000
00000000
00000000
00030000
,
00001000
00000000
00010000
00001000
,
00010000
00000000
00000100
00000000
,
00001000
00001000
00001000
00000000
,
00000001
00000000
00000100
00000000
,
00000010
00000010
00000010
00000000
,
00010000
00000000
00001000
00000000
,
01000000
01000000
01000000
00000000
,
00010000
00000000
10000000
00000000
,
01000000
01000000
00100000
00100000
,
00001000
00000000
00010000
00000000
,
00000100
00000100
00000100
00000000
,
00001000
00000000
00000001
00000000
,
00000100
00000100
00000100
00000000
,
00001000
00000000
00010000
00000000
,
00001000
00001000
00001000
00000000
,
01000000
00000000
00010000
00000000
,
10000000
10000000
01000000
01000000
,
00200000
00000000
00000000
00000000
,
00000000
00000000
00000000
00000000
,
00000000
00000000
00000000
00000000
,
00000000
00000000
00300000
00000000
,
00002000
00000000
00000000
00000000
,
00000000
00000000
00003000
00000000
,
00020000
00000000
00000000
00000000
,
00000000
00000000
00030000
00000000
,
00000020
00000000
00000000
00000000
,
00000000
00000000
00000000
00000000
,
00000000
00000000
00000000
00000000
,
00000000
00000000
00000030
00000000
,
00002000
00000000
00000000
00000000
,
00000000
00000000
00003000
00000000
,
00000001
00000001
00001000
00001000
,
00000001
00000000
00001001
00000000
,
00000001
00000100
00000010
00000000
,
00010000
00001000
00010000
00000000
,
00001000
01000000
00010000
00000000
,
10000000
00010000
10000000
00000000
,
01000000
00100000
00001000
00000000
,
00010000
00001000
00010000
00000000
,
00001000
00010000
00000100
00000000
,
00001000
00001000
00000001
00000001
,
00001000
00000010
00010000
00000000
,
00001000
00010000
00001000
00000000
,
01000000
00010000
10000000
00000000
,
00010000
10000000
00010000
00000000
,
00100000
00001000
00010000
00000000
,
00001000
00010000
00001000
00000000
,
00010000
00000010
00001000
00000000
,
00000001
00000001
00001000
00001000
,
00000001
00000100
00000010
00000000
,
00010000
00001000
00010000
00000000
,
00100000
10000000
00010000
00000000
,
10000000
00010000
10000000
00000000
,
01000000
00100000
00001000
00000000
,
00010000
00001000
00010000
00000000
,
00100000
10000000
00010000
00000000
,
10000000
10000000
00010000
00010000
,
10000000
01000000
00100000
00000000
,
00001000
00010000
00001000
00000000
,
00000010
00000001
00001000
00000000
,
00000001
00001000
00000001
00000000
,
00000100
00000010
00010000
00000000
,
00001000
00010000
00001000
00000000
,
00000010
00000001
00001000
00000001
,
00000100
00001000
00010000
00001000
;

//--------------- dance-double - Extraordiberry ----------------
#NOTEDATA:;
#STEPSTYPE:dance-double;
#DESCRIPTION:Extraordiberry;
#DIFFICULTY:Medium;
#METER:9;
#RADARVALUES:0,0,0,0,0;
#CREDIT:Extraordiberry;
#NOTES:
00000000
00000000
00000000
00000000
,
00000000
00000000
00000000
00000000
,
00000000
00000000
00000000
00000000
,
00000000
00000000
00000000
00000000
,
00000000
00000000
00000000
00000000
,
00020000
00000000
00000000
00030000
,
00002000
00000000
00000000
00003000
,
02000000
00000000
00000000
03000000
,
00010000
00000000
10000000
00000000
00010000
10000000
00010000
00000000
,
20000000
00000000
31000000
00200000
00000000
01300000
00000000
00000000
,
00100000
00000000
00001000
00010000
00001000
00000000
00010000
00000000
,
00002000
00000000
00013000
00000020
00000000
00001030
00000000
00000000
,
00000001
00000000
00001000
00000001
00001000
00000000
00000001
00000000
,
00002000
00000000
00003010
00000200
00000000
00000310
00000000
00000000
,
00010000
00000000
00001000
00010000
00001000
00000000
00010000
00000000
,
00200000
00000000
01300000
00200000
00000000
10300000
00000000
00000000
,
00010000
10000000
01000000
00000000
10000000
01000000
00010000
00000000
,
00002000
00000000
00013000
00000020
00000000
00001030
00000010
00000000
,
00001000
00000000
00000001
00000100
00000010
00000000
00010000
00000000
,
00002000
00000000
00013000
00002000
00000000
01003000
00010000
00000000
,
10000000
00000000
01000000
00100000
00010000
00000000
00100000
00000000
,
00002000
00000000
00013000
00000200
00000000
00001300
00000001
00000000
,
00001000
00000000
00000001
00000100
00000010
00000000
00010000
00000000
,
00002000
00000000
00013000
00002000
00000000
00103000
00010000
00000000
,
10000000
00010000
00100000
00000000
00010000
10000000
01000000
00010000
,
00002000
00000000
00000000
00000000
,
00000000
00000000
00000000
00000000
,
00000000
00000000
00000000
00000000
,
00000000
00000000
00003000
00000010
,
00000002
00000000
00000000
00000000
,
00000000
00000000
00000000
00000003
,
00002000
00000000
00000000
00000000
,
00000000
00000000
00003000
00000000
00000000
00000001
00000000
00000100
,
00002000
00000000
00000000
00000000
,
00000000
00000000
00000000
00000000
,
00000000
00000000
00000000
00000000
,
00000000
00000000
00003000
00000000
00000000
00010000
00000000
00001000
,
02000000
00000000
00000000
00000000
,
00000000
00000000
00000000
03000000
,
00010000
10000000
00010000
00000000
00010000
10000000
00010000
00000000
,
10000000
01000000
00010000
00000000
00022000
00000000
00033000
00000000
,
00020000
00000000
00031000
00000020
00000000
00001030
00010000
00000000
,
00001000
00000000
00010000
00000100
00001000
00000000
00000001
00000000
,
00002000
00000000
00003001
00000200
00000000
00000301
00001000
00000000
,
00000001
00000000
00000100
00000010
00010000
00000000
00001000
00000000
,
00002000
00000000
00013000
00200000
00000000
00310000
00001000
00000000
,
00010000
00000000
00001000
01000000
00010000
00000000
10000000
00000000
,
00020000
00000000
10030000
02000000
00000000
13000000
00010000
00000000
,
10000000
01000000
00010000
00001000
,
00020000
00000000
00031000
00000020
00000000
00001030
00010000
00000000
,
00001000
00000000
00000010
00000100
00000010
00000000
00000001
00000000
,
00002000
00000000
00003100
00000002
00000000
00000103
00001000
00000000
,
00000001
00000000
00000100
00000010
00000100
00000000
00001000
00000000
,
00002000
00000000
00013000
00200000
00000000
00310000
00001000
00000000
,
00010000
00000000
00100000
01000000
00100000
00000000
10000000
00000000
,
00020000
00000000
01030000
20000000
00000000
31000000
00010000
00000000
,
10000000
01000000
00010000
00001000
,
00020000
00000000
00031000
00000200
00000000
00001300
00010000
00000000
,
00001000
00000000
00010000
00000010
00001000
00000000
00000001
00000000
,
00002000
00000000
00003100
00000002
00000000
00000103
00001000
00000000
,
00000001
00000000
00000010
00000100
00010000
00000000
00001000
00000000
,
00002000
00000000
00013000
02000000
00000000
03010000
00001000
00000000
,
00010000
00000000
00001000
00100000
00010000
00000000
10000000
00000000
,
00020000
00000000
01030000
20000000
00000000
31000000
00010000
00000000
,
10000000
00100000
00010000
00001000
,
00020000
00000000
00031000
00000200
00000000
00001300
00010000
00000000
,
00001000
00000000
00000010
00000100
00000010
00000000
00000001
00000000
,
00002000
00000000
00003010
00000002
00000000
00000013
00001000
00000000
,
00000001
00000000
00000010
00000100
00000010
00000000
00001000
00000000
,
00002000
00000000
00013000
02000000
00000000
03010000
00001000
00000000
,
00010000
00000000
00100000
01000000
00100000
00000000
10000000
00000000
,
00020000
00000000
00130000
20000000
00000000
30100000
00010000
00000000
,
10000000
00000000
00100000
00000000
00010000
00001000
00010000
00001000
;

//--------------- dance-double - Extraordiberry ----------------
#NOTEDATA:;
#STEPSTYPE:dance-double;
#DESCRIPTION:Extraordiberry;
#DIFFICULTY:Hard;
#METER:13;
#RADARVALUES:0,0,0,0,0;
#CREDIT:Extraordiberry;
#NOTES:
00000000
00000000
00000000
00000000
,
00000000
00000000
00000000
00000000
,
00000000
00000000
00000000
00000000
,
00000000
00000000
00000000
00000000
,
00000000
00000000
00000000
00000000
,
10020000
01000000
10000000
00100000
,
00032000
00000100
00000001
00000010
,
00023000
01000000
10000000
00100000
,
00031000
00000000
00000000
00000000
00000100
00000000
00000000
00000000
00010000
00000000
00010000
00000000
00001000
00010000
00001000
00000000
,
00020000
00000000
00031000
00000020
00000000
00001030
00000010
00000001
,
00002000
00000000
00003001
00000010
00001000
00000000
00010000
00010000
,
00002000
00000000
00013000
00200000
00000000
00310000
00100000
10000000
,
00020000
00000000
10030000
00100000
00010000
00000000
00001000
00001000
,
00020000
00000000
00031000
00000200
00000000
00001300
00000100
00000001
,
00002000
00000000
00003001
00000100
00001000
00000000
00010000
00010000
,
00002000
00000000
00013000
02000000
00000000
03010000
01000000
10000000
,
00010000
01000000
00010000
01000000
00001000
00010000
00001000
00010000
,
00002000
00000000
00013000
00200000
00000000
00310000
00100000
10000000
,
00010000
10000000
01000000
00010000
00001000
00000000
00010000
00001000
,
00020000
00000000
00031000
00000020
00000000
00001030
00000010
00000001
,
00001000
00000001
00000100
00001000
00010000
00000000
00001000
00010000
,
00002000
00000000
00013000
02000000
00000000
03010000
01000000
10000000
,
00010000
10000000
00100000
00010000
00001000
00000000
00010000
00001000
,
00020000
00000000
00031000
00000200
00000000
00001300
00000100
00000001
,
00001000
00000000
00000100
00000000
00001000
00000000
00000100
00000000
00010000
00000000
00001000
00000000
00010000
00000000
00001000
00010000
,
00002000
00000000
00000000
00000000
,
00000000
00000000
00000000
00003000
,
00020000
00000000
00000000
00000000
,
00000000
00000000
00030000
00011000
,
20020000
00000000
00000000
00000000
,
00000000
00000000
30030000
00000000
,
02200000
00000000
00000000
00000000
,
00000000
00000000
00000000
03300000
00000000
10000000
00000000
01000000
,
00020000
00000000
00000000
00000000
,
00000000
00000000
00000000
00030000
,
00002000
00000000
00000000
00000000
,
00000000
00000000
00000000
00003000
00000000
00000010
00000000
00000001
,
00002000
00000000
00000000
00000000
,
00000000
00000000
00000000
00003000
,
00000001
00000100
00001000
00000000
00001000
00000100
00000001
00000000
,
00000001
00000010
00000100
00010000
00002000
00000000
00000000
00000000
,
00013000
00001000
01000000
00001000
00010000
00100000
10000000
00010000
,
20000000
00000000
31000000
00100000
00001000
00000000
00010000
00000000
,
00001000
00010000
00000100
00010000
00001000
00000010
00000001
00001000
,
00000002
00000000
00000103
00000010
00010000
00000000
00001000
00000000
,
00010000
00001000
00100000
00001000
00010000
01000000
10000000
00010000
,
20000000
00000000
30100000
01000000
00001000
00000000
00010000
00000000
,
00001000
00010000
00000010
00010000
00001000
00000100
00000001
00001000
,
00000100
00000000
00001100
00000000
00010000
00001000
00010000
00010000
,
00001000
00000010
00000100
00010000
00001000
00000010
00000100
00001000
,
00000002
00000000
00000103
00000010
00010000
00000000
00001000
00000000
,
00010000
00100000
01000000
00001000
00010000
00100000
01000000
00010000
,
20000000
00000000
31000000
00100000
00001000
00000000
00010000
00000000
,
00001000
00000100
00000010
00010000
00001000
00000100
00000010
00001000
,
00000002
00000000
00000013
00000100
00010000
00000000
00001000
00000000
,
00010000
01000000
00100000
00001000
00010000
01000000
00100000
00010000
,
10000000
00000000
00110000
00000000
00001000
00010000
00001000
00001000
,
00010000
00001000
00100000
00001000
00010000
00100000
10000000
00010000
,
00100000
00010000
10000000
00100000
00010000
00001000
00010000
00000000
,
00001000
00010000
00000010
00010000
00001000
00000010
00000001
00001000
,
00000010
00001000
00000001
00000010
00001000
00010000
00001000
00000000
,
00010000
00001000
01000000
00001000
00010000
01000000
10000000
00010000
,
01000000
00010000
10000000
01000000
00010000
00001000
00010000
00000000
,
00001000
00010000
00000100
00010000
00001000
00000100
00000001
00001000
,
00000100
00000000
00000000
00000000
00001100
00000000
00000000
00000000
00010000
00000000
00001000
00000000
00010000
00001000
00010000
00000000
,
00001000
00000010
00000100
00010000
00001000
00000010
00000100
00001000
,
00000001
00000100
00000010
00000100
00001000
00010000
00001000
00000000
,
00010000
00100000
01000000
00001000
00010000
00100000
01000000
00010000
,
10000000
01000000
00100000
01000000
00010000
00001000
00010000
00000000
,
00001000
00000100
00000010
00010000
00001000
00000100
00000010
00001000
,
00000001
00000000
00000010
00000000
00000100
00000000
00000010
00000000
00001000
00000000
00010000
00000000
00001000
00010000
00001000
00000000
,
00010000
00100000
01000000
00001000
00010000
00100000
01000000
00010000
,
10000000
01000000
00100000
00010000
00001000
00000100
00000010
00000001
;
