#VERSION:0.83;
#TITLE:Beggin' Like A Bitch;
#SUBTITLE:;
#ARTIST:Mayor Breslin;
#TITLETRANSLIT:;
#SUBTITLETRANSLIT:;
#ARTISTTRANSLIT:;
#GENRE:;
#ORIGIN:;
#CREDIT:;
#BANNER:Beggin' Like A Bitch.png;
#BACKGROUND:Beggin' Like A Bitch-bg.png;
#PREVIEWVID:;
#JACKET:Beggin' Like A Bitch-jacket.png;
#CDIMAGE:;
#DISCIMAGE:;
#LYRICSPATH:Beggin' Like A Bitch.lrc;
#CDTITLE:;
#MUSIC:Beggin’ Like A Bitch.ogg;
#OFFSET:0.937000;
#SAMPLESTART:31.051941;
#SAMPLELENGTH:12.000000;
#SELECTABLE:YES;
#DISPLAYBPM:120.000000;
#BPMS:0.000=119.950,
205.000=121.000,
208.000=120.000;
#STOPS:107.000=1.211,
125.000=1.020;
#DELAYS:;
#WARPS:;
#TIMESIGNATURES:0.000=4=4;
#TICKCOUNTS:0.000=4;
#COMBOS:0.000=1;
#SPEEDS:0.000=1.000=0.000=0;
#SCROLLS:0.000=1.000;
#FAKES:;
#LABELS:0.000=Song Start;
#BGCHANGES:2.000=Beggin' Like A Bitch.avi=1.000=0=0=1=====,
99999=-nosongbg-=1.000=0=0=0 // don't automatically add -songbackground-
;
#KEYSOUNDS:;
#ATTACKS:
;

//---------------dance-single - ----------------
#NOTEDATA:;
#CHARTNAME:;
#STEPSTYPE:dance-single;
#DESCRIPTION:;
#CHARTSTYLE:;
#DIFFICULTY:Hard;
#METER:13;
#RADARVALUES:0.471205,0.598283,0.185703,0.185703,0.296240,373.000000,352.000000,21.000000,21.000000,0.000000,0.000000,0.000000,0.000000,0.000000,0.471205,0.598283,0.185703,0.185703,0.296240,373.000000,352.000000,21.000000,21.000000,0.000000,0.000000,0.000000,0.000000,0.000000;
#CREDIT:;
#DISPLAYBPM:120.000000;
#NOTES:
0000
0000
0000
0000
,
0000
0000
0000
0000
,
0000
0000
0000
0000
,
2001
0000
3100
0000
1000
0100
0010
0000
,
0002
0000
0103
0000
0001
0100
0010
0000
,
1000
0000
0010
0000
1000
0000
0000
0000
0001
0000
0010
0000
0001
1000
0001
0000
,
1000
1000
0010
0100
0100
0000
1010
0000
,
0001
0001
0010
0100
0100
0000
0011
0000
,
1000
1000
0001
0001
0100
1000
0100
0001
,
0010
0000
0010
0000
0100
0000
0100
0000
1000
0000
0001
0000
0100
0010
0100
0000
,
0020
1000
0001
0130
,
0200
0000
0000
0000
0001
0000
0000
0000
1000
0000
0000
0000
0310
0100
0010
0000
,
1000
0000
0100
0000
1000
0000
0100
0000
0001
0000
0000
0100
0000
0000
1000
0000
,
0001
0000
0100
0010
0000
0100
0020
0000
0000
0000
0000
0000
1030
0000
0000
0000
,
0001
0000
1000
0010
0000
1000
0010
0000
0100
0000
0001
0010
0000
0001
0010
0000
,
0100
0000
1000
0000
0001
0100
0000
0100
0010
0000
1000
0000
0001
0010
0001
0000
,
1000
1000
0100
0010
0010
0000
1100
0000
,
0001
0001
0100
0010
0010
0000
0101
0000
,
1000
1000
0001
0001
0010
1000
0010
0001
,
0100
0000
0100
0000
0010
0000
0010
0000
1000
0000
0001
0000
1000
0100
1000
0000
,
0002
0100
0010
1003
,
2100
0100
0010
3001
,
1000
0100
0010
0001
1000
0010
0100
0001
,
1000
0000
0001
0000
0100
0100
0010
0000
,
2002
3003
0002
0023
,
2030
3200
0302
1003
,
1001
0000
1000
0010
0001
0010
1000
0000
,
0000
0000
0000
0000
0001
0000
0010
0000
0001
0000
0010
0100
0000
0100
1000
0000
,
0001
1000
0010
0010
0100
0001
1000
0000
,
0001
0000
0100
0000
1000
0000
0100
0000
0001
0000
0010
0000
0100
1000
0000
0100
,
1000
0000
0001
0000
0100
0010
0100
0010
0100
0010
1000
0001
0000
0010
0000
0000
,
0000
0000
0000
0000
0110
0000
0000
0000
1001
0000
0000
0000
1000
0100
1000
0001
,
0100
0001
0000
0010
0000
0010
0000
0001
1000
0001
1000
0000
0000
0000
0001
0000
,
0001
0000
0100
0000
0010
1000
0100
1000
0000
0000
0000
0000
0001
0000
0010
0000
,
0001
0100
0300
0100
0000
0010
1000
0000
0001
0000
0010
0000
0100
1000
0000
0001
,
0100
0001
0000
1000
0000
0100
0000
0010
0000
0001
0100
0001
0000
0000
1000
0000
,
0001
0100
0000
1000
0000
0100
0000
0001
0000
1000
0100
0000
1000
0000
0010
0000
,
0001
0010
0000
1000
0000
0100
0000
0010
0000
0001
0000
0100
0000
0001
1000
0001
,
0010
0100
1000
0000
0001
0100
0001
0000
1000
0100
0000
0100
0000
1000
0010
0000
,
0100
0000
0001
0010
0000
0001
0100
0001
1000
0100
0010
0001
1000
0000
1000
0000
,
0100
0010
0010
0100
1001
0000
0001
0001
,
0100
0010
0010
0100
1001
0000
0001
0010
,
1000
0010
0100
0100
0010
0010
0001
0100
,
1000
0000
0100
0000
0001
0000
1000
0000
0001
1000
0001
0000
2000
0000
0010
0000
,
0001
0001
3001
0000
1001
0000
0002
0010
,
1000
1000
1003
0000
1001
0000
0001
0100
,
1000
0100
0010
0010
0100
0100
0001
0010
,
1000
0010
0001
1000
0010
0000
2001
0000
,
3100
0000
1000
0100
0010
0000
0001
0100
,
0010
0000
1000
0010
0100
0000
0002
0000
,
1003
0000
0001
0010
0100
1000
0020
0000
,
0130
2002
0000
0000
,
3003
0000
0000
0000
,
0000
0000
0000
0000
1001
0000
0101
1010
,
1100
0011
0000
0000
0000
0000
0000
0000
;

//---------------dance-single - ----------------
#NOTEDATA:;
#CHARTNAME:;
#STEPSTYPE:dance-single;
#DESCRIPTION:;
#CHARTSTYLE:;
#DIFFICULTY:Medium;
#METER:8;
#RADARVALUES:0.347403,0.382901,0.114959,0.282975,0.000000,275.000000,262.000000,13.000000,32.000000,0.000000,0.000000,0.000000,0.000000,0.000000,0.347403,0.382901,0.114959,0.282975,0.000000,275.000000,262.000000,13.000000,32.000000,0.000000,0.000000,0.000000,0.000000,0.000000;
#CREDIT:Ben Speirs;
#DISPLAYBPM:120.000000;
#NOTES:
0000
0000
0000
0000
,
0000
0000
0000
0000
,
0000
0000
0000
0000
,
1002
0000
0103
0000
0001
0100
0010
0000
,
2000
0000
3010
0000
1000
0100
0010
0000
,
0002
0000
0013
0000
0001
1000
0001
0000
,
1000
0100
1000
0100
1000
0000
0000
0000
,
0001
0100
0001
0100
0001
0000
0000
0000
,
1000
0010
1000
0000
0001
0010
0001
0000
,
1000
0100
0010
0001
0200
0000
0310
0000
,
2020
3030
1000
0001
,
0022
0033
0001
1000
,
0001
0100
0001
0000
1000
0100
1000
0000
,
0001
0010
0100
2000
0000
0000
3010
0000
,
1000
0010
1000
0000
0001
0100
0001
0000
,
1000
0100
0010
0001
0100
0000
0000
0000
,
0001
1000
0001
1000
0010
0000
0000
0000
,
1000
0001
1000
0001
0010
0000
0000
0000
,
0001
0010
0100
0000
1000
0100
0010
0000
,
0001
1000
0001
1000
0020
0000
0130
0000
,
0202
0303
0100
0010
,
2020
3030
0001
1000
,
0001
0010
0100
0000
1000
0010
0100
0000
,
0001
1000
0001
0000
0100
0100
0100
0000
,
2002
3003
0002
0023
,
2030
3200
0302
1003
,
1001
0000
0001
0100
0010
1000
0000
0000
,
0000
0000
0001
0010
0001
0010
0200
0000
,
1300
0000
0001
0100
0001
0200
0000
0000
,
0310
0000
1000
0010
1000
0000
0001
0010
,
0001
0000
1000
0100
0010
0001
0100
0100
,
0000
0000
1001
0000
0000
0000
0001
0100
,
0001
0100
0010
1000
0010
0010
0000
1000
,
0100
1000
0100
0010
0001
0000
1000
0010
,
1000
0000
0001
0010
0001
0000
1000
0100
,
0010
0001
1000
0010
0100
0000
0001
0100
,
0001
0100
1000
0100
0001
0000
1000
0100
,
1000
0100
0001
0100
1000
0000
0001
0100
,
0001
0000
1000
0010
1000
0000
0002
0000
,
0023
0000
0230
0000
1300
0000
0001
0100
,
0001
0100
0010
0000
0000
0000
1000
0100
,
1000
0100
0010
0000
0000
0000
0001
1000
,
0001
1000
0010
0100
0010
0100
0001
0010
,
0100
1000
0001
0000
0000
0000
1000
0100
,
1000
0100
0010
0000
0011
0000
0001
0100
,
0001
0100
0010
0000
1010
0000
1000
0010
,
1000
0010
0100
0001
0100
0001
1000
0100
,
0010
0001
2000
0000
3010
0000
2002
0000
,
3003
0001
0010
0100
,
1000
0000
0010
0000
0100
0001
1000
0000
,
0001
0000
0010
0000
0100
1000
0020
0000
,
0130
2002
0000
0000
,
3003
0000
0000
0000
,
0000
0000
0000
0000
1001
0000
1000
0100
,
0010
0001
0000
0000
0000
0000
0000
0000
;

//---------------dance-single - ----------------
#NOTEDATA:;
#CHARTNAME:;
#STEPSTYPE:dance-single;
#DESCRIPTION:;
#CHARTSTYLE:;
#DIFFICULTY:Easy;
#METER:5;
#RADARVALUES:0.216021,0.239313,0.150331,0.185703,0.000000,171.000000,154.000000,17.000000,21.000000,0.000000,0.000000,0.000000,0.000000,0.000000,0.216021,0.239313,0.150331,0.185703,0.000000,171.000000,154.000000,17.000000,21.000000,0.000000,0.000000,0.000000,0.000000,0.000000;
#CREDIT:Ben Speirs;
#DISPLAYBPM:120.000000;
#NOTES:
0000
0000
0000
0000
,
0000
0000
0000
0000
,
0000
0000
0000
0000
,
2002
3003
0001
0100
,
0020
0030
1000
0100
,
0020
0030
0001
1000
,
0010
0010
0010
0000
,
0100
0100
0100
0000
,
0001
0010
0100
1000
,
0010
0010
0010
0000
,
2000
3000
0100
0000
,
0020
0030
0001
0000
,
1000
0010
1000
1000
,
0001
0010
0010
0000
,
0001
0001
0010
0010
,
0001
0100
0100
0000
,
1001
0001
0010
0000
,
1001
1000
0010
0000
,
1001
0001
0100
0100
,
0010
0010
0010
0000
,
2000
3000
0001
0000
,
2000
3000
0010
0000
,
1000
0100
0010
0000
,
0001
0100
0010
0000
,
2002
3003
0010
0010
,
0010
1000
0001
0010
,
1001
0001
0100
0000
,
0000
1001
0001
0010
,
0000
0100
0100
0100
,
0000
1000
0010
0100
,
0001
0010
0000
0000
,
0000
1001
0000
0001
,
0100
0010
0010
0000
,
1000
0100
0000
1000
,
1000
0001
0001
1000
,
0010
0100
0000
0001
,
0010
0100
0100
1000
,
0010
0100
0100
0010
,
0010
1000
0100
0010
,
0010
0001
0000
1001
,
1000
0200
0300
1001
,
0001
0200
0300
1001
,
1000
0010
0010
0100
,
0100
0100
0000
1001
,
0001
0020
0030
1001
,
1000
0020
0030
1001
,
0001
0100
0100
0010
,
0010
0020
0030
2002
,
3003
1000
0100
0010
,
0000
0001
1000
0010
,
0000
0100
0100
0220
,
0330
2002
0000
0000
,
3003
0000
0000
0000
,
0000
0000
0001
1000
,
0100
0100
0000
0000
0000
0000
0000
0000
;

//---------------dance-single - ----------------
#NOTEDATA:;
#CHARTNAME:;
#STEPSTYPE:dance-single;
#DESCRIPTION:;
#CHARTSTYLE:;
#DIFFICULTY:Beginner;
#METER:2;
#RADARVALUES:0.112432,0.167132,0.017686,0.000000,0.000000,89.000000,87.000000,2.000000,0.000000,0.000000,0.000000,0.000000,0.000000,0.000000,0.112432,0.167132,0.017686,0.000000,0.000000,89.000000,87.000000,2.000000,0.000000,0.000000,0.000000,0.000000,0.000000,0.000000;
#CREDIT:Ben Speirs;
#DISPLAYBPM:120.000000;
#NOTES:
0000
0000
0000
0000
,
0000
0000
0000
0000
,
0000
0000
0000
0000
,
1000
0000
0000
0000
,
0010
0000
0000
0000
,
0100
0000
0000
0000
,
0001
0001
0000
0000
,
0010
0010
0000
0000
,
0100
0000
0100
0000
,
0100
0000
0000
0000
,
1000
0000
0000
0000
,
0010
0000
0000
0000
,
1000
0000
1000
0000
,
1000
0000
0000
0000
,
0100
0000
0100
0000
,
0100
0000
0000
0000
,
0010
0010
0000
0000
,
0001
0001
0000
0000
,
1000
0000
1000
0000
,
1000
1000
1000
0000
,
0010
0000
0000
0000
,
0100
0000
0000
0000
,
0001
0000
0001
0000
,
0001
0000
0000
0000
,
0010
0000
0000
0000
,
0100
0000
0100
0000
,
0100
0000
0000
0000
,
0000
1000
0000
1000
,
0000
1000
0000
0000
,
0000
0010
0000
0010
,
0000
0010
0000
0000
,
0000
1001
0000
0001
,
0001
0001
0001
0000
,
0000
0010
0000
0100
,
0000
0100
0000
0100
,
0000
0000
0000
1000
,
1000
1000
0000
1000
,
1000
1000
0000
0010
,
0000
0010
0000
0100
,
0000
0000
0000
0001
,
0001
0000
0000
0010
,
0010
0000
0000
0100
,
0000
0100
0000
1000
,
1000
1000
0000
1000
,
1000
0000
0000
0010
,
0010
0000
0000
0100
,
0000
0100
0000
0001
,
0001
0001
0000
0001
,
0000
0000
0000
0010
,
0000
0000
0000
0100
,
0000
0100
0000
0100
,
0000
1001
0000
0000
,
0000
0000
0000
0000
,
0000
0000
0010
0010
,
0010
0000
0000
0000
;

//---------------dance-double - ----------------
#NOTEDATA:;
#CHARTNAME:;
#STEPSTYPE:dance-double;
#DESCRIPTION:;
#CHARTSTYLE:;
#DIFFICULTY:Hard;
#METER:16;
#RADARVALUES:0.439623,0.646146,0.380248,0.256447,0.190124,348.000000,305.000000,43.000000,29.000000,16.000000,2.000000,0.000000,0.000000,0.000000,0.439623,0.646146,0.380248,0.256447,0.190124,348.000000,305.000000,43.000000,29.000000,16.000000,2.000000,0.000000,0.000000,0.000000;
#CREDIT:Ben Speirs & MrHeard;
#DISPLAYBPM:120.000000;
#NOTES:
// measure 0
00000000
00000000
00000000
00000000
,  // measure 1
00000000
00000000
00000000
00000000
,  // measure 2
00000000
00000000
00000000
00000000
,  // measure 3
00021000
00000010
00000001
00031000
,  // measure 4
00012000
00100000
10000000
00013000
,  // measure 5
00101000
00000000
00000000
00000000
00010010
00000000
00000000
00000000
00000110
00000000
00000000
00000000
00001000
00000001
00001000
00000000
,  // measure 6
00000001
00000010
00001000
00010000
01000000
00000000
11000000
00000000
,  // measure 7
10000000
00100000
00010000
00001000
00000100
00000000
00000101
00000000
,  // measure 8
00000001
00000010
00001000
00010000
00100000
10000000
01000000
00010000
,  // measure 9
00001000
00001000
00001000
00001000
00001000
00000000
00000000
00000000
,  // measure 10
00021000
00000001
00000010
00031000
,  // measure 11
00012000
10000000
00100000
00013000
,  // measure 12
00001000
00010000
00001000
00010000
00100000
00010000
00100000
00010000
,  // measure 13
01000000
00010000
00100000
00010000
00002000
00000000
00013000
00000000
,  // measure 14
00010000
00001000
00010000
00001000
00000010
00001000
00000010
00001000
,  // measure 15
00000100
00001000
00000010
00001000
00020000
00000000
00031000
00000000
,  // measure 16
00001000
10000000
01000000
00010000
00001000
00000000
00011000
00000000
,  // measure 17
00010000
00000001
00000100
00001000
00010000
00000000
00011000
00000000
,  // measure 18
00001000
10000000
01000000
00010000
00001000
00000010
00000001
00000100
,  // measure 19
00001000
00001000
00001000
00001000
00001000
00000000
00003000
00000000
,  // measure 20
00022000
00033000
00001000
00100000
,  // measure 21
20020000
30030000
10000000
00100000
,  // measure 22
10000000
00010000
10000000
00010000
00100000
00010000
00100000
00000000
,  // measure 23
00001000
00010000
00001000
00010000
00000010
00001000
00000010
00000000
,  // measure 24
00002002
00003003
00000002
00000023
,  // measure 25
00002030
00023000
02030000
13000000
,  // measure 26
10010000
00000000
10000000
00100000
00010000
00001000
00000100
00000000
,  // measure 27
00000000
00000000
00000001
00001000
00010000
10000000
00010000
00000000
,  // measure 28
10010000
00000000
10000000
00010000
00001000
00000001
00001000
00000000
,  // measure 29
00001001
00000000
00000001
00001000
00010000
10000000
00010000
00010000
,  // measure 30
10000000
10000000
00010000
00001000
00000001
00001000
00001000
00000000
,  // measure 31
00000000
00000000
00000000
00000000
00001001
00000000
00000000
00000000
00000000
00000000
00000000
00000000
00000001
00000100
00000100
00000100
,  // measure 32
00000100
00000100
00000000
00000010
00000000
00000010
00000000
00001000
00000100
00000000
00010000
00000000
00000000
00000000
00001000
00000000
,  // measure 33
00001000
00000000
00100000
00000000
00010000
01000000
01000000
01000000
00000000
00000000
00000000
00000000
00010000
00000000
10000000
00000000
,  // measure 34
00100000
00100000
00000000
00010000
00000000
01000000
01000000
00000000
10000000
00000000
00100000
00000000
01000000
00001000
00000000
00001000
,  // measure 35
00000000
00001000
00000000
00010000
00000000
00000100
00000000
00000010
00000000
00000001
00000000
00001000
00000010
00000000
00001010
00000000
,  // measure 36
00001000
00000100
00000000
00010000
00000000
00010000
00000000
00001000
00000000
00100000
00010000
00000000
10000000
00000000
10100000
00000000
,  // measure 37
00010000
01000000
00000000
00100000
00000000
10000000
00000000
01000000
00000000
00100000
00000000
00001000
00000000
00010000
00010000
00010000
,  // measure 38
00010000
00010000
00010000
00010000
00000100
00000000
00000100
00000000
00001000
00000010
00000000
00000010
00000000
00000100
00000010
00000000
,  // measure 39
00001000
00000000
00000001
00000010
00000000
00000100
00000100
00000100
00000100
00000100
00000100
00000100
00020000
00000000
00000001
00000000
,  // measure 40
00001000
00000001
00031000
00000000
MMMMMMMM
00000000
00002000
10000000
,  // measure 41
00010000
10000000
00013000
00000000
MMMMMMMM
00000000
00011000
00011000
,  // measure 42
00011000
00011000
00001001
00001001
00001001
00001001
00011000
00011000
,  // measure 43
00011000
00011000
20020000
00000000
30030000
00000000
10000000
10000000
,  // measure 44
00000100
00000010
00000001
00000000
00000011
00000000
00000001
00000001
,  // measure 45
01000000
00100000
10000000
00000000
10100000
00000000
00010000
00010000
,  // measure 46
00010000
00010000
00100000
00100000
00100000
00100000
10010000
00011000
,  // measure 47
00001001
00011000
20020000
00000000
30030000
00000000
20000000
00000000
,  // measure 48
01000000
01000000
01000000
00010000
,  // measure 49
00010000
00010000
00010000
00000010
,  // measure 50
00000010
00000010
00000010
00000002
,  // measure 51
30000003
20000002
00000000
00000000
,  // measure 52
00200020
00000000
00000000
00000000
,  // measure 53
00000000
00000000
30300033
00000000
00011000
00000000
10000000
00010000
,  // measure 54
00001000
00000001
00000000
00000000
00000000
00000000
00000000
00000000
;

//---------------dance-double - ----------------
#NOTEDATA:;
#CHARTNAME:;
#STEPSTYPE:dance-double;
#DESCRIPTION:;
#CHARTSTYLE:;
#DIFFICULTY:Medium;
#METER:1;
#RADARVALUES:0.000000,0.000000,0.000000,0.000000,0.000000,0.000000,0.000000,0.000000,0.000000,0.000000,0.000000,0.000000,0.000000,0.000000,0.000000,0.000000,0.000000,0.000000,0.000000,0.000000,0.000000,0.000000,0.000000,0.000000,0.000000,0.000000,0.000000,0.000000;
#CREDIT:;
#DISPLAYBPM:120.000000;
#NOTES:
// measure 0
00000000
00000000
00000000
00000000
;
