#TITLE:Bee My Honey;
#SUBTITLE:;
#ARTIST:Masayoshi Soken;
#TITLETRANSLIT:;
#SUBTITLETRANSLIT:;
#ARTISTTRANSLIT:;
#GENRE:;
#CREDIT:;
#MUSIC:Bee My Honey.ogg;
#BANNER:Bee My Honey BN.png;
#BACKGROUND:Bee My Honey BG.png;
#CDTITLE:;
#SAMPLESTART:0.000;
#SAMPLELENGTH:0.000;
#SELECTABLE:YES;
#OFFSET:-0.123;
#BPMS:0.000=155.000;
#STOPS:;
#BGCHANGES:;
#FGCHANGES:;

//--------------- dance-single - Minxyz ----------------
#NOTES:
     dance-single:
     Minxyz:
     Medium:
     12:
     0,0,0,0,0:
0000
0000
0000
0000
,
0000
0000
0000
0000
,
1000
0000
1000
0100
1000
0000
1000
0010
,
0001
0000
0010
0000
0000
1000
0000
0000
0100
0000
0000
0000
1000
0000
0000
0000
,
0001
0000
0001
0010
0001
0000
0001
0010
,
0000
0000
1000
0000
0000
0010
0000
0000
0001
0000
0000
0000
0100
0000
0000
0000
,
0010
0000
0010
0100
0010
0000
0010
1000
,
0000
0000
0100
0000
0000
0001
0000
0000
0100
0000
0000
0000
1000
0000
0000
0000
,
0100
0000
0100
0010
0100
0000
0100
1000
,
0000
0100
0010
0100
0010
0000
0000
0000
,
0000
0001
0010
0100
1000
0010
0100
0001
,
1000
0000
0001
0000
0000
0010
0000
0000
0110
0000
0000
0000
1000
0000
0000
0000
,
0000
1000
0100
0010
0001
0100
0010
1000
,
0001
0000
1000
0000
0000
0100
0000
0000
0110
0000
0000
0000
0001
0000
0000
0000
,
0000
0010
0001
0010
1000
0010
1000
0010
,
0001
0000
0010
0000
0000
0001
0000
0000
0100
0000
0000
0000
0110
0000
0000
0000
,
0000
1000
0100
0010
0100
1000
0001
1000
,
0000
0100
0010
0001
1001
0000
0000
0000
,
0000
1000
0010
0100
0001
0010
0100
1000
,
0010
0000
0100
0000
0001
0010
0000
0001
0000
0000
0000
0000
1001
0000
0000
0000
,
0000
0001
0100
0010
1000
0100
0010
0001
,
0100
0000
0010
0000
1000
0100
0000
1000
0000
0000
0000
0000
0001
0000
0000
0000
,
0000
0010
0001
1000
0020
0000
0130
0001
,
0100
0000
0010
0000
0100
0001
0000
0100
0000
0000
0000
0000
0110
0000
0000
0000
,
0010
0000
0010
1000
0100
0000
0010
0001
,
0000
1000
0100
0100
0110
0000
0001
0000
,
0001
0010
1000
0010
0000
0001
0000
0001
,
0100
0000
0000
0000
0010
0000
0000
0000
0000
1000
0000
0000
0000
0000
0000
0000
0000
0000
0001
0000
0000
0000
0000
0000
,
0001
0100
1000
0100
0000
0001
0010
0000
,
0001
0000
0010
0000
0100
0000
1000
0000
0010
0000
0100
0000
0001
1000
0001
0000
,
1000
0100
0001
0100
0000
1000
0000
1000
,
0010
0000
0000
0000
0100
0000
0000
0000
0000
0001
0000
0000
0000
0000
0000
0000
0000
0000
1000
0000
0000
0000
0000
0000
,
1000
0010
0001
0010
0000
1000
0100
0000
,
1000
0000
0100
0000
0010
0000
0001
0000
0100
0000
0010
0000
1000
0001
1000
0000
,
1000
0010
0100
0010
1000
1000
0001
0001
,
0000
1000
0001
2000
0000
0000
0000
0000
,
3000
1000
0010
0100
0001
0001
1000
1000
,
0000
1000
0001
2000
0000
0000
0000
0000
,
3000
0001
0100
0010
1000
1000
0100
0020
,
0000
0031
2000
0000
3010
0000
0000
1000
,
0010
0001
1000
0100
0001
0000
1001
0001
,
0010
1000
0001
0100
2000
0000
3000
0000
,
0000
0001
1000
0010
0100
1000
0100
0001
,
0000
0010
0010
0020
0000
0100
0100
0100
,
0030
0001
0001
0010
0100
0001
0100
1000
,
0000
0010
0010
0020
0000
0100
0100
0100
,
0030
1000
0010
0001
1000
0100
0001
0020
,
0000
0031
0010
1000
0000
0000
0010
0001
,
0100
0001
1000
0010
0001
0000
1001
0001
,
0100
1000
0001
0010
2000
0000
3001
0000
,
1000
0000
0000
0010
0000
0000
0100
0000
0001
0000
0000
0000
0011
0000
0000
0000
,
1001
0000
0000
0000
0000
0000
0101
0000
0000
0000
0000
0000
0001
0000
0000
0000
1000
0000
0000
0000
0000
0001
0000
0000
,
1000
0000
0100
0000
0010
0000
0000
0001
0100
0000
1000
0000
1000
0000
0000
0000
,
1000
0000
0100
0000
0001
0000
0010
0000
0100
0000
1000
0000
0010
0000
0100
0001
,
0100
0000
0000
0010
0000
0000
0100
0000
0001
0000
0000
0000
1010
0000
0000
0000
,
1001
0000
0000
0000
0000
0000
1100
0000
0000
0000
0000
0000
1000
0000
0000
0000
0001
0000
0000
0000
0000
1000
0000
0000
,
0001
0000
0100
0000
0010
0000
0000
0100
0001
0000
1000
0000
1000
0000
0001
0000
,
0100
0100
0100
0100
0100
0000
0110
0000
,
1001
0000
0000
1000
0010
0000
0000
1000
,
0010
1000
0100
1000
0001
0100
0100
0000
,
1001
0000
0000
0001
0100
0000
0000
0001
,
0100
0001
0010
0001
1000
0010
0010
0100
,
0001
0000
0000
0000
0110
0000
0000
0000
0100
0000
0000
0100
0000
0000
1000
0000
,
0000
1000
0000
0010
0000
0001
0010
1000
,
0100
0000
1001
0000
1000
0100
0000
0001
,
0000
0100
0000
1000
0000
0001
0100
0010
,
1000
0000
0000
0000
0110
0000
0000
0000
0010
0000
0000
0010
0000
0000
1000
0000
,
0000
0100
0000
0001
0000
1000
0010
0001
,
0100
0000
0000
0000
0000
0010
0001
1000
,
0100
0000
0000
0000
0000
0000
0000
0000
1000
0000
0100
0000
0001
0000
1000
0010
,
1000
0000
0000
0000
0110
0000
0000
0000
0010
0000
0000
0010
0000
0000
1000
0000
,
0000
1000
0000
0100
0000
0001
0100
1000
,
0010
0000
1001
0000
1000
0010
0000
0001
,
0000
0010
0000
1000
0000
0001
0010
0100
,
1000
0000
0000
0000
0110
0000
0000
0000
0100
0000
0000
0100
0000
0000
1000
0000
,
0000
0010
0000
0001
0000
1000
0100
0001
,
1001
0000
0000
1000
1100
0000
1000
0000
,
0110
0100
0000
0001
0101
0000
0100
0000
,
1001
0000
0000
0001
0010
0000
0000
0001
,
0010
0001
0100
0001
1000
0100
0100
0000
,
1001
0000
0000
1000
0100
0000
0000
1000
,
0100
1000
0010
1000
0001
0010
0010
0000
,
0001
0000
0001
0010
0001
0000
0001
0100
,
1000
0000
0100
0000
0000
0001
0000
0000
0010
0000
0000
0000
0001
0000
0000
0000
,
1000
0000
1000
0100
1000
0000
1000
0100
,
0000
0000
0001
0000
0000
0100
0000
0000
1000
0000
0000
0000
0010
0000
0000
0000
,
0100
0000
0100
0010
0100
0000
0100
0001
,
0000
0000
0010
0000
0000
1000
0000
0000
0010
0000
0000
0000
0001
0000
0000
0000
,
0010
0000
0010
0100
0010
0000
0010
0001
,
0000
0010
0100
0010
0100
0000
0000
0000
;

//--------------- dance-single - Minxyz ----------------
#NOTES:
     dance-single:
     Minxyz:
     Hard:
     16:
     0,0,0,0,0:
0000
0000
0000
0000
,
0000
0000
0000
0000
,
0001
0000
1000
0100
0010
0000
0001
1000
,
0001
0000
0010
0000
0001
0010
0000
0000
0001
0000
0100
0000
0110
0000
0000
0000
,
0001
0000
0000
0000
1000
0010
1000
0010
1000
0000
0000
0000
1100
0000
0000
0000
,
0000
0000
1000
0001
0000
1000
0001
0000
0010
0000
0001
0000
0100
0000
0000
0000
,
0010
0000
0000
0000
1000
0000
0001
0100
0001
0000
0000
0000
0011
0000
0000
0000
,
0000
0000
0101
0000
0000
1001
0000
0000
0002
0000
0013
0000
0110
0000
0000
0000
,
1000
0000
1000
0010
1000
0000
0100
0001
,
0000
0100
1000
0010
0101
0000
0000
0000
,
1001
0001
0010
0001
1000
0010
1000
0100
,
0010
0000
0001
0000
0100
0010
0000
0200
0010
0300
0000
0000
1000
0000
0000
0000
,
1001
1000
0010
1000
0001
0010
0001
0100
,
0010
0000
1000
0000
0100
0010
0000
0200
0010
0300
0000
0000
0001
0000
0000
0000
,
1001
0001
0010
1000
0010
0001
1000
0010
,
0100
0000
0001
0000
0010
0100
0000
0020
0100
0030
0000
0000
1000
0000
0000
0000
,
0000
0001
0100
1000
0100
0001
0100
1000
,
0000
0100
0001
0010
1100
0000
0000
0000
,
0110
1000
0100
1000
0001
0100
0001
0010
,
0100
0000
1000
0000
0010
0100
0000
0020
0100
0000
0030
0000
0001
0000
0000
0000
,
0110
0001
0100
0001
1000
0100
1000
0010
,
0100
0000
0001
0000
0010
0100
0000
0020
0100
0030
0000
0000
1000
0000
0000
0000
,
0110
0001
0010
1000
0001
0100
1000
0010
,
1000
0000
0010
0000
1000
0001
0000
0001
1000
0000
0000
0000
1010
0000
0000
0000
,
1100
0000
1000
0010
1000
0000
1000
1001
,
0000
1100
1000
1100
1000
0000
0010
0000
,
1000
0000
0100
0010
0001
0000
0100
0010
1000
0000
0100
0010
0001
0000
0100
0010
,
1000
0000
0100
0010
0001
0000
0100
0010
1000
0000
0100
0010
0001
0000
0100
0010
,
2000
0000
3000
0002
0000
0003
1000
0000
,
1000
0000
0010
0000
1000
0000
0100
0000
1000
0000
0001
0000
1000
0010
1000
0010
,
1000
0000
0010
0100
0001
0000
0010
0100
1000
0000
0010
0100
0001
0000
0010
0100
,
1000
0000
0010
0100
0001
0000
0010
0100
1000
0000
0010
0100
0001
0000
0010
0100
,
2000
0000
3000
0002
0000
0003
1000
0000
,
0001
0010
0001
0100
0001
0010
0101
0000
,
1000
0000
0100
0000
0010
0001
0010
0000
0001
0000
0100
0000
0010
1000
0010
0000
,
1000
0000
0010
0000
0100
0001
0100
0000
0001
0000
0010
0000
0100
1000
0100
0000
,
1000
0000
0010
0000
1000
0001
1000
0000
0001
0000
0010
0000
0001
1000
0001
0000
,
1000
0000
0100
0000
0001
0000
0100
0000
1000
0100
1000
0000
0001
0010
0001
0000
,
0010
0001
1000
0010
1000
0001
0010
0200
,
0300
0000
1000
0000
1000
0000
0000
0000
1000
0000
0000
0000
1000
0100
0010
0000
,
0001
0010
1000
0001
0100
0000
1010
1000
,
0010
0000
0001
0000
1000
0000
0100
0000
0001
0000
0010
0000
0001
1000
0001
0000
,
1010
0000
1000
0000
1100
0000
1000
0000
1010
0000
1000
0000
0001
0100
0001
0000
,
0010
0000
0001
0000
1000
0000
0010
0000
0000
0000
0100
0000
0010
1000
0010
0000
,
0000
0000
0100
0000
0101
0000
0100
0000
0110
0000
1000
0000
1000
0100
1000
0000
,
0000
0000
1000
0000
0001
0000
0010
0000
0001
0010
0001
0000
1000
0010
0000
0100
,
0001
0000
0001
0000
0011
0000
0001
0000
0101
0000
0001
0000
1000
0010
1000
0010
,
1000
0000
0001
0000
0010
0001
0010
0001
0010
0100
0010
0100
1000
0100
1000
0100
,
1000
0100
0001
1000
0010
0000
0011
0001
,
0010
1000
0001
0100
1000
0000
1001
0000
,
1000
0000
0000
0010
0000
0000
0010
0000
0110
0000
0000
0000
0101
0000
0000
0000
,
1010
0000
0000
0000
1100
0000
0000
0000
1000
0000
0001
0000
0100
1000
0100
0010
,
0100
0000
0010
0000
0100
0000
0000
1000
0100
0000
0001
0000
0010
0000
0001
0000
,
0010
0000
0010
0000
1000
0000
1000
0000
0010
0000
0001
1000
0001
1000
0001
1000
,
0001
0000
0000
0100
0000
0000
0100
0000
0110
0000
0000
0000
1010
0000
0000
0000
,
1100
0000
0000
0000
0101
0000
0000
0000
0011
0000
0000
0001
0010
0001
0010
0100
,
0010
0000
0001
0000
1000
0000
1000
0010
,
0101
1000
1100
0010
0110
0000
0010
0000
,
1001
0000
0000
0101
1100
0000
0000
0001
,
0010
0000
1000
0000
0010
0000
0001
0000
1000
0000
0100
M000
0100
0000
0000
0000
,
1001
0000
0000
0011
1010
0000
0000
0001
,
0100
0000
1000
0000
0100
0000
0001
0000
0001
0000
0001
0010
0001
0010
0100
1000
,
0100
0010
0001
0000
0100
0010
1000
0000
0100
0010
0001
0000
0100
0010
1000
0000
,
0100
0010
0001
0000
0100
0010
1000
0000
0100
0010
0001
0000
0100
0010
1000
0000
,
0010
0100
0010
0001
0010
0100
0010
0010
,
1000
0000
0100
0000
1000
0000
0010
0000
1000
0001
0100
0001
1000
0100
1000
0100
,
0010
0100
1000
0000
0010
0100
0001
0000
0010
0100
1000
0000
0010
0100
0001
0000
,
0010
0100
1000
0000
0010
0100
0001
0000
0010
0100
1000
0000
0010
0100
0001
0000
,
0100
0010
0100
0001
0100
0010
0100
0100
,
0010
0000
1000
0000
0010
0000
1000
0000
0001
0010
0001
0010
0100
1000
0100
1000
,
0100
0000
1000
0000
0020
0030
0100
0000
0020
0030
0001
0000
0020
0030
0100
0000
,
0002
0003
1000
0000
0002
0003
0010
0000
0002
0003
0010
0000
0200
0300
0001
0000
,
0200
0300
0010
0000
0200
0300
1000
0000
0200
0300
0010
0000
0100
0000
0100
0000
,
2000
3000
0010
0000
2000
3000
0100
0000
2000
3000
0001
0010
0002
0003
1000
0010
,
2000
3000
0100
0000
0002
0003
0100
0000
2000
3000
0001
0000
0200
0300
1000
0000
,
0200
0300
0001
0000
0020
0030
1000
0000
0020
0030
0001
0000
0200
0300
0010
0000
,
1010
1010
0000
1001
1001
0000
0011
0000
,
0101
0101
0000
1010
1010
0000
0001
0000
,
1001
0000
0000
0011
1010
0000
0000
0001
,
0100
0000
1000
0000
0100
0000
0001
0000
1000
0000
0010
M000
0010
0000
0000
0000
,
1001
0000
0000
1010
0011
0000
0000
1000
,
0100
0000
0001
0000
0100
0000
1000
0000
0001
0000
0010
000M
0010
0000
0000
0000
,
1000
0000
0001
0010
0100
0000
1000
0001
,
1000
0000
0100
0000
1000
0100
0000
0000
1000
0000
0010
0000
0110
0000
0000
0000
,
1000
0000
0001
0100
0001
0000
0001
1000
,
0010
0000
1000
0000
0001
0100
0000
0100
0001
0000
0000
0000
0010
0000
0000
0000
,
0001
0000
1000
0100
0010
0000
0001
1000
,
0001
0000
0010
0000
0001
0010
0000
0000
0001
0000
0100
0000
0110
0000
0000
0000
,
1000
0000
0001
0100
0001
0000
0010
1000
,
0000
0010
0001
0100
1010
0000
0000
0000
;
