#VERSION:0.83;
#TITLE:BUTCHER VANITY;
#SUBTITLE:;
#ARTIST:FLAVOR FOLEY ft. Yi Xi;
#TITLETRANSLIT:;
#SUBTITLETRANSLIT:;
#ARTISTTRANSLIT:;
#GENRE:;
#CREDIT:;
#MUSIC:BUTCHER VANITY.ogg;
#BANNER:BUTCHER VANITY.png;
#BACKGROUND:;
#CDTITLE:;
#SAMPLESTART:28.310;
#SAMPLELENGTH:15.000;
#SELECTABLE:YES;
#OFFSET:0.003;
#BPMS:0.000=142.000
,200.000=71.000
,200.500=142.000
;
#STOPS:200.000=0.423
,200.500=0.634
;
#DISPLAYBPM:142.000;
#BGCHANGES:0.000=BUTCHER VANITY.mp4=1.000=1=0=0=StretchNoLoop==CrossFade==;
#FGCHANGES:;

//--------------- dance-single - KAYSTAR ----------------
#NOTEDATA:;
#STEPSTYPE:dance-single;
#DESCRIPTION:KAYSTAR;
#DIFFICULTY:Beginner;
#METER:3;
#RADARVALUES:0,0,0,0,0;
#NOTES:
0000
0000
0000
0000
,
0000
0000
0000
0000
,
0000
0000
0000
0000
,
0000
0000
0000
0000
,
0000
0000
0000
0000
,
1000
0000
1000
0000
,
1000
0000
0000
0000
,
0001
0000
0001
0000
,
0001
0000
0000
0000
,
1000
0000
0100
0000
,
1000
0000
0000
0000
,
0001
0000
0100
0000
,
0001
0000
0000
0000
,
1000
0000
0010
0000
,
1000
0000
0000
0000
,
0001
0000
0010
0000
,
0001
0000
0000
0000
,
1000
0000
0001
0000
,
0100
0000
0100
0000
,
0001
0000
1000
0000
,
0100
0000
0100
0000
,
0010
0000
0001
0000
,
1000
0000
1000
0000
,
0010
0000
0100
0000
,
0002
0000
0003
0000
,
1000
0000
0100
0000
,
0010
0010
0010
0000
,
0001
0000
0100
0000
,
0010
0010
0010
0000
,
1000
0000
0001
0000
,
0010
0000
0010
0000
,
0001
0000
1000
0000
,
0020
0000
0030
0000
,
1000
0000
0000
0000
,
0100
0000
0000
0000
,
0010
0000
0000
0000
,
0001
0000
0000
0000
,
1000
0000
0000
0000
,
0010
0000
0000
0000
,
0100
0000
0000
0000
,
0001
0000
0000
0000
,
1000
0000
0100
0000
,
1000
0000
0000
0000
,
0001
0000
0010
0000
,
0001
0000
0000
0000
,
1000
0000
1000
0000
,
0010
0000
0010
0000
,
0100
0000
0100
0000
,
0001
0000
0001
0000
,
0020
0000
0030
0000
,
0000
0000
0000
0000
,
0000
0001
0000
1000
,
0000
0010
0000
0010
,
0000
1000
0000
0001
,
0000
0010
0000
0010
,
0000
0100
0000
1000
,
0000
0001
0000
0001
,
0000
0100
0000
0010
,
0000
2000
0000
3000
,
0000
0001
0000
0010
,
0000
0100
0100
0100
,
0000
1000
0000
0010
,
0000
0100
0100
0100
,
0000
0001
0000
1000
,
0000
0100
0000
0100
,
0000
1000
0000
0001
,
0000
0200
0000
0300
,
0000
0010
0000
1000
,
0000
0100
0000
0000
,
0000
0010
0000
0001
,
0000
0100
0000
0000
;

//--------------- dance-single - KAYSTAR ----------------
#NOTEDATA:;
#STEPSTYPE:dance-single;
#DESCRIPTION:KAYSTAR;
#DIFFICULTY:Easy;
#METER:8;
#RADARVALUES:0,0,0,0,0;
#NOTES:
0000
0000
0000
0000
,
0000
0000
0000
0000
,
0000
0000
0000
0000
,
0000
0000
0000
0000
,
0000
0000
0000
0000
,
0001
0000
0100
0000
,
0001
0000
0000
0000
,
1000
0000
0100
0000
,
1000
0000
0000
0000
,
0001
0100
0001
0000
,
0010
0000
0100
1000
0000
0001
0100
0000
,
0010
1000
0001
0000
,
1001
0000
0000
0000
,
1000
0100
1000
0000
,
0010
0000
0100
0001
0000
1000
0100
0000
,
0010
0001
0100
0010
,
2000
0000
3001
1001
,
1000
0100
0001
0100
,
1000
0000
0001
0010
0001
0000
1000
0000
,
0001
0100
1000
0100
,
0001
0000
1000
0010
1000
0000
0001
0000
,
0010
0010
0100
0100
,
1000
0000
0001
0100
0001
0000
1000
0000
,
0100
0100
0010
0010
,
0001
1000
0001
1000
0020
0000
0000
0000
,
0130
0000
0001
1000
0100
0000
1000
0001
,
0100
0010
1000
1001
,
0001
0000
1000
0001
0010
0000
0001
1000
,
0010
0100
0001
1000
,
0100
0100
0010
0010
,
0001
0000
1000
0010
1000
0000
0001
0000
,
0010
0010
0100
0100
,
1000
0000
0001
1000
0000
0001
1000
0000
,
0020
0000
0000
0000
,
0230
0000
0000
0000
,
0302
0000
0000
0000
,
2003
0000
0000
0000
,
3200
0000
0000
0000
,
0320
0000
0000
0000
,
0032
0000
0000
0000
,
2000
0000
0000
3003
,
0001
0100
0010
0000
,
1000
0100
0010
0000
,
0001
0100
0010
0000
,
1000
1000
0001
0001
,
0010
0100
1000
0000
,
0010
0100
0001
0000
,
1000
1000
0100
0100
,
0010
0010
0001
0001
,
0200
0000
0300
0000
,
0000
0000
0000
0000
,
0000
0001
0010
1000
,
0010
0000
0001
0000
1000
0100
1000
0000
,
0001
1000
0010
0001
,
0010
0000
1000
0000
0001
0100
0001
0000
,
1000
0100
0100
0010
,
0010
0000
0001
0000
1000
0010
1000
0000
,
0001
0010
0010
0100
,
0100
0000
1000
0001
1000
0001
0100
0010
,
1000
0000
0001
0000
0010
0100
1000
0000
,
0001
0100
0010
0000
1000
0000
0001
0000
,
1001
0000
1000
0000
0100
0010
0001
0000
,
1000
0010
0100
0000
0001
0000
1000
0000
,
0001
0010
0010
0100
,
0100
0000
1000
0000
0001
0100
0001
0000
,
1000
0100
0100
0010
,
0010
0000
0001
0000
1000
0001
0000
1000
,
0001
0000
0100
0000
0000
0010
1000
0000
,
0000
0001
0010
0000
0000
0000
0100
0000
,
1000
0001
0000
0100
,
0010
2002
3003
0000
;

//--------------- dance-single - KAYSTAR ----------------
#NOTEDATA:;
#STEPSTYPE:dance-single;
#DESCRIPTION:KAYSTAR;
#DIFFICULTY:Medium;
#METER:11;
#RADARVALUES:0,0,0,0,0;
#NOTES:
0000
0000
0000
0000
,
0000
0000
0000
0000
,
0000
0000
0000
0000
,
0000
0000
0000
0000
,
0000
0000
0000
0000
,
1000
0000
0000
0010
1000
0000
0000
0010
,
0100
0000
0000
0000
0000
0000
0000
0001
,
0010
0000
0000
0100
0010
0000
0000
0100
,
1000
0000
0000
1001
,
0001
0100
0001
0100
0010
1000
0000
0001
,
0010
0100
0000
2000
0000
3100
0010
0001
,
1000
0010
1000
0010
0100
0001
1000
0100
,
0010
0000
0001
0100
0010
0100
0001
0000
,
1000
0100
1000
0100
0010
0001
0000
1000
,
0010
0100
0000
0002
0000
0103
0010
1000
,
0001
0001
1000
1000
0001
0010
0100
1000
,
0020
0000
0030
1001
,
1000
0100
0010
0002
0000
0013
0100
1000
,
0001
0100
0010
1000
0100
0000
1001
0000
,
0001
0100
0010
2000
0000
3010
0100
0001
,
1000
0100
0010
0001
1000
0010
0100
0001
,
0020
0000
0130
1000
0020
0000
0130
0001
,
1000
1000
0100
0010
0001
0002
0000
0103
,
0010
0100
0001
2000
0000
3100
0010
0100
,
1000
0010
0100
0001
0010
0000
1001
0000
,
1000
0100
0002
0000
0103
1000
0002
0000
,
0103
0010
1000
0001
0010
0000
0011
0000
,
0001
0100
2000
0000
3100
0001
2000
0000
,
3100
0010
0001
1000
0010
0000
1010
0000
,
0020
0000
0130
0001
0020
0000
0130
1000
,
0001
0001
0100
0010
1000
2000
0000
3100
,
0010
0100
1000
0002
0000
0103
0010
0100
,
0001
1000
0100
0000
0110
0000
1001
0000
,
2000
0000
0100
3100
,
1002
0000
0010
0013
,
2001
0000
0010
3010
,
0100
0001
1000
0100
,
0120
0000
1000
1030
,
0210
0000
0001
0301
,
0120
0000
1000
1030
,
0001
0100
1000
1001
,
0001
0100
0010
1000
0010
0100
0001
2000
,
0000
3100
0010
0001
0010
0100
1000
0002
,
0000
0103
0010
1000
0010
0100
0001
1000
,
0100
0001
0100
1000
0001
0000
1001
0000
,
1000
0010
0100
0010
1000
0100
0010
0002
,
0000
0103
0010
0100
0001
0010
0100
2000
,
0000
3010
0100
0001
0010
0100
1000
0001
,
0100
1000
0100
0001
1000
0100
0010
0001
,
1000
0000
0001
0100
0010
0000
1000
0010
,
0200
0300
0000
0000
0001
0001
1000
1000
,
1001
0000
0001
0010
0100
0002
0000
0103
,
0010
0001
1000
0010
0100
0001
0010
0000
,
1001
0000
1000
0010
0100
2000
0000
3001
,
0010
0100
0001
1000
0100
0010
0001
0010
,
0100
1000
0020
0000
0130
0001
0020
0000
,
0130
1000
0001
0001
0100
0010
1000
2000
,
0000
3100
0010
1000
0010
0002
0000
0103
,
0010
0001
0010
1000
0001
0000
1000
0000
,
1001
0000
0001
0010
2000
0000
3001
0100
,
2000
0000
3010
0100
0001
1000
0100
0000
,
1100
0000
1000
0010
0002
0000
1003
0100
,
0002
0000
0013
0100
1000
0001
0100
0000
,
0101
0000
0200
0000
0310
1000
0200
0000
,
0310
0001
1000
1000
0010
0100
0001
0002
,
0000
0013
0100
0001
0100
2000
0000
3010
,
0100
1000
0001
0010
0100
0000
1001
0000
,
0110
0000
1001
0000
1000
0100
0010
0000
,
0001
0010
0100
0000
1000
0020
0000
0130
,
0001
1000
0100
0020
0000
0031
0001
1000
,
1000
0010
0220
0000
0330
0000
0000
0000
;

//--------------- dance-single - KAYSTAR ----------------
#NOTEDATA:;
#STEPSTYPE:dance-single;
#DESCRIPTION:KAYSTAR;
#DIFFICULTY:Hard;
#METER:14;
#RADARVALUES:0,0,0,0,0;
#NOTES:
0000
0000
0000
0000
,
0000
0000
0000
0000
,
0000
0000
0000
0000
,
0000
0000
0000
0000
,
0000
0000
0000
0000
,
2000
0000
3100
0010
0002
0000
0103
0010
,
2000
0001
0000
0100
0000
3010
0000
1000
,
0002
0000
0013
0100
2000
0000
3010
0100
,
0002
0000
0003
1001
,
1000
0010
0100
1000
0100
0001
0010
0100
,
1000
0000
0100
0000
0010
0000
0002
0000
0000
0000
0103
0000
0110
0000
0010
0100
,
0010
1000
0010
0100
0001
0010
0100
1000
,
1002
0000
0000
0000
0103
0000
2001
0000
0000
0000
3010
0000
1000
0000
0001
1000
,
0001
0010
0100
0001
0100
1000
0010
0100
,
0001
0000
0100
0000
0010
0000
2000
0000
0000
0000
3100
0000
0110
0000
0010
0100
,
0010
0001
0100
1000
0100
0001
0010
0100
,
2000
0000
0001
0001
3001
0000
1001
0000
,
1000
0000
0100
0010
0100
0000
0002
0000
0000
0000
0103
0000
0010
0100
1000
0000
,
0001
0000
0100
0000
0110
0000
0010
0000
1010
0000
0000
0000
1000
0100
0010
0000
,
0001
0000
0100
0010
0100
0000
2000
0000
0000
0000
3001
0000
0010
0100
0001
0000
,
1000
0100
0110
0010
0011
0001
1000
0010
,
0100
0001
0200
0000
0301
0000
0010
0000
0100
1000
0200
0000
1300
0000
0001
0000
,
0101
0000
1000
0000
1010
0000
0010
0000
1000
0000
0001
0000
0010
0100
1000
0000
,
0001
0100
0010
0120
0000
1030
0001
0010
,
0200
0302
2003
3020
0032
0000
1003
0010
,
0100
1000
0200
0000
0310
0000
1000
0000
0100
1000
0200
0000
0310
0000
0001
0000
,
0200
0010
0302
1000
0013
0000
0011
0010
,
0100
0001
0200
0000
0310
0000
0001
0000
0100
0001
0200
0000
0310
0000
1000
0000
,
0200
0010
2300
0001
3010
0010
0100
0100
,
0001
1000
0002
0000
0013
0000
0100
0000
1000
0001
2000
0000
3010
0000
0100
0000
,
0110
0000
0001
0000
1001
0000
1000
0000
0100
0000
0001
0000
0100
0010
0001
0000
,
1000
0010
0100
0210
0000
1300
0001
0010
,
0100
0000
0001
1000
0100
0000
0120
0000
0000
0000
0031
0000
2002
0000
3003
0000
,
2000
0100
0001
3010
,
1002
0010
1000
0103
,
0120
0001
0100
1030
,
0001
0010
0100
0100
1000
0010
0100
0100
,
1002
0100
1000
0013
,
2001
0010
0001
3100
,
0120
1000
0100
0031
,
1000
0010
0100
0001
0010
0000
1001
0000
,
0001
0100
1000
0100
0001
0100
0010
2000
,
0000
3100
0001
0100
1000
0100
0010
0002
,
0000
0103
1000
0100
0001
0100
0010
1000
,
1100
0100
0110
0010
0011
0001
0100
0020
,
0000
0031
0010
0100
0010
1000
0001
0020
,
0000
1030
0010
0100
0010
0001
1000
0020
,
0000
0031
1000
0100
0001
0010
0100
1000
,
0001
0100
0001
0000
1000
0010
1000
0000
0001
0010
0001
0010
0100
1000
0100
1000
,
0002
0000
0103
0001
2001
0000
3010
1000
,
2002
0000
0000
3003
0000
0000
0000
0000
0000
0000
0000
0000
1000
0000
0000
0001
0000
0000
1001
0000
0000
1000
0001
1000
,
0002
0000
0000
0000
1003
0000
0001
0010
0100
0000
0020
0000
0000
0000
1030
0000
,
0010
0100
1000
0000
1100
0000
0001
0000
0011
0000
1000
0000
1010
0000
0001
0000
,
0010
0100
1000
0000
0001
0000
1000
0010
0100
0000
0020
0000
0000
0000
0031
0000
,
1000
0100
0010
0000
1010
0000
0001
0000
0101
0000
1000
0000
1100
0000
0001
0000
,
0100
0000
0010
0000
1000
0001
0020
0000
0130
0000
1000
0000
0001
1000
0020
0000
,
0130
0001
0011
1000
1100
0001
0100
0010
,
1000
0001
1000
0100
0010
0000
0001
0000
0100
0000
0120
0000
0000
0000
1030
0000
,
0001
0000
0010
0000
0100
0000
1000
0001
1000
0001
0010
0000
0001
1000
0001
1000
,
0010
0000
1000
0000
0001
0010
0200
0000
1300
0000
0010
0000
0001
0010
0200
0000
,
0301
0000
1000
0000
1100
0000
0100
0010
0001
0010
0100
0000
1000
0000
0000
0000
,
1001
0000
0001
0000
1000
0010
0200
0000
0301
0000
0010
0000
1000
0010
0200
0000
,
1300
0000
0001
0000
0101
0000
0100
0010
1000
0010
0100
0000
0110
0000
0001
0000
,
1001
0000
1000
0000
0100
0010
0002
0000
1003
0000
0001
0000
0100
0010
2000
0000
,
3001
1000
1100
0001
0011
1000
0010
0001
,
0010
0100
0010
1000
0001
0000
0010
0000
0100
0000
0210
0000
0000
0000
0301
0000
,
1000
0000
0010
0000
0100
0000
1000
0001
0100
0000
0120
0000
0000
0000
1030
0000
,
2002
3003
0002
0000
0013
0001
2001
0000
,
3100
1000
1001
0000
0001
0200
0000
0310
,
1000
0000
0000
0001
0000
0000
1000
0000
0000
0001
0000
0000
0010
0000
0000
0000
0000
0000
0200
0000
0000
0000
0000
0000
0000
0000
0000
0000
0000
0000
1300
0000
0000
0000
0000
0000
0001
0000
0000
0000
0000
0000
0100
0000
0010
0000
0100
0000
,
0010
1000
0001
0000
2002
0000
0000
0000
3003
0000
0000
0000
0000
0000
0000
0000
;

//--------------- dance-double - KAYSTAR ----------------
#NOTEDATA:;
#STEPSTYPE:dance-double;
#DESCRIPTION:KAYSTAR;
#DIFFICULTY:Easy;
#METER:8;
#RADARVALUES:0,0,0,0,0;
#NOTES:
00000000
00000000
00000000
00000000
,
00000000
00000000
00000000
00000000
,
00000000
00000000
00000000
00000000
,
00000000
00000000
00000000
00000000
,
00000000
00000000
00000000
00000000
,
00000010
00000000
00010000
00000000
,
00002000
00000000
00003000
00000000
,
00010000
00000000
00001000
00000000
,
02000000
00000000
00000000
03010000
,
10000000
01000000
10000000
00000000
,
00010000
00000000
10000000
00100000
00000000
01000000
00010000
00000000
,
00100000
00001000
00010000
00000100
,
00002000
00000000
00003000
00000000
,
00000001
00000100
00000001
00000000
,
00001000
00000000
00000001
00000010
00000000
00000100
00001000
00000000
,
00000010
00010000
00001000
01000000
,
00020000
00000000
00030000
10010000
,
10000000
01000000
00010000
01000000
,
10000000
00000000
00010000
00100000
00010000
00000000
00000000
00000000
,
10000000
00100000
00010000
00100000
,
10000000
00000000
00010000
01000000
00010000
00000000
00000000
00000000
,
00100000
00100000
00001000
00010000
,
00000100
00000000
00000100
00000000
00001000
00000100
00001000
00000000
,
00000001
00000100
00000010
00001000
,
00000100
00000010
00000100
00000010
00000002
00000000
00000000
00000000
,
00001003
00000000
00000001
00001000
00000100
00000000
00001000
00000001
,
00000100
00000010
00001000
00000000
,
00000001
00000000
00001000
00000001
00000010
00000000
00000001
00001000
,
00000010
00000100
00000001
00001000
,
00000100
00000100
00010000
00001000
,
00100000
00000000
00100000
00000000
00010000
00100000
00010000
00000000
,
10000000
00100000
01000000
00010000
,
10000000
00000000
01000000
00100000
00000000
01000000
00100000
00000000
,
00020000
00000000
01030000
00000000
,
20000000
00000000
31000000
00000000
,
00020000
00000000
01030000
00000000
,
00001000
00010000
00000010
00000000
,
00002000
00000000
00003100
00000000
,
00000002
00000000
00000103
00000000
,
00002000
00000000
00003100
00000000
,
00010000
00001000
00100000
00000000
,
00010000
01000000
00100000
00000000
,
10000000
01000000
00100000
00000000
,
00010000
01000000
00001000
00000000
,
00010000
00010000
00000010
00000010
,
00001000
00000100
00000010
00000000
,
00000001
00000100
00000010
00000000
,
00001000
00001000
00000100
00000100
,
00000010
00000010
00000001
00000001
,
00000200
00000000
00000300
00000000
,
00000000
00000000
00000000
00000000
,
00000000
00000001
00000010
00001000
,
00000010
00000000
00000001
00000000
00001000
00000100
00001000
00000000
,
00000000
00000001
00000100
00001000
,
00000100
00000000
00000001
00000000
00001000
00000010
00001000
00000000
,
00000000
00000100
00000100
00010000
,
00001000
00000000
00100000
00000000
00100000
00000000
00010000
00100000
,
00010000
10000000
00100000
01000000
,
00010000
00000000
10000000
01000000
00100000
00010000
10000000
00010000
,
10000000
00000000
00010000
00000000
10000000
00010000
00100000
00000000
,
00010000
10000000
00100000
00000000
01000000
00000000
00010000
00000000
,
00000000
00000000
10000000
00000000
00010000
10000000
01000000
00000000
,
10000000
00010000
01000000
00000000
00100000
00000000
10000000
00000000
,
00010000
00100000
00100000
00001000
,
00010000
00000000
00000100
00000000
00000100
00000000
00001000
00000100
,
00001000
00000001
00000100
00000010
,
00001000
00000000
00000001
00000000
00000010
00000100
00000000
00000010
,
00000100
00000000
00001000
00000000
00000000
00000001
00000100
00000000
,
00000000
00000010
00001000
00000000
00000000
00000000
00000100
00000000
,
00000010
00000001
00000000
00000100
,
00001000
00022000
00033000
00000000
;

//--------------- dance-double - KAYSTAR ----------------
#NOTEDATA:;
#STEPSTYPE:dance-double;
#DESCRIPTION:KAYSTAR;
#DIFFICULTY:Medium;
#METER:11;
#RADARVALUES:0,0,0,0,0;
#NOTES:
00000000
00000000
00000000
00000000
,
00000000
00000000
00000000
00000000
,
00000000
00000000
00000000
00000000
,
00000000
00000000
00000000
00000000
,
00000000
00000000
00000000
00000000
,
00010000
00000000
00000000
00000010
00001000
00000000
00000000
00000010
,
00010000
00000000
00000000
00000000
00000000
00000000
00000000
00001000
,
00010000
00000000
00000000
00001000
00100000
00000000
00000000
00010000
,
00200000
00000000
00300000
10010000
,
10000000
00100000
10000000
00100000
01000000
00010000
00000000
00100000
,
01000000
10000000
00000000
00200000
00000000
01300000
00010000
00000000
,
10000000
01000000
10000000
01000000
00100000
00010000
00100000
00001000
,
00010000
00000000
00000100
00001000
00000000
00001000
00000000
00001000
,
00000001
00000100
00000001
00000100
00000010
00001000
00000000
00000100
,
00000010
00000001
00000000
00000200
00000000
00000310
00001000
00000010
,
00010000
00001000
00010000
00001000
01000000
00010000
01000000
00100000
,
20000000
00010000
30010000
10010000
,
10000000
01000000
00100000
00020000
00000000
00130000
01000000
10000000
,
00010000
01000000
00001000
00010000
00000010
00000000
00001001
00000000
,
00000001
00000010
00000100
00002000
00000000
00003100
00000010
00000001
,
00001000
00000010
00000100
00001000
00010000
00001000
00010000
00100000
,
02000000
00000000
03010000
00100000
02000000
00000000
13000000
00100000
,
01000000
01000000
00001000
00010000
00000010
00000010
00000000
00001000
,
00000001
00000010
00000100
00002000
00000000
00003010
00000100
00000001
,
00000010
00000100
00001000
00000100
00010000
00000000
00011000
00000000
,
00002000
00000000
00103000
00010000
00200000
00000000
01300000
10000000
,
00010000
01000000
00001000
01000000
00001000
00000000
00011000
00000000
,
00020000
00000000
00030010
00001000
00000020
00000000
00000130
00000001
,
00001000
00000100
00010000
00000100
00010000
00000000
00001000
00000010
,
00000200
00000000
00001300
00000010
00000200
00000000
00000301
00001000
,
00000100
00000100
00010000
00001000
00100000
00100000
00000000
00010000
,
10000000
00100000
01000000
00020000
00000000
01030000
00100000
10000000
,
00010000
00100000
01000000
00000000
10000000
00000000
10010000
00000000
,
20000000
00000000
00100000
30100000
,
10020000
00000000
00100000
00130000
,
02010000
00000000
00001000
03001000
,
00010000
00000010
00001000
00000001
,
00001002
00000000
00000010
00000013
,
00002001
00000000
00000010
00003010
,
00001200
00000000
00010000
00010300
,
00001000
00100000
00010000
10010000
,
10000000
00010000
01000000
00100000
01000000
00100000
10000000
00020000
,
00000000
10030000
01000000
00100000
01000000
00100000
00010000
20000000
,
00000000
30010000
01000000
00100000
01000000
00100000
10000000
01000000
,
00100000
00100000
00001000
00010000
00000100
00000100
00001000
00000002
,
00000000
00000103
00000010
00001000
00000010
00000100
00000001
00002000
,
00000000
00003100
00000010
00000001
00000010
00000100
00001000
00000002
,
00000000
00000103
00000010
00001000
00000100
00000010
00000001
00000100
,
00000010
00000010
00010000
00001000
01000000
01000000
00010000
10000000
,
10010000
00000000
00010000
00100000
01000000
00000000
10000000
01000000
,
00200000
00300000
00000000
00000000
00000000
00000000
00010000
00000000
,
10010000
00000000
10000000
00100000
01000000
20000000
00000000
31000000
,
00100000
10000000
00010000
00100000
00001000
00010000
00000100
00000000
,
00001001
00000000
00000001
00000010
00000100
00000002
00000000
00000103
,
00000010
00000001
00001000
00000010
00000100
00001000
00010000
00001000
,
00010000
00100000
02000000
00000000
03010000
00100000
02000000
00000000
,
13000000
00100000
01000000
01000000
00001000
00010000
00000010
00000010
,
00000000
00001000
00000001
00000100
00000010
00002000
00000000
00003100
,
00000010
00000001
00000100
00000010
00001000
00000010
00010000
00000000
,
00011000
00000000
00002000
00000000
00013000
00100000
02000000
00000000
,
03010000
10000000
01000000
00010000
01000000
00010000
00001000
00000000
,
00011000
00000000
00020000
00000000
00031000
00000010
00000200
00000000
,
00001300
00000001
00000100
00001000
00010000
00001000
00010000
00000000
,
00001000
00000010
00000200
00000000
00001300
00000010
00000200
00000000
,
00000301
00001000
00000100
00000100
00010000
00001000
00100000
00100000
,
00000000
00010000
10000000
00100000
01000000
00020000
00000000
01030000
,
00100000
10000000
00010000
00100000
01000000
00000000
10000000
00000000
,
10010000
00000000
00010000
00000000
01000000
00100000
10000000
00000000
,
00100000
01000000
00010000
00000000
10000000
02000000
00000000
03100000
,
00001000
00010000
00001000
00010000
00000000
00000020
00000000
00000130
,
00000001
00001000
00002002
00000000
00003003
00000000
00000000
00000000
;

//--------------- dance-double - KAYSTAR ----------------
#NOTEDATA:;
#STEPSTYPE:dance-double;
#DESCRIPTION:KAYSTAR;
#DIFFICULTY:Hard;
#METER:14;
#RADARVALUES:0,0,0,0,0;
#NOTES:
00000000
00000000
00000000
00000000
,
00000000
00000000
00000000
00000000
,
00000000
00000000
00000000
00000000
,
00000000
00000000
00000000
00000000
,
00000000
00000000
00000000
00000000
,
00002000
00000000
00013000
00000100
00002000
00000000
00003100
00000010
,
00000001
00000100
00000000
00000100
00000000
00000100
00000000
00001000
,
00020000
00000000
00031000
01000000
00020000
00000000
01030000
00100000
,
20000000
00000000
30000000
10010000
,
10000000
00010000
00100000
01000000
00010000
01000000
10000000
00100000
,
01000000
00000000
00010000
00000000
01000000
00000000
00002000
00000000
00000000
00000000
00013000
00000000
00000010
00000000
00010000
00001000
,
00010000
00000100
00000010
00000001
00001000
00000010
00010000
00001000
,
00011000
00000000
00000000
00000000
00010000
00000000
00000200
00000000
00000000
00000000
00000310
00000000
00000010
00000000
00000001
00001000
,
00000001
00001000
00000010
00000100
00001000
00000100
00000001
00000010
,
00000100
00000000
00001000
00000000
00000100
00000000
00020000
00000000
00000000
00000000
00030010
00000000
00000100
00000000
00001000
00010000
,
00001000
00010000
00100000
01000000
00010000
00100000
01000000
10000000
,
00200000
00000000
01000000
01000000
01300000
00000000
10010000
00000000
,
10000000
00000000
01000000
00100000
01000000
00000000
00020000
00000000
00000000
00000000
01030000
00000000
00100000
01000000
10000000
00000000
,
00010000
00100000
00001000
00010000
00000100
00001000
00001001
00000000
,
00000001
00000000
00000100
00000010
00000100
00000000
00002000
00000000
00000000
00000000
00003001
00000000
00000010
00000100
00000001
00000000
,
00001000
00000010
00010000
00001000
01000000
00020000
20030000
32000000
,
03100000
00010000
00100000
00000000
00010000
00000000
01000000
00000000
00100000
10000000
00100000
00000000
10000000
00000000
00010000
00000000
,
00200000
00000000
02300000
00000000
03020000
00000000
00032000
00000000
00003020
00000000
00000230
00000000
00001300
00000001
00001000
00000000
,
00000010
00010000
00001000
00021000
00000000
00030100
00001000
00000001
,
00000200
00002300
00003002
00000023
00002030
00000000
00003001
00000010
,
00000100
00000001
00000200
00000000
00000310
00000000
00000001
00000000
00000100
00000001
00000200
00000000
00000310
00000000
00001000
00000000
,
00000200
00020300
00032000
00203000
00320000
00000000
10030000
00100000
,
01000000
10000000
02000000
00000000
03100000
00000000
10000000
00000000
01000000
10000000
02000000
00000000
03100000
00000000
00010000
00000000
,
02000000
03002000
00023000
00030020
00001030
00001000
00000001
00000010
,
00000100
00001000
00000100
00000000
00001000
00000000
00000010
00000000
00000100
00000001
00000100
00000000
00000001
00000000
00001000
00000000
,
00000200
00000000
00000320
00000000
00002030
00000000
00023000
00000000
02030000
00000000
03200000
00000000
00310000
10000000
00010000
00000000
,
01000000
00001000
00010000
00012000
00000000
00003200
00000302
00000023
,
00000130
00000000
00001000
00000001
00000100
00000000
00000010
00000000
00010000
00000000
00001000
00000000
00022000
00000000
00033000
00000000
,
00020000
00230000
20300000
32000000
,
03020000
20030000
30200000
00320000
,
02030000
23000000
30020000
00230000
,
01300000
00010000
10000000
01000000
00100000
00100000
00001000
00010000
,
00012000
00003020
00000032
00000203
,
00002300
00003002
00000023
00002030
,
00003200
00000302
00002003
00003020
,
00000130
00001000
00000001
00000100
00000010
00000010
00020000
00000000
,
00031000
01000000
00010000
01000000
00100000
10000000
01000000
00200000
,
00000000
10300000
00100000
01000000
00100000
00010000
10000000
00200000
,
00000000
00310000
00100000
01000000
00100000
10000000
00010000
00100000
,
00001000
00001000
00010000
00000100
00001000
00001000
00000001
00000200
,
00000000
00001300
00000001
00000010
00001000
00000001
00001000
00000200
,
00000000
00000301
00001000
00000010
00000001
00001000
00000001
00000200
,
00000000
00000310
00010000
00010000
00001000
01000000
00010000
00010000
,
10000000
01000000
10000000
00000000
01000000
00100000
01000000
00000000
00100000
00010000
00100000
00001000
00010000
00001000
00010000
00000000
,
00002000
00000000
01003000
00001000
00021000
00000000
00030100
00001000
,
00002002
00000000
00000000
00003003
00000000
00000000
00000000
00000000
00000000
00000000
00000000
00000000
00000001
00000000
00000000
00001000
00000000
00000000
00001001
00000000
00000000
00000001
00001000
00000001
,
00002000
00000000
00000000
00000000
00003001
00000000
00001000
00000010
00000100
00000000
00000020
00000000
00000000
00000000
00000031
00000000
,
00000010
00000100
00000001
00000000
00001000
00000000
00000100
00010000
00001000
00000000
00010000
00001000
00100000
00000000
00010000
00000000
,
10010000
00000000
00000000
00000000
10000000
00000000
00010000
00100000
01000000
00000000
00200000
00000000
00000000
00000000
10300000
00000000
,
00010000
01000000
00100000
00000000
00010000
00000000
01000000
00001000
00010000
00000000
00001000
00010000
00000010
00000000
00002000
00000000
,
00003200
00000000
00000320
00000000
00000031
00001000
00000010
00000000
00000100
00000000
00000001
00000000
00001000
00000001
00000010
00000000
,
00000100
00001000
00000020
00000230
00002300
00023000
00230000
02300000
,
03010000
10000000
01000000
00100000
00010000
00000000
01000000
00000000
00001000
00000000
00012000
00000000
00000000
00000000
00103000
00000000
,
01000000
00000000
10000000
00000000
00010000
00000000
01000000
00010000
01000000
00010000
10000000
00000000
00100000
10000000
00100000
10000000
,
00010000
00000000
10000000
00000000
00010000
00100000
02000000
00000000
03100000
00000000
00001000
00000000
00010000
00100000
02000000
00000000
,
03100000
00000000
00010000
00000000
00001000
00000000
00100000
00001000
00100000
00001000
00010000
00000000
00000100
00000000
00000000
00000000
,
00001001
00000000
00000001
00000000
00001000
00000010
00000200
00000000
00000310
00000000
00010000
00000000
00001000
00000010
00000200
00000000
,
00000310
00000000
00001000
00000000
00010000
00000000
00000010
00010000
00000010
00010000
00001000
00000000
01000000
00000000
00020000
00000000
,
00230000
00000000
02300000
00000000
13000000
00010000
01000000
00000000
00100000
00000000
10000000
00000000
00010000
10000000
01000000
00000000
,
00100000
00010000
02000000
03200000
00320000
00032000
00003200
00000310
,
00001000
00000001
00000010
00000100
00001000
00000000
00000010
00000000
00010000
00000000
00021000
00000000
00000000
00000000
00230000
00000000
,
20300000
00000000
32000000
00000000
03100000
00000000
00010000
10000000
00100000
00000000
01000000
00000000
00001000
00000000
00010000
00000000
,
00022000
00033000
00002000
00000000
00103000
00001000
00021000
00000000
,
00030010
00010000
00011000
00000000
00001000
00000020
00000000
00000130
,
00001000
00000000
00000000
00000001
00000000
00000000
00001000
00000000
00000000
00000001
00000000
00000000
00000100
00000000
00000000
00000000
00000000
00000000
00000020
00000000
00000000
00000000
00000000
00000000
00000000
00000000
00000000
00000000
00000000
00000000
00010030
00000000
00000000
00000000
00000000
00000000
00001000
00000000
00000000
00000000
00000000
00000000
00010000
00000000
00001000
00000000
00010000
00000000
,
00001000
00010000
00001000
00000000
00022000
00000000
00000000
00000000
00033000
00000000
00000000
00000000
00000000
00000000
00000000
00000000
;
