#TITLE:Armageddon;
#ARTIST:aespa;
#BANNER:Armageddon.png;
#BACKGROUND:Armageddon-bg.png;
#JACKET:Armageddon-jacket.png;
#CDTITLE:./CDTITLES/NONE.PNG;
#MUSIC:Armageddon.ogg;
#SAMPLESTART:42.717;
#SAMPLELENGTH:15;
#BPMS:0=92;

//---------------dance-single - t7r----------------
#NOTES:
     dance-single:
     t7r:
     Beginner:
     1:
     :
0000
0000
0000
0000
,
0000
0000
0000
0000
,
0000
0000
0000
0000
,
0000
0000
0000
0000
,
0000
0000
0000
0000
,
0001
0000
0000
0000
,
1000
0000
0000
0000
,
0010
0000
0000
0000
,
0100
0000
0000
0000
,
0010
0000
0010
0000
,
0010
0000
0000
0000
,
1000
0000
1000
0000
,
1000
0000
0000
0000
,
0001
0000
0000
0000
,
0010
0000
0000
0000
,
0100
0000
0000
0000
,
1000
0000
0000
0000
,
0001
0000
1000
1000
,
0000
0010
0000
0010
,
0010
0000
0100
0100
,
0000
0001
0000
0001
,
0001
0000
0010
0000
,
0100
0000
1000
0000
,
0010
0000
0100
0100
,
0000
0010
0000
0010
,
0010
0000
0000
0000
,
1000
0000
0000
0000
,
0100
0000
0000
0000
,
0010
0000
0000
0000
,
0001
0000
0000
0000
,
1000
0000
0010
0000
,
1000
0000
0001
0000
,
0010
0000
0010
0000
,
0100
0000
0000
0000
,
0010
0000
0000
0000
,
0001
0000
0000
0000
,
0100
0000
0000
0000
,
1000
0000
0000
0000
,
0010
0000
0000
0000
,
0001
0000
1000
1000
,
0000
0100
0000
0010
,
0010
0000
0001
0001
,
0000
1000
0000
1000
,
1000
0000
0010
0000
,
0100
0000
0001
0000
,
0010
0000
0100
0100
,
0000
1000
0000
0001
,
0001
0000
0000
0000
;

//---------------dance-single - t7r----------------
#NOTES:
     dance-single:
     t7r:
     Easy:
     3:
     :
0000
0000
0000
0000
,
0000
0000
0000
0000
,
0000
0000
0000
0000
,
0000
0000
0000
0000
,
0000
0000
0000
0000
,
0001
0000
1000
0100
,
1000
1000
0010
0100
,
0001
0000
0010
0000
,
0100
0000
1000
0001
,
1000
0000
1010
0000
,
0001
0000
0011
0000
,
0100
0000
1000
1000
,
0010
0010
0100
0100
,
0001
0010
0001
0001
,
1000
0000
0010
2000
,
3001
0100
0001
0001
,
1000
0000
0001
0000
,
0020
0000
0100
0130
,
0000
1000
0001
0100
,
0020
0000
0100
0130
,
0000
0001
1000
0100
,
1000
1000
0001
0001
,
0000
0100
0010
1000
,
0200
0000
0010
0310
,
0000
0001
0100
0010
,
1000
0000
0000
0000
,
0002
0000
0003
0000
,
2000
0000
3000
0000
,
0020
0000
0030
0000
,
0200
0000
0300
0000
,
0001
0010
0001
0000
,
1000
0010
1000
0000
,
0001
0100
0010
1000
,
0000
0100
0001
0100
,
2000
0000
0000
3010
,
0000
1000
0100
0001
,
0010
0000
1000
0000
,
0000
0001
0100
1000
,
0010
0000
0001
0000
,
2001
0000
0100
3100
,
0000
1000
0001
0100
,
0020
0000
0100
0130
,
0000
0001
0010
0100
,
1000
0010
0001
0010
,
0010
0100
0001
0010
,
0200
0000
0001
0301
,
0000
0100
1000
0010
,
0110
0000
0000
0000
;

//---------------dance-single - t7r----------------
#NOTES:
     dance-single:
     t7r:
     Medium:
     6:
     :
0000
0000
0000
0000
,
0000
0000
0000
0000
,
0000
0000
0000
0000
,
0000
0000
0000
0000
,
0000
0000
0000
0000
,
1000
0000
0100
0000
0010
0001
1000
0000
,
0001
0000
0100
0000
0010
1000
0001
0000
,
1000
0000
0010
0000
1000
0100
1000
0000
,
0001
0000
0010
0000
0001
0100
0001
0000
,
0100
0000
0100
0010
1000
0000
0100
0010
,
0001
0000
1000
0001
0010
0000
0001
1000
,
0010
0000
0000
0100
0100
0000
0100
0000
,
0010
1001
0100
1001
,
0100
0000
1000
1100
0000
0100
1100
0000
,
1000
0000
0001
0000
0010
0001
2000
0000
,
3001
0000
0100
0101
0000
0001
0101
0000
,
0001
0010
0100
0000
,
2001
0000
0000
0010
0010
0010
0010
3010
,
0000
1000
0001
0000
0010
0001
1000
0000
,
1002
0000
0000
0010
0010
0010
0010
0013
,
0000
0001
1000
0000
0010
0100
0001
0000
,
1000
0000
0100
0000
0001
0100
1000
1000
,
0000
0001
0100
0000
0010
1000
0001
0000
,
1020
0000
0000
0100
0100
0100
0100
0130
,
0000
0001
0100
0000
1000
0100
0001
0000
,
0020
0000
0100
0130
,
1001
0000
0000
0000
1000
0100
0010
0000
,
1001
0000
0000
0000
0001
0100
0010
0000
,
1000
0000
0100
0000
0010
0100
1000
0000
,
0001
0000
0100
0000
0010
0100
0001
0000
,
1000
0020
0001
0000
0130
0000
0000
0000
,
0001
0020
1000
0000
0130
0000
0000
1000
,
0001
0000
0100
0000
0010
1000
0100
0100
,
0000
0010
0001
0000
0100
0010
1000
0001
,
0020
0000
0000
0031
,
0000
0000
1000
0000
0100
0001
0010
0000
,
0000
1000
1000
0001
1000
1000
0001
1000
,
0000
0000
0001
0000
0100
1000
0010
0000
,
0000
0001
1000
0000
0010
0000
0110
0000
,
2001
0000
0000
0100
0100
0001
0001
3100
,
0000
1000
0001
0000
0100
0010
1000
0000
,
1002
0000
0000
0010
0010
1000
1000
1003
,
0000
0001
1000
0000
0010
0100
0001
0000
,
1000
0010
0001
0010
0100
0001
1000
1000
,
0001
0010
1000
0010
0100
1000
0001
0001
,
0201
0000
0000
1000
1000
0010
0010
0310
,
0000
1000
0100
0010
0001
0100
0010
1000
,
1001
0000
0000
0000
;

//---------------dance-single - t7r----------------
#NOTES:
     dance-single:
     t7r:
     Hard:
     9:
     :
0000
0000
0000
0000
,
0000
0000
0000
0000
,
0000
0000
0000
0000
,
0000
0000
0000
0000
,
0000
0000
0000
0000
,
1000
0000
0100
0000
0010
0001
0101
0000
,
0001
0010
0100
1000
0010
0100
0110
0000
,
0001
0010
1000
0000
0010
0001
1000
0000
,
0010
0001
1000
0000
0100
0001
0011
0001
,
1000
0000
1100
0100
0110
0000
1100
0100
,
0001
0100
1000
0100
0110
0000
0001
0100
,
1000
0100
0001
0010
0100
1000
1010
0000
,
0100
0010
1001
0010
0100
0100
0010
0010
,
1001
1000
1100
1100
1000
1100
1100
0000
,
1000
0001
0010
1000
0001
0100
2000
3000
,
1001
0001
0101
0101
0001
0101
0101
0000
,
0001
1000
0010
0001
1000
0000
0100
0000
,
0210
0000
0000
0010
0001
0010
0001
0310
,
0000
1000
0100
0010
0001
1000
0010
0100
,
0201
0000
0000
0010
1000
0010
1000
0310
,
0000
0100
0001
1000
0010
0100
1001
0010
,
1100
0100
0001
0100
1000
0100
0010
0010
,
0001
0100
0010
0100
1000
0100
0001
0010
,
0021
0000
0000
0100
0001
0100
0001
0130
,
0000
1000
0010
0100
0001
1000
0100
1000
,
0002
0000
1000
1003
,
0200
0000
0301
0000
0100
0010
0100
1000
,
0020
0000
0031
0000
0010
0100
0010
1000
,
0001
0000
0110
0000
1000
0100
0110
0000
,
1000
0000
0110
0000
0001
0010
0110
0000
,
1000
0020
0001
0000
0130
0001
1000
0000
,
0001
0020
1000
0000
0130
1000
0001
0000
,
1000
0100
0001
0010
1000
0100
0001
0010
,
0000
0100
1000
0010
0110
0100
0101
0001
,
0020
0000
0000
0000
0030
0000
1001
0100
,
1001
0000
0001
0100
1000
0010
0001
0100
,
0000
0000
0010
0000
1000
0100
1000
0000
0010
0000
1000
0100
1000
0000
1001
0000
,
0000
0000
1000
0100
0001
0010
1000
0100
,
0000
0000
1000
0001
1000
0000
0010
0000
0100
0000
0000
0000
0010
0000
0000
0000
,
1020
0000
0001
0100
1000
0100
1000
0130
,
0001
1000
1100
0100
0110
0010
0011
0001
,
0201
0000
1000
0010
0001
0010
0001
0310
,
1000
0001
0011
0010
0110
0100
1100
1000
,
0001
0100
0000
0001
0100
0000
0010
0100
0000
0001
1000
0000
1001
0000
1000
0000
,
0100
0010
0000
0100
0010
0000
0100
1000
0000
0001
1000
0000
0010
0000
0100
0000
,
0210
0010
0000
1000
1000
0000
0010
0010
0000
0001
0001
0000
0010
0000
0301
0000
,
0010
0100
0000
0001
0100
0000
1000
0010
0000
0010
0100
0000
0001
1000
0001
0000
,
1001
0000
0000
0000
;

//---------------dance-double - t7r----------------
#NOTES:
     dance-double:
     t7r:
     Easy:
     4:
     :
00000000
00000000
00000000
00000000
,
00000000
00000000
00000000
00000000
,
00000000
00000000
00000000
00000000
,
00000000
00000000
00000000
00000000
,
00000000
00000000
00000000
00000000
,
00001000
00000000
01000000
00000000
,
00010000
10000000
01000000
00000000
,
00100000
00000000
00001000
00000000
,
00010000
00000000
00000010
00000000
,
00000100
00000001
00000001
00000000
,
00000010
00000100
00000100
00000000
,
00010000
00000000
00001000
00001000
,
01000000
01000000
00100000
00100000
,
10000000
10010000
10000000
10010000
,
10000000
00000000
01000000
00010000
,
00001000
00011000
00001000
00011000
,
00010000
00000000
00000100
00000000
,
00000020
00000000
00000001
00000031
,
00000100
00000000
00001000
00010000
,
00002000
00000000
01000000
01003000
,
00100000
00000000
10000000
00000000
,
00010000
00000000
00100000
00001000
,
00001000
00000000
00010000
00000010
,
00000200
00000000
00000010
00000310
,
00001000
00000000
00000001
00000010
,
00001000
00000000
00000000
00000000
,
00011000
00000000
00001000
01000000
,
00010000
00000000
10000000
00100000
,
01000000
00000000
00010000
00000000
,
00100000
00000000
00001000
00000000
,
00010000
00000010
00000200
00000300
,
00000001
00000010
00000200
00000300
,
00010000
00000000
00001000
00000000
,
00000000
01000000
00100000
10000000
,
00020000
00000000
00000000
10030000
,
00000000
10000000
00100000
00010000
,
00000000
00001000
00000000
00000100
,
00000000
00000001
00000010
00001000
,
00000000
00010000
01000000
00000000
,
20000000
00000000
00100000
30100000
,
10000000
01000000
00100000
00001000
,
00020000
00000000
00000100
00030100
,
00001000
00000001
00000100
00000010
,
00010000
00000100
00010000
00001000
,
01000000
00010000
10000000
00100000
,
00020000
00000000
00000010
00030010
,
00001000
00000001
00000010
00001000
,
00011000
00000000
00000000
00000000
;

//---------------dance-double - t7r----------------
#NOTES:
     dance-double:
     t7r:
     Medium:
     6:
     :
00000000
00000000
00000000
00000000
,
00000000
00000000
00000000
00000000
,
00000000
00000000
00000000
00000000
,
00000000
00000000
00000000
00000000
,
00000000
00000000
00000000
00000000
,
00010000
00000000
00000000
00000000
00000100
00001000
00000001
00000000
,
00000100
00000000
00000010
00000000
00001000
00000100
00010000
00000000
,
00001000
00000000
01000000
00000000
00010000
00100000
00010000
00000000
,
10000000
00000000
00100000
00000000
01000000
00010000
10000000
00000000
,
01000000
00000000
00010000
00001000
00010000
00000000
00001000
00010000
,
00000010
00000000
00000100
00000001
00001000
00000000
00000100
00010000
,
00002000
00010000
01003000
00000000
00100000
10000000
00010000
00000000
,
01000000
00011000
00000100
00011000
,
00010000
00000000
00000100
00001100
00000000
00001000
00001100
00000000
,
00001000
00000000
00000001
00000000
00000100
00001000
00020000
00000000
,
00031000
00000000
01000000
01010000
00000000
00010000
01010000
00000000
,
00010000
10000000
00100000
00010000
,
00021000
00000000
00000000
00000100
00000100
00000100
00000100
00030100
,
00000000
00001000
00000001
00000000
00000100
00000010
00010000
00000000
,
00012000
00000000
00000000
01000000
01000000
01000000
01000000
01003000
,
00000000
00010000
10000000
00000000
01000000
00100000
00010000
00000000
,
10000000
00000000
00100000
00000000
00010000
00000000
00001000
00001000
,
00000000
00010000
00000100
00001000
00000001
00000100
00001000
00000000
,
00021000
00000000
00000000
00000010
00000010
00000010
00000010
00030010
,
00000000
00010000
00001000
00000000
00010000
00100000
01000000
00000000
,
00020000
00000000
00100000
00130000
,
10010000
00000000
00000000
00000000
10000000
01000000
00100000
00000000
,
00101000
00000000
00000000
00000000
00001000
00010000
00000010
00000000
,
00001000
00000000
00000001
00000000
00000100
00000000
00001000
00010000
,
00000100
00000000
00010000
00000000
00001000
01000000
00010000
00000000
,
10000000
00200000
00010000
00000000
01300000
00000000
00001000
00000000
,
00010000
00000020
00000100
00000000
00001030
00000000
00000001
00000000
,
00000010
00000000
00001000
00000000
00010000
00001000
00100000
00100000
,
00000000
00010000
10000000
00000000
00100000
01000000
00010000
00000000
,
20010000
00000000
00000000
30100000
,
00000000
00000000
10000000
00000000
00100000
00010000
00001000
00000000
,
00000000
00000100
00000001
00000001
00001000
00000001
00000001
00000010
,
00000001
00000000
00000010
00000000
00001000
00010000
00001000
00000000
,
00010000
00100000
10000000
01000000
,
10020000
00000000
00000000
00100000
00100000
10000000
10000000
10030000
,
00000000
00100000
01000000
00000000
00001000
00010000
00000100
00000000
,
00002001
00000000
00000000
00000010
00000010
00000001
00000001
00003001
,
00000000
00000010
00000100
00000000
00001000
00000100
00010000
00000000
,
00001000
00000000
01000000
00000000
00010000
10000000
00100000
00100000
,
00000000
00010000
00001000
00000000
00000100
00000010
00001000
00000000
,
00002001
00000000
00000000
00000100
00000100
00000001
00000001
00003001
,
00000000
00000100
00001000
00000000
00010000
00100000
01000000
00010000
,
10010000
00000000
00000000
00000000
;

//---------------dance-double - t7r----------------
#NOTES:
     dance-double:
     t7r:
     Hard:
     9:
     :
00000000
00000000
00000000
00000000
,
00000000
00000000
00000000
00000000
,
00000000
00000000
00000000
00000000
,
00000000
00000000
00000000
00000000
,
00000000
00000000
00000000
00000000
,
00010000
00000000
00000010
00000000
00001000
00000001
00000100
00000000
,
00000001
00000000
00000010
00000000
00000100
00010000
00001000
00000000
,
00010000
00000000
00100000
00000000
10000000
00010000
01000000
00000000
,
00010000
00000000
00100000
00000000
00001000
00010000
00000010
00001000
,
00000001
00000000
00000100
00001000
00010000
00000000
00001000
01000000
,
00010000
10000000
00100000
00010000
00001000
00100000
00001000
00010000
,
00011000
00010000
00000010
00000100
00000001
00001000
00001100
00000000
,
00010100
00000100
00001100
00000000
00011000
00001000
01001000
01000000
,
01100000
00100000
10100000
10100000
10000000
10010000
10010000
00000000
,
10000000
01000000
00010000
00001000
00000010
00000001
00002000
00003000
,
00001010
00000010
00000110
00000110
00000100
00000101
00000101
00000001
,
00000010
00001000
00010000
00000100
00010000
00000000
00001000
00000000
,
00021000
00000000
00000000
01000000
00001000
01000000
00001000
01030000
,
00000000
10000000
00100000
00010000
00001000
00100000
00001000
00010000
,
00012000
00000000
00000000
00000010
00010000
00000010
00010000
00003010
,
00000000
00000100
00001000
00000001
00000100
00001000
00010000
00001000
,
01001000
01000000
00010000
10000000
00100000
10000000
00010000
00010000
,
00000000
10000000
01000000
00010000
00001000
01000000
00100000
00010000
,
00012000
00000000
00000000
00000100
00010000
00000100
00010000
00003100
,
00000000
00000010
00001000
00000100
00000010
00000100
00010000
00001000
,
00020000
01000000
00001000
00030100
,
00002001
00000000
00000100
00000000
00000001
00000010
00013000
00000000
,
10020000
00000000
01000000
00000000
10000000
00100000
00031000
00000000
,
00000100
00000000
00001001
00000000
00001000
00000100
00010100
00000000
,
00010000
00000000
00011000
00000000
00001000
01000000
01010000
00000000
,
10000000
00200000
00010000
00000000
01300000
00010000
00100000
00000000
,
00001000
00020000
00000100
00000000
00031000
00000010
00000100
00000000
,
00001000
00000001
00000100
00000000
00001000
00010000
00000100
00000100
,
00000000
00010000
00001000
00010000
00100000
10000000
00010000
00100000
,
02000000
00000000
00000000
00000000
00000000
00000000
03010000
00001000
,
00000100
00000000
00000001
00000010
00001000
00010000
01000000
10000000
,
00000000
00000000
00100000
00000000
00010000
00001000
00010000
00000000
00000010
00000000
00010000
00001000
00010000
00000000
00000100
00000000
,
00001000
00000000
00000001
00000010
00001000
00010000
01000000
10000000
,
00000000
00000000
00100000
01000000
00001000
00000000
00010000
00000000
00000100
00000000
00000000
00000000
00000010
00000000
00000000
00000000
,
00002001
00000000
00010000
00000100
00010000
00000100
00010000
00003100
,
00000000
00001000
00000001
00000100
00001000
00010000
00100000
10000000
,
10020000
00000000
00001000
01000000
00001000
01000000
00001000
01030000
,
00000000
00010000
00100000
00001000
00010000
00000100
00001000
00000001
,
00000100
00000010
00000000
00001000
00000100
00000000
00010000
00001000
00000000
01000000
00010000
00000000
10000000
00000000
10000000
00000000
,
00010000
00100000
00000000
00001000
00010000
00000000
00000010
00001000
00000000
00000001
00000100
00000000
00000001
00000000
00001000
00000000
,
00002001
00000000
00010000
00000010
00010000
00000010
00010000
00003010
,
00001000
00000100
00000000
00010000
00001000
00000000
00010000
01000000
00000000
01000000
10000000
00000000
00100000
00000000
01000000
00000000
,
00001000
00000000
00000000
00000000
;
