#VERSION:0.83;
#TITLE:Arcanum Grimoire;
#SUBTITLE:;
#ARTIST:zetoban;
#TITLETRANSLIT:;
#SUBTITLETRANSLIT:;
#ARTISTTRANSLIT:;
#GENRE:GOTHIC HARDCORE;
#ORIGIN:G2R2018 -Climax- (Team "SAGGITA☆MAGNITUDE");
#TAGS:;
#CREDIT:;
#BANNER:Arcanum Grimoire.png;
#BACKGROUND:Arcanum Grimoire-bg.png;
#PREVIEWVID:;
#JACKET:Arcanum Grimoire-jacket.png;
#CDIMAGE:;
#DISCIMAGE:;
#LYRICSPATH:;
#CDTITLE:yosefu-cdtitle-v3.png;
#MUSIC:Arcanum Grimoire.ogg;
#OFFSET:-0.105000;
#SAMPLESTART:111.105003;
#SAMPLELENGTH:14.400000;
#SELECTABLE:YES;
#BPMS:0.000000=100.000000
,32.000000=200.000000
,256.000000=100.000000
,272.000000=133.332993
,304.000000=266.666992
;
#STOPS:31.937500=0.600000
;
#DELAYS:;
#WARPS:;
#TIMESIGNATURES:0.000000=2=4
,32.000000=4=4
,256.000000=2=4
,272.000000=4=4
;
#TICKCOUNTS:0.000000=4
;
#COMBOS:0.000000=1
;
#SPEEDS:0.000000=1.000000=0.000000=0
;
#SCROLLS:0.000000=1.000000
;
#FAKES:;
#LABELS:0.000000=Song Start
;
#BGCHANGES:;
#KEYSOUNDS:;
#ATTACKS:
;

//---------------dance-single - ----------------
#NOTEDATA:;
#CHARTNAME:;
#CHARTHASH:1300837486;
#STEPSTYPE:dance-single;
#BANNER:;
#DESCRIPTION:;
#CHARTSTYLE:;
#DIFFICULTY:Medium;
#METER:13;
#METERF:0.000000;
#LASTSECONDHINT:147.690933;
#RADARVALUES:0.511985,0.626314,0.322148,0.147651,0.003356,534.000000,486.000000,48.000000,22.000000,0.000000,0.000000,0.000000,0.000000,0.000000,0.511985,0.626314,0.322148,0.147651,0.003356,534.000000,486.000000,48.000000,22.000000,0.000000,0.000000,0.000000,0.000000,0.000000;
#CREDIT:-YOSEFU-;
#NOTES:
// measure 0
0000
0000
0000
0000
,  // measure 1
0000
0000
0000
0000
,  // measure 2
0000
0000
0000
0000
,  // measure 3
0000
0000
0000
0000
,  // measure 4
2000
0000
3200
0320
,  // measure 5
0032
0000
0203
0000
,  // measure 6
2300
0000
0000
0000
,  // measure 7
3200
0000
0000
0000
,  // measure 8
0301
1000
0100
0000
0000
0000
0000
0010
,  // measure 9
0001
1000
0010
0000
0000
0000
0000
1000
,  // measure 10
0001
0100
0001
0000
0000
0000
0000
0001
,  // measure 11
1000
1010
0011
1001
,  // measure 12
0001
1000
0100
0000
0000
0000
0000
0010
,  // measure 13
0001
1000
0010
0000
0000
0000
0000
0100
,  // measure 14
0001
0100
0010
0000
0000
0000
0000
0100
,  // measure 15
0001
1001
1100
0011
,  // measure 16
1001
0000
1000
0000
0010
0100
0001
0000
,  // measure 17
1000
0000
0100
0000
0010
0001
1000
0000
,  // measure 18
0010
0000
0100
0000
0001
0010
0100
0000
,  // measure 19
1000
0000
0001
0000
0100
0010
2000
0000
,  // measure 20
3100
0000
0010
0000
0001
0100
0010
0000
,  // measure 21
1000
0000
0001
0000
0010
0100
1000
0000
,  // measure 22
0001
0000
0100
0000
0010
1000
0100
0000
,  // measure 23
0010
0000
0001
0000
1000
0010
1000
0010
,  // measure 24
0100
0000
0001
0000
1000
0100
0010
0000
,  // measure 25
0100
1000
0001
0000
0100
0000
0010
0000
,  // measure 26
1000
0000
0001
0000
0010
0100
1000
0000
,  // measure 27
0100
0010
0001
0000
1000
0000
0020
0000
,  // measure 28
0130
0000
0001
0000
0010
0100
1000
0000
,  // measure 29
0100
0010
0001
0000
1000
0000
0010
0000
,  // measure 30
0100
0000
0001
0000
0010
0100
1000
0000
,  // measure 31
0010
0100
0001
0000
1000
0000
0100
0000
,  // measure 32
0010
0000
0001
0000
1000
0010
0100
0000
,  // measure 33
0001
1000
0100
0000
0010
0000
0001
0000
,  // measure 34
1000
0000
0010
0000
0100
0001
1000
0000
,  // measure 35
0100
0010
0001
0000
0100
0000
0020
0000
,  // measure 36
1030
0000
0001
0000
0010
0100
1000
0000
,  // measure 37
0001
0100
0010
0000
1000
0000
0001
0000
,  // measure 38
0010
0000
0100
0000
1000
0010
0100
0000
,  // measure 39
0001
1000
0100
0000
0010
0001
0010
0001
,  // measure 40
1000
0001
0100
0000
0000
0000
0000
0001
,  // measure 41
1000
0010
0100
0000
0000
0000
0000
0001
,  // measure 42
1000
0100
0010
0000
0000
0000
0000
0100
,  // measure 43
1000
1100
0110
0011
,  // measure 44
0001
1000
0010
0000
0000
0000
0000
0100
,  // measure 45
0001
0010
0100
0000
0000
0000
0000
1000
,  // measure 46
0010
0100
0001
0000
0000
0000
0000
1000
,  // measure 47
0100
1100
1001
0101
,  // measure 48
0001
0000
1000
0100
0010
0000
0011
0000
,  // measure 49
0001
0000
1000
0010
0100
0000
0101
0000
,  // measure 50
0001
0000
1000
0100
0010
0000
0011
0000
,  // measure 51
1001
1010
0101
1001
,  // measure 52
1000
0000
0010
0100
0001
0100
0010
0000
,  // measure 53
0110
0101
1001
1100
,  // measure 54
0100
0000
0010
0001
1000
0000
0010
0000
,  // measure 55
0110
0000
0101
0000
0001
1000
0001
1000
,  // measure 56
0010
0000
0100
0001
1000
0000
1100
0000
,  // measure 57
0100
0000
0010
0001
1000
0000
1001
0000
,  // measure 58
0001
0000
0100
0010
1000
0000
1001
0000
,  // measure 59
0001
0010
0100
0010
0001
0000
1001
0000
,  // measure 60
1000
0000
0010
0100
0001
0000
0010
0000
,  // measure 61
0110
1001
0101
1010
,  // measure 62
1000
0000
0001
0010
0100
0000
0010
0000
,  // measure 63
0001
1000
0001
1000
0001
1000
0001
1000
,  // measure 64
0002
0000
0203
0000
,  // measure 65
0320
0000
2030
0000
,  // measure 66
3200
0320
0032
0203
,  // measure 67
0320
0000
2030
0000
,  // measure 68
3100
0000
0010
0001
0100
0000
0010
1000
,  // measure 69
0100
0000
0010
0001
1000
0001
1000
0001
,  // measure 70
0100
0000
0010
1000
0100
0000
0010
0001
,  // measure 71
1000
0000
0010
0100
0001
1000
0001
1000
,  // measure 72
0001
0000
0010
0100
1000
0000
0010
0100
,  // measure 73
0001
0000
0010
0100
1000
0001
1000
0001
,  // measure 74
1000
0000
0010
0100
0001
0000
1000
0100
,  // measure 75
0010
0000
0001
0100
0010
1000
0010
0100
,  // measure 76
0001
1000
0100
0010
,  // measure 77
0001
1000
0010
0100
,  // measure 78
0001
1000
0100
0010
,  // measure 79
0001
0100
0010
1000
,  // measure 80
0001
0010
0100
1000
,  // measure 81
0010
0100
0001
1000
,  // measure 82
0100
0010
0001
1000
,  // measure 83
0010
1000
0100
0010
,  // measure 84
0001
1000
0001
0100
,  // measure 85
0010
1000
0010
0100
,  // measure 86
0010
1000
0001
0100
,  // measure 87
0010
1000
0100
0010
,  // measure 88
0001
0010
0100
1000
,  // measure 89
0010
0100
0001
1000
,  // measure 90
0100
0010
0001
0100
,  // measure 91
0010
1000
0001
0010
,  // measure 92
1100
1000
0100
0010
,  // measure 93
0001
1000
0010
0100
,  // measure 94
0001
1000
0100
0010
,  // measure 95
0001
0100
0010
1000
,  // measure 96
0001
0010
0100
1000
,  // measure 97
0001
0100
0001
0010
,  // measure 98
0100
1000
0010
1000
,  // measure 99
0100
1000
0010
1000
,  // measure 100
0001
0010
0001
0100
,  // measure 101
0001
1000
0100
0010
,  // measure 102
0001
1000
0010
1000
,  // measure 103
0001
0010
0001
1000
,  // measure 104
0010
0100
0001
0010
,  // measure 105
0100
1000
0010
1000
,  // measure 106
0100
0010
0001
0100
,  // measure 107
0010
1000
0001
0010
,  // measure 108
0110
0000
0000
0110
0000
0000
1100
0000
,  // measure 109
0000
1100
0000
0000
1000
0000
0001
0000
,  // measure 110
0101
0000
0000
0101
0000
0000
1010
0000
,  // measure 111
0000
1010
0000
0000
1000
0000
0001
0000
,  // measure 112
0011
0000
0000
0011
0000
0000
1100
0000
,  // measure 113
0000
1100
0000
0000
1000
0000
0001
0000
,  // measure 114
0202
0000
0000
0000
,  // measure 115
0000
0000
0000
0000
,  // measure 116
0000
0000
0000
0000
0000
0000
0000
0000
0000
0000
0000
0000
0000
0000
0000
0000
0000
0000
0000
0000
0000
0000
0000
0000
0000
0000
0000
0000
0000
0000
0000
0000
0000
0000
0000
0000
0000
0000
0000
0000
0000
0000
0000
0000
0000
0000
0000
0000
0000
0000
0000
0000
0000
0000
0000
0000
0000
0000
0000
0000
0000
0000
0000
0000
0000
0000
0000
0000
0000
0000
0000
0000
0000
0000
0000
0000
0000
0000
0000
0000
0000
0000
0000
0000
0000
0000
0000
0000
0000
0000
0000
0000
0000
0000
0000
0000
0000
0000
0000
0000
0000
0000
0000
0000
0000
0000
0000
0000
0000
0000
0000
0000
0000
0000
0000
0000
0000
0000
0000
0000
0000
0000
0000
0000
0000
0303
0000
0000
0000
0000
0000
0000
0000
0000
0000
0000
0000
0000
0000
0000
0000
0000
0000
0000
0000
0000
0000
0000
0000
0000
0000
0000
0000
0000
0000
0000
0000
0000
0000
0000
0000
0000
0000
0000
0000
0000
0000
0000
0000
0000
0000
0000
0000
0000
0000
0000
0000
0000
0000
0000
0000
0000
0000
0000
0000
0000
0000
0000
0000
0000
0000
0000
;

//---------------dance-single - ----------------
#NOTEDATA:;
#CHARTNAME:;
#CHARTHASH:324004074;
#STEPSTYPE:dance-single;
#BANNER:;
#DESCRIPTION:;
#CHARTSTYLE:;
#DIFFICULTY:Hard;
#METER:15;
#METERF:0.000000;
#LASTSECONDHINT:147.690933;
#RADARVALUES:0.734420,0.939471,0.046980,0.255034,0.104027,766.000000,759.000000,7.000000,38.000000,0.000000,0.000000,0.000000,0.000000,0.000000,0.734420,0.939471,0.046980,0.255034,0.104027,766.000000,759.000000,7.000000,38.000000,0.000000,0.000000,0.000000,0.000000,0.000000;
#CREDIT:-YOSEFU-;
#NOTES:
// measure 0
0000
0000
0000
0000
,  // measure 1
0000
0000
0000
0000
,  // measure 2
0000
0000
0000
0000
,  // measure 3
0000
0000
0000
0000
,  // measure 4
2000
0000
3002
0203
,  // measure 5
2300
0000
3200
0000
,  // measure 6
0320
0000
0000
0000
,  // measure 7
2030
0000
0000
0000
,  // measure 8
3001
0100
0010
0000
1000
0100
0010
0001
,  // measure 9
0100
0010
1000
0000
0001
0010
0100
1000
,  // measure 10
0010
0100
0001
0000
0010
0100
1000
0001
,  // measure 11
0101
1010
1100
0011
,  // measure 12
0001
0100
0010
0000
1000
0001
0010
0100
,  // measure 13
1000
0010
0100
0000
0001
1000
0100
0010
,  // measure 14
0001
0100
0010
0000
1000
0001
0010
0100
,  // measure 15
1000
0001
0100
0010
0001
0010
1000
0001
,  // measure 16
0010
0100
1000
0000
0001
0100
0010
0100
,  // measure 17
0001
1000
0100
0000
0010
0001
0100
0010
,  // measure 18
1000
0001
0010
0000
0100
0010
0001
1000
,  // measure 19
0010
0100
0001
0010
1000
0010
0001
1000
,  // measure 20
0010
0100
0001
0000
1000
0100
0010
0001
,  // measure 21
0100
0010
1000
0000
0001
0010
0100
1000
,  // measure 22
0010
0100
0001
0000
1000
0100
0001
0100
,  // measure 23
1000
1000
0001
0001
0100
0100
0020
0000
,  // measure 24
1030
0100
0010
0100
1000
0010
0100
0001
,  // measure 25
0010
0001
0100
0010
1000
0100
0020
0000
,  // measure 26
0031
0100
0010
1000
0100
0010
0001
0100
,  // measure 27
1000
0100
0001
0010
0100
1000
0002
0000
,  // measure 28
1003
0010
1000
0001
0010
0001
0100
0010
,  // measure 29
1000
0100
1000
0010
0100
0001
0020
0000
,  // measure 30
0130
1000
0001
0100
0010
0100
0001
1000
,  // measure 31
0100
0010
0001
0100
1000
0100
0002
0000
,  // measure 32
0013
0100
1000
0001
0100
0010
1000
0100
,  // measure 33
1000
0010
0100
0001
0010
0001
2000
0000
,  // measure 34
3001
0100
0010
0100
0001
0010
0100
1000
,  // measure 35
0100
0001
0100
1000
0001
0100
0020
0000
,  // measure 36
1030
0100
1000
0010
0100
0001
0010
0001
,  // measure 37
0100
0010
1000
0100
1000
0001
0200
0000
,  // measure 38
0310
1000
0100
0010
0001
1000
0010
0100
,  // measure 39
0010
1000
0100
0001
0100
1000
0001
0100
,  // measure 40
0010
1000
0001
0000
1000
0100
0010
0001
,  // measure 41
0100
0010
1000
0000
0001
0100
0001
0010
,  // measure 42
0100
1000
0001
0000
0100
0010
0001
0010
,  // measure 43
0100
0001
1000
0100
0010
0001
0010
0100
,  // measure 44
1000
0001
0100
0000
0010
1000
0100
0010
,  // measure 45
0001
0100
0001
0000
1000
0100
0010
1000
,  // measure 46
0010
0001
1000
0010
0100
0001
0020
0000
,  // measure 47
1030
0010
0001
1000
0010
0100
0001
1000
,  // measure 48
0100
0000
0010
0001
1000
0000
1010
0000
,  // measure 49
0010
0000
0100
0001
0010
0000
0011
0000
,  // measure 50
1000
0000
0010
0100
0001
1000
0100
0000
,  // measure 51
0010
0000
0001
0100
0010
1000
0200
0000
,  // measure 52
0310
0000
0001
1000
0010
0100
0020
0000
,  // measure 53
0031
0010
1000
0001
0010
0100
2000
0000
,  // measure 54
3001
0100
0010
0100
0001
1000
0100
0010
,  // measure 55
0001
0100
0010
1000
0001
0010
0100
1000
,  // measure 56
0001
0100
0001
0010
0100
1000
0200
0000
,  // measure 57
1300
0010
1000
0100
0010
0001
0200
0000
,  // measure 58
0301
0010
0001
0100
0010
1000
0200
0000
,  // measure 59
1300
0010
0100
0001
0010
0100
2000
0000
,  // measure 60
3001
0100
0010
1000
0100
0010
0200
0000
,  // measure 61
0301
0100
1000
0001
0100
0010
2000
0000
,  // measure 62
3001
0100
0010
1000
0100
0010
0001
1000
,  // measure 63
0010
0100
1000
0100
0010
0100
0001
1000
,  // measure 64
0100
0010
0001
0100
,  // measure 65
0010
1000
0100
0010
,  // measure 66
0001
0000
0000
1000
0010
0000
0000
0100
0001
0000
0000
1000
0100
0000
0000
0000
,  // measure 67
0010
0000
0000
0000
0000
0000
0001
0000
1000
0000
0000
0010
0000
0000
0100
0000
0002
0000
0000
0000
0000
0000
0000
0000
0000
0000
0000
0000
0000
0000
0000
0000
,  // measure 68
1003
0000
0100
1000
0000
0000
0001
0000
0100
0000
0010
1000
0000
0000
0001
0000
,  // measure 69
0010
0000
0100
1000
0000
0000
0100
0010
0001
0000
0001
0000
0001
0000
0001
0000
,  // measure 70
1000
0000
0010
0100
0000
0000
0001
0000
1000
0000
0100
0010
0000
0000
0001
0000
,  // measure 71
0100
0000
0010
1000
0000
0000
0001
0010
0100
0000
0100
0000
0100
0000
0100
0000
,  // measure 72
1000
0000
0001
0100
0000
0000
0010
1000
0001
0000
0010
0100
0000
0000
1000
0001
,  // measure 73
0100
0000
0010
1000
0000
0000
0100
0010
0001
0000
0001
0000
0001
0000
0001
0000
,  // measure 74
0100
0000
0010
1000
0000
0000
0001
0010
0100
0000
1000
0100
0000
0000
0010
0001
,  // measure 75
1000
0000
0010
0100
0000
0000
0001
1000
0100
0010
0100
0010
0001
0010
0001
0010
,  // measure 76
0001
1000
0010
1000
0010
0100
0010
0100
,  // measure 77
0001
0100
1000
0200
,  // measure 78
0310
0100
0010
0100
0001
0100
0001
1000
,  // measure 79
0100
0010
0001
0200
,  // measure 80
0310
1000
0010
1000
0001
1000
0001
1000
,  // measure 81
0100
0010
0001
0000
0100
0000
0010
1000
,  // measure 82
0001
1000
0100
0010
0100
0010
0001
1000
,  // measure 83
0010
0100
0001
0000
0010
0100
2000
0000
,  // measure 84
3001
0100
0001
0100
0010
1000
0010
1000
,  // measure 85
0100
0010
0001
0200
,  // measure 86
0301
1000
0001
1000
0100
0010
0100
0010
,  // measure 87
0001
0100
1000
0200
,  // measure 88
0310
0100
0001
0010
0100
1000
0001
0000
,  // measure 89
0100
0010
1000
0100
0010
0001
1000
0000
,  // measure 90
0010
1000
0100
0010
0001
1000
0010
0000
,  // measure 91
0100
0001
0010
0100
1000
0100
0010
0001
,  // measure 92
0100
0010
1000
0100
0010
0001
1000
0010
,  // measure 93
0100
0001
1000
0200
,  // measure 94
0310
0001
0010
0100
1000
0010
0100
0001
,  // measure 95
1000
0100
0001
0200
,  // measure 96
0310
0100
1000
0100
0010
0001
1000
0010
,  // measure 97
0100
0001
0010
0001
1000
0100
0010
0100
,  // measure 98
1000
0001
0100
0010
2000
0000
3100
0010
,  // measure 99
0001
0100
0010
1000
0100
1000
0001
0100
,  // measure 100
0010
1000
0010
0100
0001
1000
0100
0010
,  // measure 101
0100
1000
0100
0010
0100
1000
0200
0000
,  // measure 102
1300
0001
0100
0010
1000
0010
0100
0001
,  // measure 103
1000
0100
1000
0010
1000
0001
0020
0000
,  // measure 104
0130
1000
0100
0010
0001
0100
0010
1000
,  // measure 105
0001
0100
0001
0010
0100
1000
0001
1000
,  // measure 106
0010
1000
0100
1000
0010
1000
0001
0100
,  // measure 107
0001
0010
0100
1000
0010
0100
0001
1000
,  // measure 108
0001
0100
0000
0001
0100
0000
0001
0100
,  // measure 109
0000
0001
0100
0000
0010
1000
0001
0000
,  // measure 110
1000
0100
0000
1000
0100
0000
1000
0100
,  // measure 111
0000
1000
0100
0000
0010
0001
1000
0000
,  // measure 112
0010
1000
0000
0010
1000
0000
0010
1000
,  // measure 113
0000
0010
1000
0000
0100
0010
0001
0000
,  // measure 114
2002
0000
0000
0000
,  // measure 115
0000
0000
0000
0000
,  // measure 116
0000
0000
0000
0000
0000
0000
0000
0000
0000
0000
0000
0000
0000
0000
0000
0000
0000
0000
0000
0000
0000
0000
0000
0000
0000
0000
0000
0000
0000
0000
0000
0000
0000
0000
0000
0000
0000
0000
0000
0000
0000
0000
0000
0000
0000
0000
0000
0000
0000
0000
0000
0000
0000
0000
0000
0000
0000
0000
0000
0000
0000
0000
0000
0000
0000
0000
0000
0000
0000
0000
0000
0000
0000
0000
0000
0000
0000
0000
0000
0000
0000
0000
0000
0000
0000
0000
0000
0000
0000
0000
0000
0000
0000
0000
0000
0000
0000
0000
0000
0000
0000
0000
0000
0000
0000
0000
0000
0000
0000
0000
0000
0000
0000
0000
0000
0000
0000
0000
0000
0000
0000
0000
0000
0000
0000
3003
0000
0000
0000
0000
0000
0000
0000
0000
0000
0000
0000
0000
0000
0000
0000
0000
0000
0000
0000
0000
0000
0000
0000
0000
0000
0000
0000
0000
0000
0000
0000
0000
0000
0000
0000
0000
0000
0000
0000
0000
0000
0000
0000
0000
0000
0000
0000
0000
0000
0000
0000
0000
0000
0000
0000
0000
0000
0000
0000
0000
0000
0000
0000
0000
0000
0000
;

//---------------dance-single - ----------------
#NOTEDATA:;
#CHARTNAME:The 18th Warlock Grimoire;
#CHARTHASH:1074383262;
#STEPSTYPE:dance-single;
#BANNER:;
#DESCRIPTION:;
#CHARTSTYLE:;
#DIFFICULTY:Challenge;
#METER:18;
#METERF:18.000000;
#LASTSECONDHINT:147.690933;
#RADARVALUES:0.977948,1.056905,0.033557,0.275168,0.714765,1020.000000,1015.000000,5.000000,41.000000,0.000000,0.000000,0.000000,0.000000,0.000000,0.977948,1.056905,0.033557,0.275168,0.714765,1020.000000,1015.000000,5.000000,41.000000,0.000000,0.000000,0.000000,0.000000,0.000000;
#CREDIT:Yosefu, the Forsaken Warlock;
#NOTES:
// measure 0
0000
0000
0000
0000
,  // measure 1
0000
0000
0000
0000
,  // measure 2
0000
0000
0000
0000
,  // measure 3
0000
0000
0000
0000
,  // measure 4
2000
0000
3002
0203
,  // measure 5
2300
0000
3200
0000
,  // measure 6
0320
1000
0100
0001
,  // measure 7
2030
0100
0010
0001
,  // measure 8
3100
0000
0010
0001
1000
0000
0010
0100
0001
0100
0010
1000
0001
0000
0010
0000
,  // measure 9
0010
0000
0100
1000
0001
0000
1000
0010
0100
0010
1000
0001
1000
0000
0100
0000
,  // measure 10
0100
0000
0010
0001
1000
0000
0010
0100
0001
0100
0010
1000
0001
0000
1000
0000
,  // measure 11
1010
0011
1100
0101
,  // measure 12
0001
0000
1000
0100
0010
0000
0001
1000
0100
1000
0001
0010
0100
0000
1000
0000
,  // measure 13
1000
0000
0001
0100
0010
0000
0100
0001
1000
0001
0100
0001
1000
0000
0100
0000
,  // measure 14
0100
0000
0010
0001
0100
0000
0010
1000
0100
1000
0010
0100
0001
0000
1000
0000
,  // measure 15
1000
0000
0100
0010
0001
0000
0100
0010
1000
0001
0100
0001
0010
0100
1000
0100
,  // measure 16
0010
0000
0001
1000
0010
0000
0100
0001
1000
0001
0100
0001
1000
0000
0100
0000
,  // measure 17
0010
0000
0001
1000
0010
0000
0100
0001
1000
0100
1000
0001
0100
0000
0010
0000
,  // measure 18
1000
0000
0001
0010
0100
0000
1000
0001
0100
0001
1000
0001
0100
0000
0010
0000
,  // measure 19
1000
0100
0010
1000
0010
0001
0100
0010
,  // measure 20
1000
0000
0100
0010
0001
0000
1000
0010
0100
0010
1000
0001
0010
0000
0100
0000
,  // measure 21
1000
0000
0010
0100
0001
0000
0010
0100
1000
0100
0010
0001
0100
0000
0010
0000
,  // measure 22
1000
0000
0001
0010
0100
0000
0010
0001
1000
0010
1000
0100
0010
0000
0001
0000
,  // measure 23
0100
0100
0010
0010
1000
1000
0001
0001
,  // measure 24
0010
0000
0100
1000
0001
0000
0100
0000
0010
0000
0100
0001
1000
0000
0100
0010
,  // measure 25
0001
0000
1000
0010
0100
0000
0001
1000
0100
0000
0010
0001
2000
0000
0000
0000
,  // measure 26
3010
0000
0100
0001
1000
0000
0100
0000
0010
0000
0001
1000
0010
0000
0100
0001
,  // measure 27
0010
0000
0100
1000
0010
0000
0100
0001
1000
0000
0100
0010
0002
0000
0000
0000
,  // measure 28
0103
0000
0010
1000
0001
0000
0010
0000
0100
0000
1000
0001
0100
0000
0010
1000
,  // measure 29
0001
0000
0010
0100
1000
0000
0001
0100
0010
0000
1000
0001
0020
0000
0000
0000
,  // measure 30
0130
0000
1000
0001
0100
0000
0010
0000
1000
0000
0001
0010
0100
0000
0010
0001
,  // measure 31
1000
0000
0010
0100
0001
0000
0010
0100
1000
0000
0010
0100
0001
0000
0010
0000
,  // measure 32
0100
0000
1000
0001
0100
0000
0010
0000
1000
0000
0100
0010
0001
0000
1000
0010
,  // measure 33
0100
0000
0001
1000
0100
0000
0010
0001
1000
0000
0010
0100
0002
0000
0000
0000
,  // measure 34
1003
0000
0100
0010
0001
0000
1000
0000
0010
0000
0100
0001
1000
0000
0100
0010
,  // measure 35
0001
0000
0100
0010
1000
0000
0001
0010
0100
0000
1000
0010
0200
0000
0000
0000
,  // measure 36
0301
0000
0010
0100
1000
0000
0001
0000
0100
0000
0010
1000
0001
0000
0010
0100
,  // measure 37
1000
0000
0001
0100
0010
0000
0100
0001
1000
0000
0100
0010
0002
0000
0000
0000
,  // measure 38
0103
0000
0010
1000
0001
0000
0010
0000
0100
0000
0010
0001
1000
0000
0010
0100
,  // measure 39
0001
0000
0010
0100
1000
0000
0010
0100
0001
0000
0001
0000
0100
0000
0100
0000
,  // measure 40
0010
0000
1000
0001
0010
0000
0100
1000
0100
0010
0001
1000
0010
0000
0100
0000
,  // measure 41
0100
0000
0001
0010
0100
0000
0010
0001
1000
0010
1000
0100
0010
0000
0001
0000
,  // measure 42
0001
0000
0100
0010
1000
0000
0100
0010
0001
1000
0010
0100
0001
0000
1000
0000
,  // measure 43
1000
0000
0100
0010
0001
0000
0100
0010
1000
0001
0010
0100
1000
0000
0001
0000
,  // measure 44
0100
0000
0001
0010
0100
0000
0010
0001
1000
0010
1000
0100
0010
0000
0100
0000
,  // measure 45
0100
0000
1000
0010
0100
0000
0001
0000
0010
0100
1000
0100
0010
0000
0001
0000
,  // measure 46
0100
0010
0100
0001
1000
0100
0010
0001
,  // measure 47
0001
0000
0100
0000
0010
1000
0001
0000
0010
0100
1000
0000
0100
0000
0010
0000
,  // measure 48
0001
0000
0100
0010
1000
0000
0100
0000
0010
0000
0001
0000
0020
0000
0000
0000
,  // measure 49
0130
0000
1000
0001
0100
0000
0010
0000
1000
0000
0001
0000
0020
0000
0000
0000
,  // measure 50
0130
0000
0010
0001
1000
0000
0010
0000
0100
0000
0001
0000
2000
0000
0000
0000
,  // measure 51
3100
0000
0010
0001
1000
0000
0010
0000
0100
0000
0100
0000
0002
0000
0000
0000
,  // measure 52
0013
0000
0100
1000
0001
0000
0100
0000
0010
0000
1000
0000
0200
0000
0000
0000
,  // measure 53
0301
0100
1000
0001
0100
0010
2000
0000
,  // measure 54
3001
0000
0100
0010
1000
0000
0100
0000
0010
0000
0001
0000
1000
0000
0010
0000
,  // measure 55
0100
0001
0100
0010
1000
1000
0001
0001
,  // measure 56
1000
0000
0100
0010
0001
0000
1000
0000
0010
0000
0100
0000
0002
0000
0000
0000
,  // measure 57
0013
0000
0100
1000
0001
0000
0100
0000
0010
0000
1000
0000
0002
0000
0000
0000
,  // measure 58
0013
0000
0100
1000
0001
0000
0100
0000
0001
0000
0010
0000
0200
0000
0000
0000
,  // measure 59
1300
0000
0010
0100
0001
0000
0010
0000
0100
0000
0100
0000
2000
0000
0000
0000
,  // measure 60
3001
0000
0100
0010
1000
0000
0100
0000
0010
0000
0001
0000
0200
0000
0000
0000
,  // measure 61
1300
0100
0001
1000
0100
0010
0002
0000
,  // measure 62
1003
0000
0100
1000
0010
0000
0100
0001
0010
0000
0100
0000
1000
0100
0010
0001
,  // measure 63
0100
0000
0010
0000
1000
0000
0001
0000
0100
0010
1000
0001
0100
0001
0010
0100
,  // measure 64
2000
0000
3002
0203
,  // measure 65
0310
0000
0000
1000
0000
0000
0001
0000
0010
0000
0000
0100
0000
0000
1000
0000
0010
0000
0000
0100
0000
0000
0001
0000
1000
0000
0000
0000
0100
0000
0000
0000
,  // measure 66
0010
0000
0000
0001
0000
0000
1000
0010
0100
0000
0000
0000
0000
0000
0001
1000
0100
0000
0000
0010
0000
0000
0001
1000
0020
0000
0000
0000
0000
0000
0000
0000
,  // measure 67
0130
0000
0000
0001
0000
0000
1000
0000
0100
0000
0000
0010
0000
0000
0100
0000
2000
0000
0000
0000
0000
0000
0000
0000
0000
0000
0000
0000
0000
0000
0000
0000
,  // measure 68
3010
0000
0100
0001
1000
0000
0100
0010
0001
0000
1000
0010
0100
0000
0001
1000
,  // measure 69
0100
0000
0010
0001
1000
0000
0010
0100
0001
0000
0001
0000
0001
0000
0001
0000
,  // measure 70
0010
0000
0100
1000
0001
0000
0100
0010
1000
0000
0001
0010
0100
0000
0010
0001
,  // measure 71
1000
0000
0010
0100
0001
0000
1000
0100
0010
0000
0010
0000
0010
0000
0010
0000
,  // measure 72
0001
0000
1000
0010
0100
0000
0001
0010
0100
0000
1000
0001
0100
0000
0010
1000
,  // measure 73
0100
0000
0010
0001
1000
0000
0010
0100
0001
0000
0001
0000
0001
0000
0001
0000
,  // measure 74
0010
0000
0100
1000
0010
0000
0100
0001
0010
0000
0100
1000
0001
0000
0100
0001
,  // measure 75
0010
0000
0100
1000
0010
0000
0100
0001
1000
0010
0100
0001
0010
0100
1000
0001
,  // measure 76
0100
0000
0010
1000
0001
0000
0010
0000
0100
0000
1000
0000
0100
0000
0010
0000
,  // measure 77
0001
0100
0010
0100
1000
0100
0002
0000
,  // measure 78
0103
0000
0010
1000
0001
0000
0010
0000
0100
0000
1000
0000
0001
0000
0100
0000
,  // measure 79
0010
0100
1000
0100
0001
0010
0200
0000
,  // measure 80
1300
0000
0001
0100
0010
0000
0100
0000
0001
0000
1000
0000
0100
0000
0010
0000
,  // measure 81
0001
1000
0010
0001
0010
0100
0001
1000
,  // measure 82
0100
0010
0001
0100
0010
1000
0001
0010
,  // measure 83
0100
0000
1000
0000
0010
0100
0001
0000
1000
0000
0100
0000
0020
0000
0000
0000
,  // measure 84
0031
0000
1000
0010
0100
0000
0001
0000
1000
0000
0100
0000
0010
0000
0001
0000
,  // measure 85
1000
0010
0100
0010
0001
0010
2000
0000
,  // measure 86
3100
0000
0010
0001
1000
0000
0010
0000
0100
0000
0001
0000
0010
0000
0100
0000
,  // measure 87
1000
0001
0100
1000
0100
0010
0100
0000
,  // measure 88
0001
0000
0010
0100
1000
0000
0010
0000
0100
0000
0001
0000
1000
0100
0010
0000
,  // measure 89
0001
0000
0100
0010
1000
0000
0001
1000
0010
0000
0100
0000
0001
0000
0010
0100
,  // measure 90
1000
0000
0100
0010
0001
0000
0100
0000
0010
0000
1000
0000
0001
0000
0010
0000
,  // measure 91
0100
0000
1000
0000
0010
0100
0001
0000
1000
0000
0100
0000
0010
0000
0100
0000
,  // measure 92
1000
0000
0001
0100
0010
0000
0100
0000
0001
0000
0010
0000
0100
0000
1000
0000
,  // measure 93
0001
0100
0010
0001
0010
1000
0200
0000
,  // measure 94
0310
0000
0001
1000
0010
0000
0100
0000
0001
0000
0010
0000
0100
0000
1000
0000
,  // measure 95
0001
0100
1000
0100
0001
0010
0200
0000
,  // measure 96
1300
0000
0001
0100
0010
0000
1000
0000
0001
0000
0010
0000
0100
0000
1000
0000
,  // measure 97
0010
0100
0001
0010
0100
0001
0100
1000
,  // measure 98
0010
0100
0001
1000
0200
0000
1300
0010
,  // measure 99
0001
0000
1000
0000
0100
0010
1000
0000
0001
0000
0010
0000
0100
0000
1000
0000
,  // measure 100
0001
0000
0100
0010
1000
0000
0001
0000
0010
0000
1000
0000
0010
0000
0100
0000
,  // measure 101
1000
0100
0010
0001
0100
0010
2000
0000
,  // measure 102
3001
0000
0100
0010
1000
0000
0001
0000
0010
0000
1000
0000
0010
0000
0001
0000
,  // measure 103
0100
0010
1000
0001
0010
0100
2000
0000
,  // measure 104
3010
0000
0100
0001
1000
0000
0100
0000
0010
0000
0001
0000
0100
0000
0010
0000
,  // measure 105
1000
0001
0010
1000
0010
0001
1000
0100
,  // measure 106
0001
1000
0010
0001
0100
1000
0100
0001
,  // measure 107
0010
0000
0100
0000
1000
0001
0100
0000
0010
0000
1000
0000
0100
0000
0010
0000
,  // measure 108
0001
1000
0000
0100
1000
0000
0001
1000
,  // measure 109
0000
0100
1000
0001
0100
0001
1000
0100
,  // measure 110
1000
0010
0000
1000
0001
0000
1000
0010
,  // measure 111
0000
1000
0001
0010
0100
1000
0010
0100
,  // measure 112
0001
1000
0000
0100
0010
0000
0001
1000
,  // measure 113
0000
0010
0100
1000
0001
0010
1000
0000
,  // measure 114
2002
0000
0000
0000
,  // measure 115
0000
0000
0000
0000
,  // measure 116
0000
0000
0000
0000
0000
0000
0000
0000
0000
0000
0000
0000
0000
0000
0000
0000
0000
0000
0000
0000
0000
0000
0000
0000
0000
0000
0000
0000
0000
0000
0000
0000
0000
0000
0000
0000
0000
0000
0000
0000
0000
0000
0000
0000
0000
0000
0000
0000
0000
0000
0000
0000
0000
0000
0000
0000
0000
0000
0000
0000
0000
0000
0000
0000
0000
0000
0000
0000
0000
0000
0000
0000
0000
0000
0000
0000
0000
0000
0000
0000
0000
0000
0000
0000
0000
0000
0000
0000
0000
0000
0000
0000
0000
0000
0000
0000
0000
0000
0000
0000
0000
0000
0000
0000
0000
0000
0000
0000
0000
0000
0000
0000
0000
0000
0000
0000
0000
0000
0000
0000
0000
0000
0000
0000
0000
3003
0000
0000
0000
0000
0000
0000
0000
0000
0000
0000
0000
0000
0000
0000
0000
0000
0000
0000
0000
0000
0000
0000
0000
0000
0000
0000
0000
0000
0000
0000
0000
0000
0000
0000
0000
0000
0000
0000
0000
0000
0000
0000
0000
0000
0000
0000
0000
0000
0000
0000
0000
0000
0000
0000
0000
0000
0000
0000
0000
0000
0000
0000
0000
0000
0000
0000
;
