#TITLE:Addams Family;
#SUBTITLE:(Whoomp!);
#ARTIST:Tag Team;
#TITLETRANSLIT:;
#SUBTITLETRANSLIT:;
#ARTISTTRANSLIT:;
#GENRE:;
#CREDIT:Evergreen;
#MUSIC:Addams Family (Whoomp!).ogg;
#BANNER:;
#BACKGROUND:;
#CDTITLE:;
#SAMPLESTART:0.000;
#SAMPLELENGTH:0.000;
#SELECTABLE:YES;
#OFFSET:-0.041;
#BPMS:0.000=132.115;
#STOPS:;
#BGCHANGES:;
#FGCHANGES:;

//--------------- dance-single - ----------------
#NOTES:
     dance-single:
     :
     Medium:
     13:
     0,0,0,0,0:
0000
0000
0000
0000
,
0000
0000
0000
0000
,
0000
0000
0000
0000
,
0000
0000
0000
0000
,
0000
0000
0000
0000
,
1000
0000
0010
1000
0010
0000
0100
0000
0001
0000
1000
0000
0001
0000
0000
0000
,
0010
0000
0001
0010
0001
0000
1000
0000
0001
0000
0010
0000
0100
0000
0000
0000
,
1000
0000
0010
0100
0001
0000
1000
0000
0001
0000
0100
0000
0001
0000
0000
0000
,
1000
0000
0001
0010
0100
0000
1000
0000
0001
0000
0100
0000
0001
0000
1000
0000
,
1001
0001
1000
0000
0001
0100
0010
0100
,
0110
0000
0010
0100
0010
0000
0100
0000
0001
0000
1000
0000
0100
0000
1000
0000
,
1100
0000
0001
0100
0001
0000
1000
0010
,
1010
0000
1000
0100
0010
0000
0001
0000
1000
0100
1000
0000
0001
0100
0001
0000
,
1001
1000
0001
0000
1000
0100
0010
0100
,
0110
0000
0010
0100
0010
0000
0100
0000
1000
0000
0001
0000
0100
0000
0001
0000
,
0101
0000
1000
0100
1000
0000
0001
0010
,
0011
0000
0001
0100
0010
0000
1000
0000
0001
0100
0001
0000
1000
0100
1000
0000
,
0010
0000
0000
0100
0001
0000
0000
0010
0100
0000
0010
0000
0100
0000
1000
0000
,
0001
0000
0100
0000
0001
0000
1000
0100
1000
0000
0001
0000
1000
0000
0000
0000
,
0010
0100
0001
0100
0010
1000
0001
0000
,
0010
0100
1000
0100
0010
0001
1000
0000
,
1001
0000
0001
0010
0100
1000
0001
0000
,
1000
0000
0010
0000
1000
0010
1000
0000
0001
0000
0100
0000
0001
0000
0010
0000
,
0100
1000
0100
1000
0001
0100
0001
0100
,
0001
0000
1000
0000
0001
0000
1000
0000
0010
0000
1000
0010
1000
0000
0001
0000
,
1001
1000
0001
0000
1000
0010
0100
0010
,
0110
0000
0100
0010
0100
0000
0010
0000
1000
0000
0001
0000
0010
0000
0001
0000
,
0011
0000
1000
0010
1000
0000
0001
0100
,
0101
0000
0001
0010
0100
0000
1000
0000
0001
0010
0001
0000
1000
0010
1000
0000
,
1001
0001
1000
0000
0001
0010
0100
0010
,
0110
0000
0100
0010
0100
0000
0010
0000
0001
0000
1000
0000
0010
0000
1000
0000
,
1010
0000
0001
0010
0001
0000
1000
0100
,
1100
0000
1000
0010
0100
0000
0001
0000
1000
0010
1000
0000
0001
0010
0001
0000
,
1000
0000
0000
0010
0000
0100
0000
0001
0000
0000
1000
0000
1000
0000
0000
0000
,
0001
0000
0000
0010
0000
0100
0000
1000
0000
0000
0001
0000
0001
0000
1000
0000
,
0010
0100
0010
1000
0001
0100
0001
1000
,
0100
0000
0010
0000
0001
0000
1000
0000
0001
0100
0001
0000
1000
0100
1000
0000
,
0010
0000
0100
0010
0000
0000
0000
0000
1000
0000
0010
0100
0000
0001
0000
1000
,
0100
0010
0100
1000
0100
1000
0001
0000
,
1000
0000
0100
0000
0010
0000
0001
1000
0000
0000
0010
0000
0100
0000
0001
0000
,
1000
0000
0100
0000
1000
0000
0010
0000
0100
0000
0001
0010
0001
0000
0010
0000
,
0011
0001
1000
0000
0010
0100
0010
1000
,
1010
0000
0010
1000
0010
0000
1000
0000
0001
0000
0010
0000
0001
0000
0100
0000
,
0101
0000
0001
0100
0001
0000
1000
0100
,
1100
0000
1000
0100
1000
0000
0001
0000
1000
0010
0100
0001
1000
0000
0010
0000
,
1010
1000
0001
0000
0010
0100
0010
0001
,
0011
0000
0010
0001
0010
0000
0001
0000
1000
0000
0010
0000
1000
0000
0100
0000
,
1100
0000
1000
0100
1000
0000
0001
0100
,
0101
0000
0001
0100
0001
0000
1000
0000
0001
0010
0100
1000
0001
0000
0010
0000
,
0011
0000
0001
0010
0001
0000
1000
0000
0010
0000
0000
0000
0010
0000
1000
0000
,
1010
0000
0010
1000
0010
0000
1000
0000
0001
0000
0000
0000
0100
0000
0001
0000
,
0101
0000
0001
0100
0001
0000
1000
0000
0100
0000
0000
0000
1000
0000
0100
0000
,
1100
1000
0100
0010
0001
1000
0010
1000
,
1010
0000
1000
0010
1000
0000
0001
0000
0010
0000
0000
0000
0010
0000
0001
0000
,
0011
0000
0010
0001
0010
0000
0001
0000
1000
0000
0000
0000
0100
0000
1000
0000
,
1100
0000
1000
0100
1000
0000
0001
0000
0100
0000
0000
0000
0001
0000
0100
0000
,
0101
0000
0001
0000
0100
0000
0010
0000
1000
0000
0001
0000
0010
0001
1000
0000
,
0010
0000
0100
0000
0010
0000
1000
0000
0001
0000
1000
0100
0010
0100
0000
0000
,
1000
0000
0001
0000
0100
0000
0010
0000
0100
0001
0100
0000
0001
0010
0000
0000
,
0100
0000
1000
0100
1000
0000
0001
0000
0100
0000
0001
0100
0001
0000
1000
0000
,
0010
0100
0001
0000
0010
0100
1000
0000
,
0001
0000
0100
0000
0001
0000
1000
0000
0100
0010
0001
0000
0010
0000
0001
0000
,
1000
0000
0000
0000
0010
0000
1000
0000
0001
0000
0100
0000
0001
0000
1000
0100
,
0010
0000
0000
0000
0001
0000
1000
0000
0001
0000
0010
0100
0010
0000
0001
1000
,
0001
0000
1000
0010
1000
0000
0001
0000
0010
0000
0100
1000
0100
0000
1000
0000
,
1100
1000
0001
0000
0100
0010
0100
0001
,
0101
0000
0100
0001
0100
0000
0001
0000
1000
0000
0100
0000
1000
0000
0010
0000
,
1010
0000
1000
0010
1000
0000
0001
0010
,
0011
0000
0001
0010
0001
0000
1000
0000
0001
0100
0010
1000
0001
0000
0100
0000
,
0101
0001
1000
0000
0100
0010
0100
1000
,
1100
0000
0100
1000
0100
0000
1000
0000
0001
0000
0100
0000
0001
0000
0010
0000
,
0011
0000
0001
0010
0001
0000
1000
0010
,
1010
0000
1000
0010
1000
0000
0001
0000
1000
0100
0010
0001
1000
0000
0100
0000
,
1100
0000
0000
0000
;

//--------------- dance-single - ----------------
#NOTES:
     dance-single:
     :
     Hard:
     17:
     0,0,0,0,0:
0000
0000
0000
0000
,
0000
0000
0000
0000
,
0000
0000
0000
0000
,
0000
0000
0000
0000
,
0000
0000
0000
0000
0000
0000
0000
0000
0000
0000
1000
0010
0100
0000
0001
0010
,
0001
0000
1000
0010
1000
0001
0010
0100
1000
0001
1000
0100
0010
0001
0100
0001
,
1000
0000
0001
0010
0001
1000
0010
0100
0001
1000
0100
1000
0001
0010
0100
1000
,
0001
0000
1000
0010
0100
0010
1000
0001
0010
0100
1000
0001
0010
0001
1000
0010
,
1000
0000
0001
0010
0100
0010
0001
1000
0010
0000
0100
0001
1000
0000
0100
1000
,
0022
0033
1000
0010
0100
0000
0001
0000
0100
0000
1000
0000
0001
0000
0010
1000
,
0202
0303
1000
0100
0010
0000
0001
0000
1000
0010
1000
0001
0100
0000
0001
0000
,
2020
3030
0001
0100
0010
0000
1000
0000
0001
0000
1000
0100
0010
0000
0001
0000
,
1000
0010
0100
0001
0010
0001
0100
0010
1000
0100
0010
0001
0010
0100
1000
0001
,
2020
3030
0001
0010
0100
0000
1000
0000
0100
0000
0001
0000
1000
0000
0010
0001
,
2200
3300
0001
0100
0010
0000
1000
0000
0001
0010
0001
1000
0100
0000
1000
0000
,
0022
0033
1000
0100
0010
0000
0001
0000
1000
0000
0001
0100
0010
0000
1000
0000
,
0001
0010
0100
1000
0010
1000
0100
0010
0001
0100
0010
1000
0010
0100
0001
1000
,
0100
0000
0000
0010
0001
0000
1000
0010
1000
0000
0001
0000
0010
0000
0100
0000
,
1000
0000
0001
0000
0010
0001
0010
0100
1000
0000
0010
0000
1010
0000
0000
0000
,
1000
0010
0100
0001
1000
0100
0010
0000
,
0010
0100
1000
0001
0100
0010
1000
0000
,
0011
0000
0000
0000
0000
0000
0001
0000
0010
0100
0000
0000
1000
0000
0010
0000
0000
1000
0000
0000
0000
0000
0000
0000
,
0010
0000
1000
0000
0001
0010
0001
0010
0100
0000
1000
0001
0000
0100
0000
0001
,
1000
0100
0010
0001
0010
0100
1000
0010
,
0100
0000
0001
0000
0100
0000
0010
0000
1000
0000
0001
0100
0001
0000
1000
0100
,
2020
3030
0001
0010
0100
0000
1000
0000
0100
0000
0001
0000
1000
0000
0010
0001
,
2200
3300
0001
0100
0010
0000
1000
0000
0001
0010
0001
1000
0100
0000
1000
0000
,
0022
0033
1000
0100
0010
0000
0001
0000
1000
0000
0001
0100
0010
0000
1000
0000
,
0001
0010
0100
1000
0010
1000
0100
0010
0001
0100
0010
1000
0010
0100
0001
1000
,
0022
0033
1000
0010
0100
0000
0001
0000
0100
0000
1000
0000
0001
0000
0010
1000
,
0202
0303
1000
0100
0010
0000
0001
0000
1000
0010
1000
0001
0100
0000
0001
0000
,
2020
3030
0001
0100
0010
0000
1000
0000
0001
0000
1000
0100
0010
0000
0001
0000
,
1000
0010
0100
0001
0010
0001
0100
0010
1000
0100
0010
0001
0010
0100
1000
0001
,
0100
0000
0000
0001
0000
0001
0000
1000
0000
0000
0100
0000
0010
0000
0001
1000
,
0100
1000
0000
0001
0000
0100
0020
0000
0000
0000
1030
0000
0001
0000
0010
0000
,
0001
0000
0100
0000
0010
0000
1000
0100
0010
0001
1000
0000
0010
0000
0100
0001
,
0100
0001
1000
0100
0010
0000
0001
0100
0010
0000
0100
0001
0010
0100
1000
0000
,
0001
0000
0010
0001
0000
0000
0000
1000
0010
0000
1000
0001
0000
0010
0000
0001
,
1000
0000
0010
0100
0010
0000
0100
0001
0000
1000
0001
0000
0000
0000
0000
0000
,
0010
0000
0001
0000
1000
0000
0100
1000
0000
0000
0010
0100
0001
0000
1000
0100
,
1000
0000
0001
0000
0100
0000
0001
0010
0000
0000
0001
0010
0001
0000
1000
0010
,
2200
3300
0001
0100
0010
0000
1000
0100
0010
0000
0001
0100
1000
0000
0100
0000
,
0022
0033
1000
0010
0100
0000
0001
0010
0100
1000
0001
0100
0001
1000
0001
0000
,
2200
3300
0010
0100
0001
0000
0010
0100
1000
0000
0001
0010
0100
0000
1000
0000
,
0001
0100
0010
1000
0100
1000
0010
0100
0001
0010
0100
1000
0100
0010
0001
1000
,
0202
0303
1000
0100
0010
0000
0001
0100
0010
0000
1000
0100
0001
0000
0100
0000
,
2020
3030
0001
0010
0100
0000
1000
0010
0100
0001
1000
0100
1000
0001
1000
0000
,
0202
0303
0010
0100
1000
0000
0010
0100
0001
0000
1000
0010
0100
0000
0001
0000
,
1000
0100
0010
0001
0100
0001
0010
0100
1000
0010
0100
0001
0100
0010
1000
0001
,
2020
3030
0100
1000
0100
0000
1000
0000
0010
0100
0001
1000
0100
0010
0001
1000
,
0022
0033
0100
0001
0100
0000
0001
0000
0010
0100
1000
0001
0100
0001
1000
0100
,
2020
3030
0001
0100
0001
0000
1000
0000
0010
0100
0001
1000
0100
0010
0001
1000
,
0010
0100
0001
1000
0100
0010
0100
1000
0001
0100
0010
0100
0001
1000
0001
1000
,
0202
0303
0010
0001
0010
0000
0001
0000
0100
0010
1000
0001
0010
0100
1000
0001
,
2200
3300
0010
1000
0010
0000
1000
0000
0100
0010
0001
1000
0010
1000
0001
0010
,
0202
0303
1000
0010
1000
0000
0001
0000
0100
0010
1000
0001
0010
0100
1000
0001
,
0100
0010
1000
0001
0010
0100
0010
0001
1000
0010
0100
0010
1000
0001
1000
0001
,
0010
0100
0000
1000
0010
0000
0100
0000
0000
0001
0100
0001
0100
0001
0000
0000
,
1000
0000
0100
0010
0001
0000
1000
0010
0100
0001
1000
0000
0001
0100
0000
0000
,
0001
0000
0010
0100
1000
0001
1000
0000
0010
0100
0001
1000
0000
0100
0010
0001
,
1000
0000
0100
1000
0010
0100
0000
0010
0000
0100
0001
0000
0010
0000
0000
0000
,
0001
0000
1000
0000
0100
0000
1000
0100
1000
0010
0100
0001
0000
0000
0010
0001
,
0100
0000
0000
0010
0000
0000
1000
0100
0010
0000
0001
0100
0010
0000
1000
0100
,
0010
0000
0000
0000
0001
0000
1000
0000
0010
0000
0100
0010
0100
0000
0001
0100
,
0001
1000
0100
0010
0001
1000
0100
1000
0010
0100
0001
1000
0100
0010
0001
1000
,
0202
0303
1000
0100
0010
0000
0001
0100
0010
0000
1000
0100
0001
0000
0100
0000
,
2020
3030
0001
0010
0100
0000
1000
0010
0100
0001
1000
0100
1000
0001
1000
0000
,
0202
0303
0010
0100
1000
0000
0010
0100
0001
0000
1000
0010
0100
0000
0001
0000
,
1000
0100
0010
0001
0100
0001
0010
0100
1000
0010
0100
0001
0100
0010
1000
0001
,
2200
3300
0001
0100
0010
0000
1000
0100
0010
0000
0001
0100
1000
0000
0100
0000
,
0022
0033
1000
0010
0100
0000
0001
0010
0100
1000
0001
0100
0001
1000
0001
0000
,
2200
3300
0010
0100
0001
0000
0010
0100
1000
0000
0001
0010
0100
0000
1000
0000
,
0001
0100
0010
1000
0100
1000
0010
0100
0001
0010
0100
1000
0100
0010
0001
1000
,
0022
0033
0000
0000
0000
0000
0000
0000
0000
0000
0000
0000
0000
0000
0000
0000
;

//--------------- dance-single - ----------------
#NOTES:
     dance-single:
     :
     Challenge:
     18:
     0,0,0,0,0:
0000
0000
0000
0000
,
0000
0000
0000
0000
,
0000
0000
0000
0000
,
0000
0000
0000
0000
,
0000
0000
0000
0000
0000
0000
0000
0000
0000
0000
1000
0100
0010
0M00
0010
0100
,
0001
0000
1000
0000
0100
0000
1000
0000
0001
0000
0100
0000
0001
0000
1000
0000
0010
0M00
0010
0000
0001
0000
1000
0000
0010
0000
0100
0000
0001
0000
1000
0000
,
0010
0000
1000
0000
0001
0000
0010
0000
0001
0000
1000
0000
0100
0000
1000
0000
0001
0000
1000
0000
0010
M000
0010
0000
0001
0000
1000
0000
0100
0000
0010
0000
,
0001
0000
0100
0000
0001
0000
1000
0000
0100
0000
1000
0000
0001
0000
0100
0000
0010
0M00
0010
0000
0001
0000
1000
0000
0100
0000
0010
0000
0001
0000
1000
0000
,
0001
0000
0010
0000
0001
0000
1000
0000
0010
0000
1000
0000
0001
0000
0010
0000
0100
000M
0100
0000
0001
0000
1000
0000
0010
0000
0100
0000
0010
0000
1000
0000
,
0011
0000
1000
0000
0100
0000
0010
0000
0100
0000
1000
0000
0001
0000
0100
0000
0010
0M00
0010
0000
0001
0000
0100
0000
0010
0000
1000
0000
0100
0000
1000
0000
,
0101
0000
1000
0000
0010
0000
0100
0000
0001
0000
1000
0000
0001
0000
0010
0000
0100
00M0
0100
0000
0001
0000
1000
0000
0100
0000
0010
0000
0001
0000
1000
0000
,
0011
0100
0010
0100
0001
1000
0100
0010
0001
1000
0001
0100
0001
0010
0001
1000
,
0100
0001
0100
1000
0010
0100
1000
0001
0010
1000
0001
0100
0001
1000
0100
1000
,
0101
0000
1000
0000
0010
0000
0100
0000
0010
0000
1000
0000
0001
0000
0010
0000
0100
00M0
0100
0000
0001
0000
0010
0000
0100
0000
1000
0000
0010
0000
1000
0000
,
0011
0000
1000
0000
0100
0000
0010
0000
0001
0000
1000
0000
0001
0000
0100
0000
0010
0M00
0010
0000
0001
0000
1000
0000
0010
0000
0100
0000
0001
0000
1000
0000
,
0101
0010
0100
0010
0001
1000
0010
0100
0001
1000
0001
0010
0001
0100
0001
1000
,
0010
0001
0010
1000
0100
0010
1000
0001
0100
1000
0001
0010
0001
1000
0010
1000
,
0100
0000
0000
0010
0001
0000
0000
1000
0010
0000
0100
0000
0001
0000
1000
0000
,
0100
0000
0010
0000
0100
1000
0001
0100
0001
0000
1000
0000
1011
0000
0000
0000
,
0011
0010
0110
0100
1100
1000
1001
0000
,
1010
0010
0110
0100
0101
0001
1001
0000
,
1000
0000
0000
0000
0000
0000
1000
0000
0010
0100
0000
0000
0001
0000
0000
0010
0000
0001
0000
0000
0000
0000
0000
0000
,
0011
0000
1100
0000
1000
0010
1000
0001
0010
0000
0100
1000
0000
0010
0000
0100
,
0001
1000
0100
0001
0100
1000
0001
1000
,
0010
0000
0100
0000
0001
0000
1000
0000
0001
0010
0100
1000
0010
0M00
0010
0100
,
1010
0000
0001
0000
0100
0000
0010
0000
0100
0000
0001
0000
1000
0000
0100
0000
0010
0M00
0010
0000
1000
0000
0100
0000
0010
0000
0001
0000
0100
0000
0001
0000
,
1100
0000
0001
0000
0010
0000
0100
0000
1000
0000
0001
0000
1000
0000
0010
0000
0100
00M0
0100
0000
1000
0000
0001
0000
0100
0000
0010
0000
1000
0000
0001
0000
,
1010
0100
0010
0100
1000
0001
0100
0010
1000
0001
1000
0100
1000
0010
1000
0001
,
0100
1000
0100
0001
0010
0100
0001
1000
0010
0001
1000
0100
1000
0001
0100
0001
,
1100
0000
0001
0000
0010
0000
0100
0000
0010
0000
0001
0000
1000
0000
0010
0000
0100
00M0
0100
0000
1000
0000
0010
0000
0100
0000
0001
0000
0010
0000
0001
0000
,
1010
0000
0001
0000
0100
0000
0010
0000
1000
0000
0001
0000
1000
0000
0100
0000
0010
0M00
0010
0000
1000
0000
0001
0000
0010
0000
0100
0000
1000
0000
0001
0000
,
1100
0010
0100
0010
1000
0001
0010
0100
1000
0001
1000
0010
1000
0100
1000
0001
,
0010
1000
0010
0001
0100
0010
0001
1000
0100
0001
1000
0010
1000
0001
0010
0001
,
0100
0000
0000
0001
0000
0001
0000
0010
0000
0000
0100
0000
1000
0000
0001
1000
,
0100
0010
0000
0001
0000
1000
0010
0000
0000
0000
1010
0000
1010
0000
1000
0000
,
0001
0000
0010
0000
0001
0000
0100
0001
1000
0010
1000
0000
0001
0000
0010
0100
,
1000
0000
0001
0000
0100
000M
0100
0000
1000
0000
0000
0000
0001
0000
0010
0000
0001
0000
0000
0000
1000
0000
0010
0000
0100
0000
0010
0000
1000
0000
0000
0000
,
0001
0000
0010
0001
0000
0000
0000
1000
0010
0000
1000
0001
0000
0010
0000
0000
,
0100
0000
1000
0010
1000
0000
0001
0010
0000
0100
1000
0000
0000
0000
0000
0000
,
0001
0000
0001
0000
1000
0000
0010
0100
0000
0000
1000
0100
0010
0000
1000
0001
,
1000
0000
0100
0000
0010
0000
0001
1000
0000
0010
0100
0001
0010
0M00
0010
0100
,
0011
0000
0100
000M
0100
0000
1000
0000
0100
M000
0100
0000
0001
0000
1000
0000
0010
M000
0010
0000
0001
0000
1000
0000
0100
0000
0010
0000
0001
0000
1000
0000
,
0101
0000
0010
000M
0010
0000
1000
0000
0010
M000
0010
0000
0001
0000
0100
0000
0001
0000
1000
0000
0010
0000
1000
0000
0100
0000
1000
0000
0001
0000
0100
0000
,
0011
0000
0100
000M
0100
0000
1000
0000
0100
M000
0100
0000
0001
0000
1000
0000
0001
0000
0010
000M
0010
0000
1000
0000
0010
M000
0010
0000
0001
0000
1000
0000
,
0010
0100
1000
0100
0001
1000
0100
0010
0100
0001
0100
1000
0001
0100
0001
1000
,
0101
0000
0010
000M
0010
0000
1000
0000
0010
M000
0010
0000
0001
0000
1000
0000
0100
M000
0100
0000
0001
0000
1000
0000
0010
0000
0100
0000
0001
0000
1000
0000
,
0011
0000
0100
000M
0100
0000
1000
0000
0100
M000
0100
0000
0001
0000
0010
0000
0001
0000
1000
0000
0100
0000
1000
0000
0010
0000
1000
0000
0001
0000
0010
0000
,
0101
0000
0010
000M
0010
0000
1000
0000
0010
M000
0010
0000
0001
0000
1000
0000
0001
0000
0100
000M
0100
0000
1000
0000
0100
M000
0100
0000
0001
0000
1000
0000
,
0100
0010
1000
0010
0001
1000
0010
0100
0010
0001
0010
1000
0001
0010
0001
1000
,
0011
0100
1000
0001
0010
1000
0001
1000
0100
0010
0100
0001
0100
1000
0001
1000
,
0101
0010
1000
0001
0100
1000
0001
1000
0010
0100
0010
0001
0010
1000
0001
0010
,
0101
0010
0001
1000
0010
0001
0010
0100
0001
0010
1000
0010
0100
1000
0001
0010
,
0001
0100
0001
1000
0010
1000
0100
1000
0001
0100
0020
0000
0230
0000
0302
0000
,
1013
0100
0001
1000
0010
0001
1000
0001
0100
0010
0100
1000
0100
0001
1000
0001
,
1100
0010
0001
1000
0100
0001
1000
0001
0010
0100
0010
1000
0010
0001
1000
0010
,
1100
0010
1000
0001
0010
1000
0010
0100
1000
0010
0001
0010
0100
0001
1000
0010
,
1000
0100
1000
0001
0010
0001
0100
0001
1000
0100
0010
0100
0010
0001
1000
0001
,
1000
0010
0000
0100
0001
0000
0010
0000
0000
0100
0010
0002
0100
0013
0000
0000
,
0001
0000
1000
0010
1000
0000
0001
0000
0010
0001
2000
0000
0100
3010
0000
0000
,
1000
0000
0010
1000
0001
0010
0001
0000
0010
0100
1000
0001
0000
1000
0010
0100
,
0001
0000
0010
0001
0010
0100
0000
1000
0000
0010
1000
0000
0001
0000
0000
0000
,
0011
0000
0000
0000
1100
0000
0000
0000
0001
0000
0000
0000
0010
0000
0001
0000
0010
000M
0010
0000
1000
0000
0001
0000
0000
0000
0000
0000
1000
0000
0010
0000
,
1000
0000
0000
0010
0000
0000
0100
0001
0010
0000
0100
1000
0010
0000
0100
0001
,
1000
0000
0000
0000
0010
0000
0100
0000
0001
0000
1000
0010
0001
0000
0001
0010
,
0100
0001
1000
0100
0010
1000
0010
0001
1000
0010
0100
0001
1000
0100
1000
0001
,
1010
0000
0100
M000
0100
0000
0001
0000
0100
000M
0100
0000
1000
0000
0001
0000
0010
000M
0010
0000
1000
0000
0001
0000
0100
0000
0010
0000
1000
0000
0001
0000
,
1100
0000
0010
M000
0010
0000
0001
0000
0010
000M
0010
0000
1000
0000
0100
0000
1000
0000
0001
0000
0010
0000
0001
0000
0100
0000
0001
0000
1000
0000
0100
0000
,
1010
0000
0100
M000
0100
0000
0001
0000
0100
000M
0100
0000
1000
0000
0001
0000
1000
0000
0010
M000
0010
0000
0001
0000
0010
000M
0010
0000
1000
0000
0001
0000
,
0010
0100
0001
0100
1000
0001
0100
0010
0100
1000
0100
0001
1000
0100
1000
0001
,
1100
0000
0010
M000
0010
0000
0001
0000
0010
000M
0010
0000
1000
0000
0001
0000
0100
000M
0100
0000
1000
0000
0001
0000
0010
0000
0100
0000
1000
0000
0001
0000
,
1010
0000
0100
M000
0100
0000
0001
0000
0100
000M
0100
0000
1000
0000
0010
0000
1000
0000
0001
0000
0100
0000
0001
0000
0010
0000
0001
0000
1000
0000
0010
0000
,
1100
0000
0010
M000
0010
0000
0001
0000
0010
000M
0010
0000
1000
0000
0001
0000
1000
0000
0100
M000
0100
0000
0001
0000
0100
000M
0100
0000
1000
0000
0001
0000
,
0100
0010
0001
0010
1000
0001
0010
0100
0010
1000
0010
0001
1000
0010
1000
0001
,
1111
0000
0000
0000
;
