#VERSION:0.83;
#TITLE:アブノーマリティ・ダンシンガール;
#SUBTITLE:;
#ARTIST:ぐちり ft. flower;
#TITLETRANSLIT:Abnormality Dancin' Girl;
#SUBTITLETRANSLIT:;
#ARTISTTRANSLIT:Guchiry ft. flower;
#GENRE:VOCALOID;
#ORIGIN:;
#CREDIT:kaystar and flicks;
#BANNER:Abnormality Dancin' Girl.png;
#BACKGROUND:Abnormality Dancin' Girl-bg.png;
#PREVIEWVID:;
#JACKET:Abnormality Dancin' Girl-jacket.png;
#CDIMAGE:;
#DISCIMAGE:;
#LYRICSPATH:;
#CDTITLE:;
#MUSIC:Abnormality Dancin' Girl.ogg;
#OFFSET:0.002000;
#SAMPLESTART:37.839001;
#SAMPLELENGTH:15.000000;
#SELECTABLE:YES;
#BPMS:0.000=220.000;
#STOPS:;
#DELAYS:;
#WARPS:;
#TIMESIGNATURES:0.000=4=4;
#TICKCOUNTS:0.000=4;
#COMBOS:0.000=1;
#SPEEDS:0.000=1.000=0.000=0;
#SCROLLS:0.000=1.000;
#FAKES:;
#LABELS:0.000=Song Start;
#BGCHANGES:0.000=Abnormality Dancin' Girl.mp4=1.000=1=0=0=StretchNoLoop==CrossFade==,
99999=-nosongbg-=1.000=0=0=0 // don't automatically add -songbackground-
;
#KEYSOUNDS:;
#ATTACKS:
;

//---------------dance-single - KAYSTAR----------------
#NOTEDATA:;
#CHARTNAME:;
#STEPSTYPE:dance-single;
#DESCRIPTION:KAYSTAR;
#CHARTSTYLE:;
#DIFFICULTY:Beginner;
#METER:4;
#RADARVALUES:0.124302,0.225977,0.008448,0.050686,0.000000,103.000000,102.000000,1.000000,6.000000,0.000000,0.000000,0.000000,0.000000,0.000000,0.124302,0.225977,0.008448,0.050686,0.000000,103.000000,102.000000,1.000000,6.000000,0.000000,0.000000,0.000000,0.000000,0.000000;
#CREDIT:kaystar;
#NOTES:
0000
0000
0000
0000
,
0000
0000
0000
0000
,
0000
0000
0000
0000
,
0000
0000
0000
0000
,
0000
0000
0000
0000
,
1000
0000
1000
0000
,
1000
0000
0000
0000
,
0001
0000
0001
0000
,
0001
0000
0000
0000
,
0100
0000
0000
0000
,
0100
0000
0000
0000
,
0010
0000
0000
0000
,
0000
0000
0000
0000
,
1000
0000
0000
0000
,
1000
0000
0000
0000
,
1000
0000
0000
0000
,
0000
0000
0000
0000
,
0100
0000
0000
0000
,
0100
0000
0000
0000
,
0010
0000
0000
0000
,
0000
0000
0000
0000
,
0001
0000
0000
0000
,
0001
0000
0000
0000
,
0001
0000
0000
0000
,
0000
0000
0000
0000
,
1000
0000
0000
0000
,
0010
0000
0000
0000
,
0100
0000
0000
0000
,
0001
0000
0000
0000
,
1000
0000
0000
0000
,
0100
0000
0000
0000
,
0010
0000
0000
0000
,
0001
0000
0000
0000
,
0100
0000
0100
0000
,
0100
0000
0000
0000
,
0001
0000
0000
0000
,
1000
0000
0000
0000
,
0100
0000
0000
0000
,
0010
0000
0010
0000
,
0010
0000
0000
0000
,
0001
0000
0000
0000
,
0100
0000
0100
0000
,
0100
0000
0000
0000
,
0010
0000
0000
0000
,
1000
0000
0000
0000
,
0100
0000
0000
0000
,
0010
0000
0010
0000
,
0010
0000
0000
0000
,
0001
0000
0000
0000
,
2000
0000
0000
0000
,
0000
0000
3000
0000
,
0001
0000
0000
0000
,
0100
0000
0000
0000
,
0010
0000
0000
0000
,
1000
0000
1000
0000
,
1000
0000
0000
0000
,
0100
0000
0000
0000
,
0010
0000
0010
0000
,
0010
0000
0000
0000
,
0002
0000
0000
0000
,
0000
0000
0000
0000
,
0003
0000
0000
0000
,
0000
0000
0000
0000
,
0000
0000
0000
0000
,
0000
0000
0000
0000
,
0000
0000
0000
0000
,
0000
0000
0000
0000
,
1000
0000
0000
0000
,
0010
0000
0000
0000
,
0100
0000
0000
0000
,
0001
0000
0000
0000
,
2000
0000
0000
0000
,
0000
0000
3000
0000
,
0001
0000
0000
0000
,
1000
0000
0000
0000
,
0100
0000
0000
0000
,
0010
0000
0010
0000
,
0010
0000
0000
0000
,
0001
0000
0000
0000
,
0100
0000
0100
0000
,
0100
0000
0000
0000
,
0010
0000
0000
0000
,
1000
0000
0000
0000
,
0100
0000
0000
0000
,
0010
0000
0010
0000
,
0010
0000
0000
0000
,
0001
0000
0000
0000
,
2000
0000
0000
0000
,
0000
0000
3000
0000
,
0001
0000
0000
0000
,
0100
0000
0000
0000
,
0010
0000
0000
0000
,
1000
0000
0000
0000
,
0001
0000
0000
0000
,
0010
0000
0000
0000
,
0100
0000
0000
0000
,
1000
0000
0000
0000
,
0010
0000
0010
0000
,
0010
0000
0000
0000
,
0100
0000
0100
0000
,
0100
0000
0000
0000
,
0001
0000
0001
0000
,
0001
0000
0000
0000
,
1000
0000
1000
0000
,
1000
0000
0000
0000
,
2002
0000
0000
0000
,
0000
0000
0000
0000
,
3003
0000
0000
0000
;

//---------------dance-single - KAYSTAR----------------
#NOTEDATA:;
#CHARTNAME:;
#STEPSTYPE:dance-single;
#DESCRIPTION:KAYSTAR;
#CHARTSTYLE:;
#DIFFICULTY:Easy;
#METER:9;
#RADARVALUES:0.292050,0.361563,0.008448,0.363252,0.000000,242.000000,241.000000,1.000000,43.000000,0.000000,0.000000,0.000000,0.000000,0.000000,0.292050,0.361563,0.008448,0.363252,0.000000,242.000000,241.000000,1.000000,43.000000,0.000000,0.000000,0.000000,0.000000,0.000000;
#CREDIT:kaystar;
#NOTES:
0000
0000
0000
0000
,
0000
0000
0000
0000
,
0000
0000
0000
0000
,
0000
0000
0000
0000
,
0000
0000
0000
0000
,
1000
0001
0100
0000
,
0001
1000
0100
0000
,
0020
0000
0032
0000
,
2003
0000
3020
0000
,
0130
0000
0001
0000
,
1000
0100
1000
0000
,
0001
0000
1000
0000
,
0001
0100
0001
0000
,
0010
0010
0010
0000
,
0100
0000
1000
0000
,
0010
0010
0010
0000
,
0100
0000
0001
0000
,
1000
0000
0001
0000
,
0010
0001
0010
0000
,
0100
0000
1000
0000
,
0010
1000
0010
0000
,
0100
0100
0100
0000
,
0001
0000
0010
0000
,
0100
0000
1000
0000
,
0001
0001
0001
0000
,
1000
0010
0100
0000
,
0001
0000
0001
0000
,
0010
0100
0010
0000
,
0002
0000
1003
0000
,
0001
0100
0010
0000
,
1000
0000
1000
0000
,
0002
0000
0023
0000
,
0230
0000
2300
0000
,
3010
0010
0010
0000
,
0100
0100
0100
0000
,
0001
1000
0100
0000
,
1000
0001
0100
0000
,
0001
1000
0100
0000
,
0010
0010
0010
0000
,
0001
0100
0010
0000
,
1000
0010
0100
0000
,
0002
0000
2003
0000
,
3200
0000
0320
0000
,
0031
1000
0010
0000
,
1000
0001
0010
0000
,
0001
1000
0010
0000
,
0100
0100
0100
0000
,
0001
0010
0100
0000
,
1000
0100
0010
0000
,
0002
0000
0203
0000
,
0320
0000
2030
0000
,
3001
0000
0010
0000
,
0100
1000
0001
0000
,
0100
0000
0010
0000
,
1000
1000
1000
0000
,
0100
0000
0010
0000
,
0001
1000
0010
0000
,
0200
0000
0302
0000
,
2003
0000
3200
0000
,
0320
0000
0000
0000
,
0000
0000
0000
0000
,
0030
0000
0000
0000
,
0000
0000
0000
0000
,
0001
0000
0000
0000
,
0100
0000
0000
0000
,
0010
0000
0000
0000
,
1000
0000
0000
0000
,
0100
0000
0100
0000
,
0100
0000
0000
0000
,
0010
0000
0010
0000
,
0010
0000
0000
0000
,
0002
0000
0000
0000
,
0203
0320
2030
0000
,
3001
0010
0100
0000
,
1000
0010
0100
0000
,
0001
0010
0100
0000
,
1000
1000
1000
0000
,
0001
0100
0010
0000
,
1000
0010
0100
0000
,
0002
0000
2003
0000
,
3200
0000
0320
0000
,
0031
0100
0010
0000
,
1000
0100
0010
0000
,
0001
0100
0010
0000
,
1000
1000
1000
0000
,
0001
0010
0100
0000
,
1000
0100
0010
0000
,
0002
0000
0203
0000
,
0320
0000
2030
0000
,
3001
0000
0010
0000
,
0100
1000
0001
0000
,
0100
0000
0010
0000
,
1000
1000
1000
0000
,
0010
0000
0100
0000
,
0001
1000
0100
0000
,
0020
0000
0032
0000
,
2003
0000
3020
0000
,
0130
0001
1000
0000
,
0100
0100
0010
0010
,
0001
1000
0010
0000
,
0100
0100
0100
0000
,
0010
1000
0001
0000
,
0010
0010
0100
0100
,
2000
0000
3002
0000
,
0203
0000
0310
0000
,
2002
0000
0000
0000
,
0000
0000
0000
0000
,
3003
0000
0000
0000
;

//---------------dance-single - kaystar and flicks----------------
#NOTEDATA:;
#CHARTNAME:;
#STEPSTYPE:dance-single;
#DESCRIPTION:kaystar and flicks;
#CHARTSTYLE:;
#DIFFICULTY:Medium;
#METER:13;
#RADARVALUES:0.593755,0.631996,0.244984,0.574446,0.092925,492.000000,463.000000,29.000000,68.000000,0.000000,0.000000,0.000000,0.000000,0.000000,0.593755,0.631996,0.244984,0.574446,0.092925,492.000000,463.000000,29.000000,68.000000,0.000000,0.000000,0.000000,0.000000,0.000000;
#CREDIT:kaystar and flicks;
#NOTES:
0000
0000
0000
0000
,
0000
0000
0000
0000
,
0000
0000
0000
0000
,
0000
0000
0000
0000
,
0000
0000
0000
0000
,
0001
0000
0011
0000
0010
0001
1000
0000
,
0010
0000
1010
0000
1000
0001
0010
0000
,
0200
1300
0020
0130
,
0002
0023
0230
2300
,
3001
0000
0100
0000
0010
0000
1000
0001
,
0000
0010
0001
0000
0100
0000
0001
0000
,
1000
0000
0100
0000
0010
0000
0001
1000
,
0000
0010
1000
0000
0100
0000
1000
0000
,
0001
0000
0000
0001
0100
0000
0001
0000
,
1000
0000
0000
1000
0100
0000
1000
0000
,
0001
0000
0000
0001
0010
0000
0001
0000
,
1000
0010
0000
1000
0010
0000
0100
0000
,
0001
0000
0010
0000
0100
0000
1000
0001
,
0000
0100
0001
0000
0010
0000
0001
0000
,
1000
0000
0010
0000
0100
0000
0001
1000
,
0000
0100
1000
0000
0010
0000
1000
0000
,
0001
0000
0010
0001
0010
0000
0100
0000
,
1000
0000
0010
1000
0010
0000
0100
0000
,
0001
0000
0000
1000
0100
0000
0000
0010
,
0001
0100
0220
0330
,
1000
0010
0000
1000
0010
0000
0100
0001
,
1000
0000
0100
1000
0100
0000
0010
0000
,
0001
0100
0000
0010
0100
0000
0010
2000
,
0000
3001
2002
3003
,
0001
0010
0000
0001
0010
0000
0100
1000
,
0001
0000
0100
0001
0100
0000
0010
0000
,
2000
3100
0020
0031
,
0200
0310
1000
1001
,
0001
0010
0001
0000
0001
0000
1000
0010
,
0000
1000
0000
1000
0002
0000
0000
0000
,
1003
0000
0000
0001
0000
0000
0100
0000
0001
0000
0000
0000
0020
0000
0000
0000
,
0031
0000
0000
1000
0000
0000
0100
0000
1000
0000
0000
0000
0020
0000
0000
0000
,
1030
0000
0000
0001
0000
0000
0100
0000
0001
0000
1000
0000
0001
0000
1000
0000
,
0200
0320
0031
1001
,
1000
0000
0000
0010
0000
0000
1000
0000
0001
0000
0000
0000
0200
0000
0000
0000
,
0301
0000
0000
0010
0000
0000
0001
0000
1000
0000
0000
0000
0100
0000
0000
0000
,
1000
0001
1000
0000
0010
0100
0010
0000
,
1000
0000
0000
0100
0000
0000
0010
0000
0002
0000
0000
0000
0000
0000
0000
0000
,
1003
0000
0000
0010
0000
0000
0100
0000
0001
0000
0000
0000
0020
0000
0000
0000
,
0031
0000
0000
0100
0000
0000
0010
0000
1000
0000
0000
0000
0200
0000
0000
0000
,
1300
0000
0000
0010
0000
0000
0100
0000
0001
0000
1000
0000
0001
0000
1000
0000
,
0200
0320
0031
1001
,
1000
0000
0000
0100
0000
0000
0010
0000
0001
0000
0000
0000
0200
0000
0000
0000
,
0301
0000
0000
0010
0000
0000
0100
0000
1000
0000
0000
0000
0001
0000
0000
0000
,
0200
0301
2000
3001
,
0020
0031
1002
1003
,
0001
0000
0101
0000
0100
0010
1000
0000
,
0100
0000
1100
0000
1000
0100
0010
0000
,
0001
0000
0101
0000
0100
0010
1000
0000
,
0200
0320
0031
1001
,
1000
0000
1010
0000
0010
0100
0001
0000
,
0010
0000
0011
0000
0001
1000
0001
2000
,
0000
3010
0100
0020
0000
0130
0001
0200
,
0000
0301
1000
0002
0000
1003
0100
0000
,
0012
0000
0000
0000
,
0000
0000
0000
0000
,
0003
0000
0000
0000
,
0000
0000
0000
0000
,
1000
0000
0000
0010
1000
0000
0000
0000
,
0001
0000
0000
0100
0001
0000
0000
0000
,
1000
1000
0100
0100
,
0010
0001
1000
0000
,
1002
0000
0203
0000
,
0320
0000
2030
0000
,
3200
0000
0320
0000
,
0032
0000
1003
0001
,
2002
0000
0000
3003
,
1000
0001
1000
0001
1000
0000
0000
0000
,
0001
0000
0000
0100
0000
0000
0010
0000
0100
0000
0000
0000
2000
0000
0000
0000
,
3100
0000
0000
0010
0000
0000
0100
0000
0001
0000
0000
0000
2000
0000
0000
0000
,
3001
0000
0000
0010
0000
0000
0100
0000
1000
0000
0001
0000
1000
0000
0001
0000
,
0200
0320
1030
1001
,
0001
0000
0000
0010
0000
0000
0100
0000
1000
0000
0000
0000
0020
0000
0000
0000
,
1030
0000
0000
0100
0000
0000
0010
0000
0001
0000
0000
0000
0100
0000
0000
0000
,
0001
1000
0001
0000
0010
0100
0010
0000
,
0001
0000
0000
0100
0000
0000
0010
0000
1000
0000
0000
0000
1001
0000
0000
0000
,
0001
0000
0000
0010
0000
0000
0100
0000
0010
0000
0000
0000
2000
0000
0000
0000
,
3010
0000
0000
0100
0000
0000
0010
0000
0001
0000
0000
0000
2000
0000
0000
0000
,
3001
0000
0000
0100
0000
0000
0010
0000
1000
0000
0001
0000
1000
0000
0001
0000
,
0020
0230
1300
1001
,
0001
0000
0000
0100
0000
0000
0010
0000
1000
0000
0000
0000
0200
0000
0000
0000
,
1300
0000
0000
0010
0000
0000
0100
0000
0001
0000
0000
0000
1000
0000
0000
0000
,
0200
1300
0002
1003
,
0020
1030
2001
3001
,
1000
0100
0000
0010
0001
0000
0100
0001
,
0100
0000
0001
1000
0100
0000
0110
0000
,
0010
0001
0000
1000
0010
0000
0100
0002
,
0000
1003
0100
0010
0001
0000
1001
0000
,
1000
0010
0000
0100
0001
0000
0010
0001
,
0010
0000
0001
1000
0010
0000
0100
0000
,
0002
0013
0200
1300
,
0020
0130
0001
1001
,
1000
0100
0000
0010
0100
0000
0001
0100
,
0010
0000
0001
1000
0010
1000
0010
0100
,
0001
1000
0000
0100
0010
0000
0001
0200
,
0000
0310
1000
0001
0010
0000
1001
0000
,
0001
0100
0000
0010
0100
0000
1000
0100
,
0010
0000
1000
0001
0010
0001
0010
0100
,
2000
3001
0012
1003
,
2010
3001
1001
1001
,
1000
0100
1000
0100
0000
0010
0000
0001
,
0000
1000
0000
0010
0000
0100
0001
0100
;

//---------------dance-single - kaystar and flicks----------------
#NOTEDATA:;
#CHARTNAME:;
#STEPSTYPE:dance-single;
#DESCRIPTION:kaystar and flicks;
#CHARTSTYLE:;
#DIFFICULTY:Hard;
#METER:16;
#RADARVALUES:0.820637,0.902851,0.236536,0.650475,0.156283,680.000000,652.000000,28.000000,77.000000,0.000000,0.000000,0.000000,0.000000,0.000000,0.820637,0.902851,0.236536,0.650475,0.156283,680.000000,652.000000,28.000000,77.000000,0.000000,0.000000,0.000000,0.000000,0.000000;
#CREDIT:kaystar and flicks;
#NOTES:
0000
0000
0000
0000
,
0000
0000
0000
0000
,
0000
0000
0000
0000
,
0000
0000
0000
0000
,
0000
0000
0000
0000
,
1000
0000
0000
0100
0000
0000
0010
0000
0001
0000
1000
0000
1000
0000
1000
0000
,
0001
0000
0000
0100
0000
0000
0010
0000
1000
0000
0001
0000
0001
0000
0001
0000
,
0010
0000
0000
0100
0000
0000
1000
0000
0010
0000
0100
0010
0100
0000
0001
0000
,
1000
0100
0000
0000
0100
0010
0000
0000
0010
0001
0000
0000
1001
0000
0000
0000
,
1000
0001
0100
0000
0020
0000
1030
0002
,
0000
0013
0100
1000
0001
0100
0001
0100
,
0010
1000
0001
0000
0020
0000
0031
2000
,
0000
3010
0100
0001
1000
0100
0010
0100
,
1000
0001
0000
0100
0010
0000
2010
0000
,
3001
1000
0000
0100
0010
0000
0012
0000
,
1003
0010
0000
0100
0001
0000
0021
0000
,
0130
1000
0000
0010
0100
0001
1000
0001
,
1000
0100
0010
0000
0200
0000
1300
0020
,
0000
0130
0001
1000
0100
0010
0100
0010
,
0001
1000
0010
0000
0200
0000
0301
0020
,
0000
0130
1000
0001
0100
0010
0100
0001
,
1000
0100
1000
0001
0100
0010
1000
0200
,
0000
1300
0001
0100
0010
0000
1001
0000
,
2000
0000
3100
0010
0002
0000
0103
0010
,
1000
1100
0110
0011
,
0002
0010
0000
2003
0010
0000
3001
0010
,
0100
0010
0001
1000
0010
0010
0100
0100
,
0002
1000
0000
0023
0100
0000
0032
1000
,
0000
0103
0010
1000
0001
0001
0010
0100
,
2000
0100
0000
3002
0100
0000
1003
0100
,
0010
0100
1000
0001
0100
0100
0010
0010
,
2000
0000
3100
0010
0002
0000
0103
0010
,
2000
0000
3100
0010
0001
0000
1001
0000
,
1000
0010
1000
0010
0100
0000
0001
0010
,
0000
0110
0000
0100
2000
0000
0001
0000
,
3001
0100
0010
1000
0200
0000
1300
0001
,
1000
0100
0010
0001
0200
0000
0301
0000
,
1000
0100
0010
0001
1000
0010
0100
0001
,
0010
0000
0011
0000
1010
0000
1000
0001
,
1000
0010
0100
0001
0020
0000
0031
1000
,
0001
0010
0100
1000
0020
0000
1030
0001
,
0010
0010
0001
1000
0010
0010
1000
0001
,
0010
0000
0100
0010
0100
0000
1000
0000
0002
0000
0000
0000
1003
0000
0100
0000
,
1000
0001
0100
0001
0020
0000
0031
0100
,
0001
1000
0100
1000
0020
0000
0130
0001
,
1000
0100
0010
0001
1000
0010
0100
0001
,
0010
0000
0011
0000
1010
0000
1000
0010
,
1000
0001
0010
0001
0200
0000
0301
0010
,
0001
1000
0010
1000
0200
0000
0310
0000
,
0002
0000
0103
0010
0100
0000
0010
0000
2000
0000
3100
0010
0100
0000
0010
0000
,
0002
0000
0103
0010
0100
0000
0010
0000
1000
0000
0000
0000
1001
0000
0000
0000
,
0001
0000
0000
0100
0000
0000
1000
0000
0100
0000
0010
0000
0010
0000
0010
0000
,
1000
0000
0000
0100
0000
0000
0001
0000
0100
0000
0010
0000
0010
0000
0010
0000
,
0001
0000
0000
1000
0000
0000
0010
0000
0100
0000
0001
0000
1000
0000
0001
0000
,
1000
0100
0000
0000
0100
0010
0000
0000
0010
0001
0000
0000
1001
0000
0000
0000
,
1000
0000
0000
0010
0000
0000
0001
0000
0010
0000
0100
0000
0100
0000
0100
0000
,
0001
0000
0000
0010
0000
0000
1000
0000
0010
0000
0100
0000
1000
0000
0002
0000
,
0000
0103
0010
2000
0000
3100
0010
0001
,
1000
0000
0010
1000
0010
0000
0100
0000
0001
0000
0010
0001
0010
0000
0100
0000
,
2000
0000
0000
0000
,
0000
0000
0000
0000
,
3000
0000
0000
0000
,
0000
0000
0000
0000
,
0001
0000
0000
1000
0000
0000
0001
0000
0100
0000
0000
0000
0020
0000
0000
0000
,
1030
0000
0000
0001
0000
0000
1000
0000
0100
0000
0000
0000
0000
0000
0010
0000
,
0001
1000
0001
1000
0020
0000
0130
0001
,
1000
0000
0000
0100
0000
0000
0010
0000
0001
0000
0000
0000
0000
0000
0000
0000
,
2000
0100
3002
0100
,
2003
0010
3002
0010
,
2003
0100
3002
0100
,
2003
0000
3100
0010
0001
0000
1000
0000
,
2002
0000
0000
3003
,
0001
1000
0001
1000
0020
0000
0100
0000
,
0130
0001
1000
0100
0020
0000
0130
0001
,
0100
0010
0001
1000
0020
0000
0130
1000
,
0100
0010
1000
0001
1000
0100
0010
0001
,
0100
0000
0101
0000
1100
0000
1000
0010
,
1000
0001
0010
0001
0200
0000
0301
0010
,
0001
1000
0010
1000
0200
0000
0310
0001
,
1000
1000
0010
0100
0001
0001
0010
0100
,
1000
0000
0001
1000
0001
0000
0100
0000
0010
0000
1000
0100
0020
0000
0000
0000
,
0031
1000
0001
0100
0020
0000
0031
0010
,
0100
0010
1000
0001
0020
0000
1030
0010
,
0100
0010
0001
1000
0001
0100
0010
1000
,
0100
0000
1100
0000
0101
0000
0001
0010
,
0001
0100
0010
1000
0200
0000
1300
0010
,
1000
0100
0010
0001
0200
0000
0310
1000
,
0002
0000
0013
0100
0010
0000
0100
0000
2000
0000
3010
0100
0010
0000
0100
0000
,
0002
0000
0013
0100
0010
0000
0100
0000
1000
0000
0000
0000
1001
0000
0000
0000
,
0002
1000
0000
0203
1000
0000
0301
1000
,
0100
0010
0100
0001
0100
0100
0010
0010
,
0002
1000
0000
0203
0010
0000
0302
1000
,
0000
0013
0100
1000
0001
0001
0100
0010
,
2000
0001
0000
3200
0001
0000
1300
0001
,
0100
0010
0100
1000
0100
0100
0010
0010
,
2000
0000
0000
0000
3001
0000
0100
0010
0100
0000
0010
0000
1000
0000
0000
0000
,
0001
0010
0000
0000
0010
0100
0000
0000
0100
1000
0000
0000
1001
0000
0000
0000
,
0001
1000
0001
0100
1000
0100
0001
1000
,
0100
0010
1000
0010
0100
0100
0010
0010
,
0001
1000
0100
1000
0010
0100
0001
0020
,
0000
0000
0130
0000
1000
0000
0001
0000
0100
0000
0010
0100
0020
0000
0000
0000
,
1030
0001
1000
0100
0001
0100
1000
0001
,
0100
0010
0001
0010
0100
0010
1000
0001
,
0020
0000
0031
1000
0001
0000
0100
0000
0020
0000
1030
0001
1000
0000
0100
0000
,
0020
0000
0031
1000
0001
0000
0100
0000
0010
0000
0000
0000
1001
0000
0000
0000
,
1000
0100
1000
0100
0000
0011
0000
1010
,
0000
0101
0000
1100
0000
0001
0010
0001
;

//---------------dance-double - KAYSTAR----------------
#NOTEDATA:;
#CHARTNAME:;
#STEPSTYPE:dance-double;
#DESCRIPTION:KAYSTAR;
#CHARTSTYLE:;
#DIFFICULTY:Hard;
#METER:16;
#RADARVALUES:0.817016,0.902851,0.152059,0.506864,0.215417,677.000000,659.000000,18.000000,60.000000,0.000000,0.000000,0.000000,0.000000,0.000000,0.817016,0.902851,0.152059,0.506864,0.215417,677.000000,659.000000,18.000000,60.000000,0.000000,0.000000,0.000000,0.000000,0.000000;
#CREDIT:kaystar;
#NOTES:
// measure 0
00000000
00000000
00000000
00000000
,  // measure 1
00000000
00000000
00000000
00000000
,  // measure 2
00000000
00000000
00000000
00000000
,  // measure 3
00000000
00000000
00000000
00000000
,  // measure 4
00000000
00000000
00000000
00000000
,  // measure 5
10000000
00000000
00000000
00010000
00000000
00000000
00100000
00000000
01000000
00000000
10000000
00000000
10000000
00000000
10000000
00000000
,  // measure 6
00010000
00000000
00000000
10000000
00000000
00000000
00100000
00000000
01000000
00000000
00010000
00000000
00010000
00000000
00010000
00000000
,  // measure 7
00100000
00000000
00000000
00001000
00000000
00000000
00010000
00000000
00000100
00000000
00001000
00000000
00001000
00000000
00001000
00000000
,  // measure 8
00000001
00000100
00000000
00000000
00000100
00000010
00000000
00000000
00000010
00001000
00000000
00000000
00001001
00000000
00000000
00000000
,  // measure 9
00000001
00000010
00000100
00000000
00002000
00000000
00003010
00000200
,  // measure 10
00000000
00000301
00001000
00000100
00000010
00000001
00000010
00000001
,  // measure 11
00001000
00000010
00000100
00000000
00000002
00000000
00001003
00000200
,  // measure 12
00000000
00000310
00000001
00001000
00000010
00010000
00000010
00010000
,  // measure 13
00001000
01000000
00000000
00010000
01000000
00000000
01010000
00000000
,  // measure 14
00010000
00100000
00000000
00001000
00010000
00000000
00011000
00000000
,  // measure 15
00001000
00010000
00000000
00000100
00001000
00000000
00001010
00000000
,  // measure 16
00000010
00010000
00000000
00001000
01000000
00010000
01000000
00010000
,  // measure 17
10000000
01000000
00100000
00000000
02000000
00000000
13000000
00200000
,  // measure 18
00000000
01300000
00010000
00100000
01000000
10000000
01000000
10000000
,  // measure 19
00010000
01000000
00100000
00000000
02000000
00000000
03010000
00200000
,  // measure 20
00000000
01300000
10000000
00010000
01000000
00001000
01000000
00001000
,  // measure 21
00010000
00000000
00000010
00010000
00001000
00010000
00001000
00200000
,  // measure 22
00000000
00301000
00010000
00001000
00010000
00000000
00011000
00000000
,  // measure 23
00001000
00000000
00010000
00000100
00001000
00000000
00000100
00000010
,  // measure 24
00000001
00000100
00000000
00000000
00000100
00000010
00000000
00000000
00000010
00001000
00000000
00000000
00001001
00000000
00000000
00000000
,  // measure 25
00000002
00000010
00000000
00002003
00000010
00000000
00003001
00000010
,  // measure 26
00000100
00001000
00000001
00000100
00000010
00010000
00001000
00001000
,  // measure 27
02000000
00010000
00000000
03002000
00010000
00000000
00203000
00010000
,  // measure 28
00000000
01300000
10000000
00010000
01000000
01000000
00100000
00100000
,  // measure 29
20000000
00100000
00000000
30020000
00100000
00000000
10030000
00100000
,  // measure 30
01000000
00010000
10000000
01000000
00100000
00001000
00010000
00010000
,  // measure 31
00000200
00000000
00000310
00000001
00000200
00000000
00000310
00001000
,  // measure 32
00000200
00000000
00000310
00000001
00000100
00000000
00000110
00000000
,  // measure 33
00000010
00010000
00000010
00010000
00001000
00000000
01000000
00010000
,  // measure 34
00000000
00100000
00000000
01000000
20000000
00000000
00010000
00000000
,  // measure 35
30010000
01000000
00100000
10000000
02000000
00000000
13000000
00010000
,  // measure 36
10000000
01000000
00100000
00010000
02000000
00000000
03010000
10000000
,  // measure 37
00010000
01000000
00100000
10000000
00010000
00100000
00010000
00100000
,  // measure 38
00001000
00000000
00000000
00001000
00000010
00000000
00000000
00000010
00000001
00000000
00000000
00000001
00001000
00000000
00000010
00000000
,  // measure 39
00001000
00000001
00000010
00000001
00000200
00000000
00000301
00000010
,  // measure 40
00000001
00001000
00000010
00001000
00000200
00000000
00001300
00000000
,  // measure 41
00000010
00010000
00001000
00001000
01000000
00010000
00100000
00100000
,  // measure 42
00001000
00000000
00000000
00011000
00000000
00000000
00010000
00000000
00000100
00000000
00000000
00000000
00001000
00000000
00000001
00000000
,  // measure 43
00001000
00000010
00000100
00000001
00000020
00000000
00000031
00001000
,  // measure 44
00000001
00000010
00000100
00001000
00000020
00000000
00001030
00000001
,  // measure 45
00001000
00000100
00000010
00000001
00001000
00000010
00001000
00000010
,  // measure 46
00010000
00000000
00000000
00010000
00100000
00000000
00000000
00100000
10000000
00000000
00000000
10000000
00010000
00000000
00100000
00000000
,  // measure 47
00010000
10000000
00100000
10000000
02000000
00000000
13000000
00100000
,  // measure 48
10000000
00010000
00100000
00010000
02000000
00000000
03010000
00000000
,  // measure 49
10000000
00000000
01000000
10000000
01000000
00000000
10000000
00000000
00010000
00000000
00100000
00010000
00100000
00000000
00010000
00000000
,  // measure 50
00001000
00000000
00000100
00001000
00000100
00000000
00001000
00000000
00000001
00000000
00000000
00000000
00001001
00000000
00000000
00000000
,  // measure 51
00001000
00000000
00000000
00000010
00000000
00000000
00000001
00000000
00000010
00000000
00000100
00000000
00000100
00000000
00000100
00000000
,  // measure 52
00000001
00000000
00000000
00000010
00000000
00000000
00001000
00000000
00000010
00000000
00000100
00000000
00000100
00000000
00000100
00000000
,  // measure 53
00001000
00000000
00000000
00000001
00000000
00000000
00000100
00000000
00000010
00000000
00010000
00000000
00001000
00000000
01000000
00000000
,  // measure 54
00010000
00100000
00000000
00000000
00100000
01000000
00000000
00000000
01000000
10000000
00000000
00000000
10010000
00000000
00000000
00000000
,  // measure 55
00010000
00000000
00000000
01000000
00000000
00000000
10000000
00000000
01000000
00000000
00100000
00000000
00100000
00000000
00100000
00000000
,  // measure 56
10000000
00000000
00000000
01000000
00000000
00000000
00010000
00000000
01000000
00000000
00100000
00000000
00010000
00000000
20000000
00000000
,  // measure 57
00000000
30100000
01000000
00020000
00000000
00130000
00001000
00010000
,  // measure 58
00000100
00000000
00001000
00000100
00001000
00000000
00000100
00000000
00000010
00000000
00000001
00000010
00000001
00000000
00001000
00000000
,  // measure 59
00000020
00000000
00000000
00000000
,  // measure 60
00000000
00000000
00000000
00000000
,  // measure 61
00000030
00000000
00000000
00000000
,  // measure 62
00000000
00000000
00000000
00000000
,  // measure 63
00001000
00000000
00000000
00000010
00000000
00000000
00000100
00000000
00000010
00000000
00000000
00000000
00001000
00000000
00000000
00000000
,  // measure 64
00000001
00000000
00000000
00000010
00000000
00000000
00000100
00000000
00000010
00000000
00000000
00000000
00000000
00000000
00000001
00000000
,  // measure 65
00001000
00000010
00001000
00000010
00010000
00000000
00001000
01000000
,  // measure 66
00010000
00000000
00000000
10000000
00000000
00000000
01000000
00000000
00100000
00000000
00000000
00000000
00000000
00000000
00000000
00000000
,  // measure 67
00020000
10000000
20030000
00100000
,  // measure 68
30200000
00010000
00320000
00001000
,  // measure 69
00032000
00000100
00003200
00000001
,  // measure 70
00000302
00000000
00001003
00000100
00000010
00000000
00000001
00000000
,  // measure 71
00002002
00000000
00000000
00003003
,  // measure 72
00000001
00001000
00000001
00001000
00000020
00000000
00000100
00000000
,  // measure 73
00000130
00000001
00001000
00000100
00000020
00000000
00000130
00000001
,  // measure 74
00000100
00000010
00000001
00001000
00000020
00000000
00000130
00001000
,  // measure 75
00000100
00000010
00000100
00000001
00001000
00000100
00001000
00000100
,  // measure 76
00010000
00000000
00000000
00010000
01000000
00000000
00000000
01000000
10000000
00000000
00000000
10000000
00010000
00000000
01000000
00000000
,  // measure 77
00100000
01000000
00010000
00100000
02000000
00000000
13000000
00100000
,  // measure 78
01000000
00100000
10000000
01000000
00200000
00000000
00310000
00000000
,  // measure 79
01000000
00001000
00010000
00010000
00000010
00001000
00000100
00000100
,  // measure 80
00010000
00000000
00000000
00001000
00000000
00000000
00100000
00000000
01000000
00000000
10000000
00010000
20000000
00000000
00000000
00000000
,  // measure 81
31000000
00100000
00010000
10000000
00200000
00000000
00310000
00100000
,  // measure 82
01000000
00100000
10000000
00010000
00200000
00000000
10300000
00010000
,  // measure 83
01000000
00100000
01000000
10000000
00010000
01000000
00010000
01000000
,  // measure 84
00001000
00000000
00000000
00001000
00000100
00000000
00000000
00000100
00000001
00000000
00000000
00000001
00001000
00000000
00000100
00000000
,  // measure 85
00000010
00000100
00001000
00000010
00000200
00000000
00000301
00000010
,  // measure 86
00000100
00000010
00000001
00000100
00000020
00000000
00001030
00000000
,  // measure 87
00000001
00000000
00000010
00000001
00000010
00000000
00000001
00000000
00001000
00000000
00000100
00001000
00000100
00000000
00001000
00000000
,  // measure 88
00010000
00000000
00100000
00010000
00100000
00000000
00010000
00000000
10000000
00000000
00000000
00000000
10010000
00000000
00000000
00000000
,  // measure 89
00020000
10000000
00000000
02030000
10000000
00000000
03010000
10000000
,  // measure 90
01000000
00100000
00010000
00100000
00001000
00001000
00010000
00010000
,  // measure 91
00000020
00001000
00000000
00020030
00001000
00000000
00030200
00001000
,  // measure 92
00000000
00000310
00000001
00001000
00000010
00000010
00000100
00000010
,  // measure 93
00002000
00000001
00000000
00003200
00000001
00000000
00001300
00000001
,  // measure 94
00000100
00000010
00001000
00000010
00010000
00010000
00001000
00001000
,  // measure 95
02000000
00000000
00000000
00000000
03100000
00000000
10000000
00010000
10000000
00000000
01000000
00000000
00100000
00000000
00000000
00000000
,  // measure 96
00010000
01000000
00000000
00000000
01000000
00100000
00000000
00000000
00100000
10000000
00000000
00000000
10010000
00000000
00000000
00000000
,  // measure 97
00010000
10000000
00010000
00100000
10000000
00100000
00010000
10000000
,  // measure 98
00010000
01000000
00100000
10000000
01000000
01000000
00100000
00100000
,  // measure 99
00001000
00010000
00100000
00010000
00001000
00000100
00001000
00020000
,  // measure 100
00000000
00000000
00030100
00000000
00000010
00000000
00000001
00000000
00001000
00000000
00000001
00001000
00000002
00000000
00000000
00000000
,  // measure 101
00001003
00000001
00001000
00000010
00000001
00000010
00001000
00000001
,  // measure 102
00001000
00000100
00000010
00000001
00000100
00000100
00000010
00000010
,  // measure 103
00010000
00000000
00001000
00010000
00001000
00000000
00100000
00000000
00001000
00000000
00010000
00001000
00010000
00000000
00000010
00000000
,  // measure 104
00010000
00000000
00001000
00010000
00001000
00000000
00100000
00000000
00010000
00000000
00000000
00000000
10010000
00000000
00000000
00000000
,  // measure 105
10000000
00100000
10000000
00100000
00000000
01010000
00000000
11000000
,  // measure 106
00000000
00110000
00000000
10100000
00000000
00010000
01000000
00010000
;

//---------------dance-double - KAYSTAR----------------
#NOTEDATA:;
#CHARTNAME:;
#STEPSTYPE:dance-double;
#DESCRIPTION:KAYSTAR;
#CHARTSTYLE:;
#DIFFICULTY:Easy;
#METER:9;
#RADARVALUES:0.292050,0.361563,0.033791,0.287223,0.000000,242.000000,238.000000,4.000000,34.000000,0.000000,0.000000,0.000000,0.000000,0.000000,0.292050,0.361563,0.033791,0.287223,0.000000,242.000000,238.000000,4.000000,34.000000,0.000000,0.000000,0.000000,0.000000,0.000000;
#CREDIT:kaystar;
#NOTES:
// measure 0
00000000
00000000
00000000
00000000
,  // measure 1
00000000
00000000
00000000
00000000
,  // measure 2
00000000
00000000
00000000
00000000
,  // measure 3
00000000
00000000
00000000
00000000
,  // measure 4
00000000
00000000
00000000
00000000
,  // measure 5
00000001
00001000
00000100
00000000
,  // measure 6
00001000
00000001
00000100
00000000
,  // measure 7
00000020
00000000
00020030
00000000
,  // measure 8
00032000
00000000
02003000
00000000
,  // measure 9
03010000
00000000
10000000
00000000
,  // measure 10
00010000
00100000
00010000
00000000
,  // measure 11
10000000
00000000
00010000
00000000
,  // measure 12
10000000
00100000
10000000
00000000
,  // measure 13
01000000
01000000
01000000
00000000
,  // measure 14
00100000
00000000
00001000
00000000
,  // measure 15
00010000
00010000
00010000
00000000
,  // measure 16
00000100
00000000
00000010
00000000
,  // measure 17
00000001
00000000
00001000
00000000
,  // measure 18
00000001
00000100
00000001
00000000
,  // measure 19
00001000
00000000
00000001
00000000
,  // measure 20
00001000
00000100
00001000
00000000
,  // measure 21
00000010
00000010
00000010
00000000
,  // measure 22
00010000
00000000
00001000
00000000
,  // measure 23
01000000
00000000
00100000
00000000
,  // measure 24
10000000
10000000
10000000
00000000
,  // measure 25
00010000
00100000
00001000
00000000
,  // measure 26
00010000
00000000
00010000
00000000
,  // measure 27
00001000
00010000
00000100
00000000
,  // measure 28
00002000
00000000
00003001
00000000
,  // measure 29
00001000
00000010
00010000
00000000
,  // measure 30
00001000
00000000
00001000
00000000
,  // measure 31
02000000
00000000
03200000
00000000
,  // measure 32
20300000
00000000
30000000
00000000
,  // measure 33
20020000
00000000
00000000
00000000
,  // measure 34
00000000
00000000
30030000
00000000
,  // measure 35
10000000
00010000
01000000
00000000
,  // measure 36
00010000
10000000
01000000
00000000
,  // measure 37
10000000
00010000
01000000
00000000
,  // measure 38
00100000
00100000
00100000
00000000
,  // measure 39
10000000
01000000
00100000
00000000
,  // measure 40
01000000
00100000
00010000
00000000
,  // measure 41
01000000
00001000
01000000
00001000
,  // measure 42
00010000
00000010
00001000
00000000
,  // measure 43
00000001
00001000
00000100
00000000
,  // measure 44
00001000
00000001
00000100
00000000
,  // measure 45
00000001
00001000
00000100
00000000
,  // measure 46
00000010
00000010
00000010
00000000
,  // measure 47
00000001
00000100
00000010
00000000
,  // measure 48
00000100
00000010
00001000
00000000
,  // measure 49
00000200
00000000
00020300
00000000
,  // measure 50
00032000
00000000
00203000
00000000
,  // measure 51
00310000
00000000
10000000
00000000
,  // measure 52
00100000
01000000
00010000
00000000
,  // measure 53
10000000
00000000
01000000
00000000
,  // measure 54
00100000
00001000
00010000
00000000
,  // measure 55
00000100
00000000
00001000
00000000
,  // measure 56
00000010
00000100
00000001
00000000
,  // measure 57
00002000
00000000
00003200
00000000
,  // measure 58
00000320
00000000
00000031
00000000
,  // measure 59
00002002
00000000
00000000
00000000
,  // measure 60
00000000
00000000
00000000
00000000
,  // measure 61
00003003
00000000
00000000
00000000
,  // measure 62
00000000
00000000
00000000
00000000
,  // measure 63
00000001
00000000
00000000
00000000
,  // measure 64
00000100
00000000
00000000
00000000
,  // measure 65
00000010
00000000
00000000
00000000
,  // measure 66
00001000
00000000
00000000
00000000
,  // measure 67
00000100
00000000
00010000
00000000
,  // measure 68
00010000
00000000
00000000
00000000
,  // measure 69
00001000
00000000
00001000
00000000
,  // measure 70
00100000
00000000
00000000
00000000
,  // measure 71
20020000
00000000
00000000
00000000
,  // measure 72
30030000
00000000
00000000
00000000
,  // measure 73
10000000
00010000
00100000
00000000
,  // measure 74
00010000
10000000
00100000
00000000
,  // measure 75
10000000
00010000
00100000
00000000
,  // measure 76
01000000
01000000
01000000
00000000
,  // measure 77
10000000
00010000
01000000
00000000
,  // measure 78
00100000
00010000
00001000
00000000
,  // measure 79
00010000
00010000
00000100
00000100
,  // measure 80
00000010
00000001
00001000
00000000
,  // measure 81
00000001
00001000
00000010
00000000
,  // measure 82
00001000
00000001
00000010
00000000
,  // measure 83
00000001
00001000
00000010
00000000
,  // measure 84
00000100
00000100
00000100
00000000
,  // measure 85
00000001
00001000
00000100
00000000
,  // measure 86
00000010
00001000
00010000
00000000
,  // measure 87
00000020
00000000
00020030
00000000
,  // measure 88
00032000
00000000
02003000
00000000
,  // measure 89
03010000
00000000
10000000
00000000
,  // measure 90
01000000
00100000
00010000
00000000
,  // measure 91
10000000
00000000
00100000
00000000
,  // measure 92
01000000
00001000
00010000
00000000
,  // measure 93
00000010
00000000
00001000
00000000
,  // measure 94
00000100
00000010
00000001
00000000
,  // measure 95
00002000
00000000
00003020
00000000
,  // measure 96
00000230
00000000
00000302
00000000
,  // measure 97
00001003
00000100
00000010
00000000
,  // measure 98
00000001
00000001
00000100
00000100
,  // measure 99
00000010
00010000
00001000
00000000
,  // measure 100
01000000
01000000
01000000
00000000
,  // measure 101
00010000
00100000
01000000
00000000
,  // measure 102
10000000
10000000
00100000
00100000
,  // measure 103
02000000
00000000
03002000
00000000
,  // measure 104
00023000
00000000
00030010
00000000
,  // measure 105
00002002
00000000
00000000
00000000
,  // measure 106
00000000
00000000
00000000
00000000
,  // measure 107
00003003
00000000
00000000
00000000
;

//---------------dance-double - KAYSTAR----------------
#NOTEDATA:;
#CHARTNAME:;
#STEPSTYPE:dance-double;
#DESCRIPTION:KAYSTAR;
#CHARTSTYLE:;
#DIFFICULTY:Medium;
#METER:13;
#RADARVALUES:0.574446,0.631996,0.346357,0.599789,0.084477,476.000000,435.000000,41.000000,71.000000,0.000000,0.000000,0.000000,0.000000,0.000000,0.574446,0.631996,0.346357,0.599789,0.084477,476.000000,435.000000,41.000000,71.000000,0.000000,0.000000,0.000000,0.000000,0.000000;
#CREDIT:kaystar;
#NOTES:
// measure 0
00000000
00000000
00000000
00000000
,  // measure 1
00000000
00000000
00000000
00000000
,  // measure 2
00000000
00000000
00000000
00000000
,  // measure 3
00000000
00000000
00000000
00000000
,  // measure 4
00000000
00000000
00000000
00000000
,  // measure 5
00010000
00000000
00001000
00000000
00100000
00010000
00100000
00000000
,  // measure 6
00001000
00000000
00010000
00000000
00000010
00001000
00000010
00000000
,  // measure 7
00020000
00001000
00032000
00010000
,  // measure 8
02003000
03200000
20300000
30010000
,  // measure 9
10000000
00000000
01000000
00000000
00100000
00000000
00010000
10000000
,  // measure 10
00000000
00100000
10000000
00000000
01000000
00000000
10000000
00000000
,  // measure 11
00010000
00000000
01000000
00000000
00010000
00000000
00100000
00010000
,  // measure 12
00000000
10000000
00010000
00000000
01000000
00000000
00001000
00000000
,  // measure 13
00012000
00000000
00100000
00103000
,  // measure 14
00021000
00000000
00000010
00030010
,  // measure 15
00012000
00000000
00100000
00103000
,  // measure 16
00001000
00010000
00000100
00001000
,  // measure 17
00000001
00000000
00000100
00000000
00000010
00000000
00001000
00000001
,  // measure 18
00000000
00001000
00000100
00000000
00001000
00000000
00000010
00000000
,  // measure 19
00000100
00000000
00000001
00000000
00000010
00000000
00000001
00001000
,  // measure 20
00000000
00000001
00000100
00000000
00000010
00000000
00010000
00000000
,  // measure 21
00001000
00000000
00100000
00001000
00010000
00000000
00001000
00000000
,  // measure 22
00010000
00000000
00000010
00010000
00001000
00000000
00010000
00000000
,  // measure 23
00001000
00000000
00000000
01000000
00010000
00000000
00000000
10000000
,  // measure 24
00100000
10000000
20020000
30030000
,  // measure 25
00010000
00100000
00000000
00010000
00100000
00000000
01000000
10000000
,  // measure 26
00010000
01000000
10000000
01000000
,  // measure 27
00100000
10000000
00000000
00100000
10000000
00000000
00010000
00100000
,  // measure 28
00000000
00001000
00010000
00001000
00010000
00000000
00000100
00000000
,  // measure 29
00001000
00000010
00000000
00001000
00000010
00000000
00000100
00000001
,  // measure 30
00001000
00000100
00000001
00000100
,  // measure 31
00000020
00000031
00000200
00000310
,  // measure 32
00002000
00003100
00010000
00011000
,  // measure 33
00001000
00010000
00001000
00000000
01000000
00000000
00010000
00100000
,  // measure 34
00000000
01000000
00000000
10000000
00020000
00000000
00000000
00000000
,  // measure 35
10030000
00000000
00000000
00100000
00000000
00000000
01000000
00000000
00010000
00000000
00000000
00000000
20000000
00000000
00000000
00000000
,  // measure 36
30010000
00000000
00000000
00100000
00000000
00000000
01000000
00000000
10000000
00000000
00000000
00000000
00020000
00000000
00000000
00000000
,  // measure 37
10030000
00000000
00000000
00100000
00000000
00000000
01000000
00000000
00010000
00000000
00000000
00000000
00100000
00000000
00000000
00000000
,  // measure 38
00101000
00011000
00010100
00000100
,  // measure 39
00001000
00000000
00000000
00000001
00000000
00000000
00000100
00000000
00000010
00000000
00000000
00000000
00002000
00000000
00000000
00000000
,  // measure 40
00003001
00000000
00000000
00000010
00000000
00000000
00000100
00000000
00001000
00000000
00000000
00000000
00000000
00000000
00000000
00000000
,  // measure 41
00000002
00000203
00002300
00023000
,  // measure 42
00032000
00003020
00000031
00000000
,  // measure 43
00000001
00000000
00000000
00000100
00000000
00000000
00000010
00000000
00001000
00000000
00000000
00000000
00000200
00000000
00000000
00000000
,  // measure 44
00001300
00000000
00000000
00000010
00000000
00000000
00000100
00000000
00000001
00000000
00000000
00000000
00000020
00000000
00000000
00000000
,  // measure 45
00000031
00000000
00000000
00000100
00000000
00000000
00000010
00000000
00001000
00000000
00000000
00000000
00000100
00000000
00000000
00000000
,  // measure 46
00010100
00011000
00101000
00100000
,  // measure 47
00010000
00000000
00000000
01000000
00000000
00000000
00100000
00000000
10000000
00000000
00000000
00000000
02000000
00000000
00000000
00000000
,  // measure 48
13000000
00000000
00000000
00100000
00000000
00000000
01000000
00000000
00010000
00000000
00000000
00000000
00100000
00000000
00000000
00000000
,  // measure 49
00202000
00303000
00022000
00033000
,  // measure 50
00020020
00030030
00011000
00011000
,  // measure 51
00001000
00000000
00100000
00000000
00010000
00100000
00001000
00000000
,  // measure 52
00010000
00000000
00000010
00000000
00001000
00000010
00010000
00000000
,  // measure 53
00001000
00000000
00100000
00000000
00010000
00100000
00001000
00000000
,  // measure 54
00101000
00011000
00010010
00011000
,  // measure 55
00010000
00000000
00001000
00000000
01000000
00001000
00010000
00000000
,  // measure 56
00001000
00000000
00010000
00000000
00000100
00001000
00000100
00000020
,  // measure 57
00000000
00000031
00001000
00000002
00000000
00001003
00000010
00002000
,  // measure 58
00000000
00003010
00000100
00000020
00000000
00000130
00000001
00000000
,  // measure 59
00002002
00000000
00000000
00000000
,  // measure 60
00000000
00000000
00000000
00000000
,  // measure 61
00003003
00000000
00000000
00000000
,  // measure 62
00000000
00000000
00000000
00000000
,  // measure 63
00000001
00000000
00000000
00000010
00000001
00000000
00000000
00000000
,  // measure 64
00001000
00000000
00000000
00000100
00001000
00000000
00000000
00000000
,  // measure 65
00000010
00000010
00010000
00001000
,  // measure 66
01000000
01000000
00010000
00000000
,  // measure 67
20000000
00000000
32000000
00000000
,  // measure 68
03200000
00000000
00302000
00000000
,  // measure 69
00023000
00000000
00030200
00000000
,  // measure 70
00000320
00000000
00000031
00001000
,  // measure 71
00002002
00000000
00000000
00003003
,  // measure 72
00001000
00000001
00001000
00000001
00001000
00000000
00000000
00000000
,  // measure 73
00000001
00000000
00000000
00000100
00000000
00000000
00000010
00000000
00000100
00000000
00000000
00000000
00002000
00000000
00000000
00000000
,  // measure 74
00003100
00000000
00000000
00000010
00000000
00000000
00000100
00000000
00000001
00000000
00000000
00000000
00002000
00000000
00000000
00000000
,  // measure 75
00003100
00000000
00000000
00000010
00000000
00000000
00000001
00000000
00001000
00000000
00000000
00000000
00000010
00000000
00000000
00000000
,  // measure 76
00001010
00011000
01010000
01000000
,  // measure 77
00010000
00000000
00000000
00100000
00000000
00000000
01000000
00000000
10000000
00000000
00000000
00000000
00200000
00000000
00000000
00000000
,  // measure 78
10300000
00000000
00000000
01000000
00000000
00000000
00100000
00000000
00010000
00000000
00000000
00000000
00000000
00000000
00000000
00000000
,  // measure 79
20000000
30200000
00320000
00032000
,  // measure 80
00023000
02030000
13000000
00000000
,  // measure 81
00010000
00000000
00000000
01000000
00000000
00000000
00100000
00000000
01000000
00000000
00000000
00000000
20000000
00000000
00000000
00000000
,  // measure 82
31000000
00000000
00000000
00100000
00000000
00000000
01000000
00000000
00010000
00000000
00000000
00000000
20000000
00000000
00000000
00000000
,  // measure 83
30010000
00000000
00000000
00100000
00000000
00000000
01000000
00000000
10000000
00000000
00000000
00000000
00010000
00000000
00000000
00000000
,  // measure 84
01010000
00011000
00001010
00000010
,  // measure 85
00001000
00000000
00000000
00000100
00000000
00000000
00000010
00000000
00000001
00000000
00000000
00000000
00000200
00000000
00000000
00000000
,  // measure 86
00000301
00000000
00000000
00000010
00000000
00000000
00000100
00000000
00001000
00000000
00000000
00000000
00000010
00000000
00000000
00000000
,  // measure 87
00020020
00030030
00022000
00033000
,  // measure 88
00202000
00303000
00011000
00011000
,  // measure 89
00001000
01000000
00000000
00010000
01000000
00000000
00100000
10000000
,  // measure 90
00010000
00000000
00100000
01000000
10000000
00000000
00010000
00000000
,  // measure 91
01000000
00001000
00000000
00010000
00001000
00000000
00010000
00000010
,  // measure 92
00000000
00010000
00001000
00010000
00001000
00000000
00011000
00000000
,  // measure 93
00010000
00000100
00000000
00001000
00000100
00000000
00000010
00000001
,  // measure 94
00000010
00000000
00000001
00001000
00000010
00000000
00000100
00000000
,  // measure 95
00000002
00000013
00000200
00001300
,  // measure 96
00000020
00000130
00000001
00001001
,  // measure 97
00001000
00000100
00000000
00000010
00000100
00000000
00000001
00000100
,  // measure 98
00000010
00000000
00000001
00001000
00000001
00001000
00000010
00000000
,  // measure 99
00010000
00001000
00000000
00010000
00000010
00000000
00010000
00001000
,  // measure 100
00000000
00100000
00010000
00100000
01000000
00000000
10010000
00000000
,  // measure 101
00010000
01000000
00000000
00100000
01000000
00000000
10000000
01000000
,  // measure 102
00100000
00000000
10000000
00010000
10000000
00010000
00100000
00000000
,  // measure 103
00210000
00301000
00012000
00013000
,  // measure 104
00021000
00030010
00001001
00001001
,  // measure 105
00001000
00000100
00001000
00000100
00000000
00000010
00000000
00000001
,  // measure 106
00000000
00001000
00000000
00000010
00000000
00000100
00000001
00000100
;
