#VERSION:0.83;
#TITLE:666;
#SUBTITLE:;
#ARTIST:RoughSketch;
#TITLETRANSLIT:;
#SUBTITLETRANSLIT:;
#ARTISTTRANSLIT:;
#GENRE:Devilish Speedcore;
#ORIGIN:SOUND VOLTEX VIVID WAVE;
#TAGS:;
#CREDIT:;
#BANNER:666.png;
#BACKGROUND:666-bg.png;
#PREVIEWVID:;
#JACKET:666-jacket.png;
#CDIMAGE:;
#DISCIMAGE:;
#LYRICSPATH:;
#CDTITLE:;
#MUSIC:666.ogg;
#OFFSET:-0.306000;
#SAMPLESTART:88.774002;
#SAMPLELENGTH:23.063000;
#SELECTABLE:YES;
#BPMS:0.000000=333.000000
;
#STOPS:;
#DELAYS:;
#WARPS:;
#TIMESIGNATURES:0.000000=3=4
,3.000000=4=4
;
#TICKCOUNTS:0.000000=4
;
#COMBOS:0.000000=1
;
#SPEEDS:0.000000=1.000000=0.000000=0
;
#SCROLLS:0.000000=1.000000
;
#FAKES:;
#LABELS:0.000000=Song Start
;
#BGCHANGES:;
#KEYSOUNDS:;
#ATTACKS:
;

//---------------dance-single - ----------------
#NOTEDATA:;
#CHARTNAME:;
#CHARTHASH:734275654;
#STEPSTYPE:dance-single;
#BANNER:;
#DESCRIPTION:;
#CHARTSTYLE:;
#DIFFICULTY:Beginner;
#METER:6;
#METERF:0.000000;
#LASTSECONDHINT:118.324013;
#RADARVALUES:0.289468,0.407954,0.008304,0.058131,0.000000,244.000000,243.000000,1.000000,7.000000,0.000000,0.000000,0.000000,0.000000,0.000000,0.289468,0.407954,0.008304,0.058131,0.000000,244.000000,243.000000,1.000000,7.000000,0.000000,0.000000,0.000000,0.000000,0.000000;
#CREDIT:Evergreen;
#NOTES:
// measure 0
0000
0000
0000
0000
,  // measure 1
0000
0000
0000
0000
,  // measure 2
0000
0000
0000
0000
,  // measure 3
0000
0000
0000
0000
,  // measure 4
0000
0000
0000
0000
,  // measure 5
0000
0000
0000
0000
,  // measure 6
0000
0000
0000
0000
,  // measure 7
0000
0000
0000
0000
,  // measure 8
0000
0000
0000
1000
,  // measure 9
0000
1000
0000
0000
,  // measure 10
0000
0000
0000
0001
,  // measure 11
0000
0001
0000
0000
,  // measure 12
0000
0000
0000
1000
,  // measure 13
0000
0000
0000
0001
,  // measure 14
0000
0000
0000
1000
,  // measure 15
0000
0001
0000
1000
,  // measure 16
0000
0000
0000
0001
,  // measure 17
0000
0010
0000
0010
,  // measure 18
0000
0010
0000
0001
,  // measure 19
0000
1000
0000
0010
,  // measure 20
0000
0000
0000
1000
,  // measure 21
0000
0010
0000
0100
,  // measure 22
0000
0001
0000
1000
,  // measure 23
0000
0100
0000
0010
,  // measure 24
0000
0000
0000
0100
,  // measure 25
0000
1000
0000
0001
,  // measure 26
0000
0100
0000
0010
,  // measure 27
0000
0100
0000
0001
,  // measure 28
0000
0000
0000
1000
,  // measure 29
0000
0001
0000
0100
,  // measure 30
0000
0001
0000
1000
,  // measure 31
0000
0001
0000
0010
,  // measure 32
0000
0000
0000
0001
,  // measure 33
0000
1000
0000
0100
,  // measure 34
0000
1000
0000
0001
,  // measure 35
0000
0000
0000
1000
,  // measure 36
0000
0010
0000
0100
,  // measure 37
0000
0100
0000
0001
,  // measure 38
0000
0001
0000
1000
,  // measure 39
0000
1000
0000
0001
,  // measure 40
0000
0000
0000
0010
,  // measure 41
0000
0010
0000
0100
,  // measure 42
0000
0100
0000
1000
,  // measure 43
0000
1000
0000
0001
,  // measure 44
0000
0000
0000
1000
,  // measure 45
0000
0010
0000
0100
,  // measure 46
0000
0100
0000
0001
,  // measure 47
0000
0001
0000
1000
,  // measure 48
0000
0000
0000
0001
,  // measure 49
0000
0001
0000
0010
,  // measure 50
0000
0010
0000
0100
,  // measure 51
0000
1000
0000
0001
,  // measure 52
0000
0000
0000
1000
,  // measure 53
0000
0001
0000
0010
,  // measure 54
0000
0000
0000
0100
,  // measure 55
0000
0000
0000
1000
,  // measure 56
0000
0010
0000
1000
,  // measure 57
0000
0000
0000
0001
,  // measure 58
0000
0000
0000
0010
,  // measure 59
0000
0100
0000
1000
,  // measure 60
0000
0001
0000
1000
,  // measure 61
0000
0000
0000
0001
,  // measure 62
0000
0000
0000
1000
,  // measure 63
0000
0010
0000
0100
,  // measure 64
0000
0001
0000
1000
,  // measure 65
0000
0000
0000
0001
,  // measure 66
0000
0000
0000
0010
,  // measure 67
0000
0100
0000
1000
,  // measure 68
0000
0100
0000
0010
,  // measure 69
0000
0000
0000
0001
,  // measure 70
0000
0000
0000
1000
,  // measure 71
0000
0010
0000
0100
,  // measure 72
0000
0001
0000
1000
,  // measure 73
0000
0000
0000
0001
,  // measure 74
0000
0010
0000
0001
,  // measure 75
0000
0000
0000
1000
,  // measure 76
0000
0010
0000
1000
,  // measure 77
0000
0000
0000
0001
,  // measure 78
0000
0100
0000
0001
,  // measure 79
0000
1000
0000
0100
,  // measure 80
0000
0010
0000
0001
,  // measure 81
0000
0000
0000
1000
,  // measure 82
0000
0010
0000
0100
,  // measure 83
0000
0000
0000
0001
,  // measure 84
0000
0010
0000
0100
,  // measure 85
0000
1000
0000
0001
,  // measure 86
0000
0000
0000
0100
,  // measure 87
0000
0001
0000
1000
,  // measure 88
0000
0001
0000
2000
,  // measure 89
0000
0000
0000
0000
,  // measure 90
0000
0000
0000
3002
,  // measure 91
0000
0000
0000
0000
,  // measure 92
0000
0000
0000
0023
,  // measure 93
0000
0000
0000
0000
,  // measure 94
0000
0000
0000
0230
,  // measure 95
0000
0000
0000
0000
,  // measure 96
0000
0000
0000
1300
,  // measure 97
0000
0000
0000
0010
,  // measure 98
0000
0000
0000
1000
,  // measure 99
0000
0000
0000
0001
,  // measure 100
0000
0000
0000
0010
,  // measure 101
0000
0001
0000
0010
,  // measure 102
0000
0001
0000
1000
,  // measure 103
0000
0010
0000
1000
,  // measure 104
0000
0010
0000
0100
,  // measure 105
0000
0000
0000
0001
,  // measure 106
0000
0000
0000
1000
,  // measure 107
0000
0000
0000
0100
,  // measure 108
0000
0010
0000
0001
,  // measure 109
0000
0000
0000
1000
,  // measure 110
0000
0000
0000
0010
,  // measure 111
0000
0000
0000
0100
,  // measure 112
0000
0001
0000
1000
,  // measure 113
0000
1000
0000
0000
,  // measure 114
0000
0000
0000
0001
,  // measure 115
0000
0001
0000
0000
,  // measure 116
0000
0000
0000
0010
,  // measure 117
0000
0010
0000
0100
,  // measure 118
0000
0100
0000
2000
,  // measure 119
0000
0000
0000
0000
,  // measure 120
0000
0000
0000
3001
,  // measure 121
0000
0100
0000
0001
,  // measure 122
0000
1000
0000
0001
,  // measure 123
0000
0010
0000
0100
,  // measure 124
0000
1000
0000
0001
,  // measure 125
0000
0100
0000
0010
,  // measure 126
0000
1000
0000
0001
,  // measure 127
0000
0010
0000
0001
,  // measure 128
0000
0100
0000
0001
,  // measure 129
0000
1000
0000
0010
,  // measure 130
0000
0000
0000
1000
,  // measure 131
0000
0100
0000
1000
,  // measure 132
0000
0001
0000
1000
,  // measure 133
0000
0010
0000
0100
,  // measure 134
0000
0001
0000
1000
,  // measure 135
0000
0100
0000
0010
,  // measure 136
0000
0001
0000
1000
,  // measure 137
0000
0010
0000
1000
,  // measure 138
0000
0100
0000
1000
,  // measure 139
0000
0001
0000
0010
,  // measure 140
0000
0100
0000
1000
,  // measure 141
0000
0010
0000
0100
,  // measure 142
0000
0001
0000
1000
,  // measure 143
0000
0001
0000
0100
,  // measure 144
0000
0001
0000
1000
,  // measure 145
0000
0100
0000
0010
,  // measure 146
0000
0001
0000
1000
,  // measure 147
0000
0010
0000
0100
,  // measure 148
0000
0000
0000
0001
,  // measure 149
0000
0010
0000
0100
,  // measure 150
0000
0000
0000
1000
,  // measure 151
0000
0010
0000
0100
,  // measure 152
0000
0001
0000
1000
,  // measure 153
0000
0100
0000
0010
,  // measure 154
0000
0000
0000
0100
,  // measure 155
0000
1000
0000
0001
,  // measure 156
0000
1000
0000
0010
,  // measure 157
0000
0100
0000
0001
,  // measure 158
0000
0000
0000
0100
,  // measure 159
0000
0001
0000
1000
,  // measure 160
0000
0001
0000
0010
,  // measure 161
0000
0100
0000
0100
,  // measure 162
0000
0100
0000
2002
,  // measure 163
0000
0000
0000
3003
;

//---------------dance-single - ----------------
#NOTEDATA:;
#CHARTNAME:;
#CHARTHASH:3341559274;
#STEPSTYPE:dance-single;
#BANNER:;
#DESCRIPTION:;
#CHARTSTYLE:;
#DIFFICULTY:Easy;
#METER:13;
#METERF:0.000000;
#LASTSECONDHINT:118.324013;
#RADARVALUES:0.550463,0.611931,0.099653,0.357089,0.004152,464.000000,452.000000,12.000000,43.000000,0.000000,0.000000,0.000000,0.000000,0.000000,0.550463,0.611931,0.099653,0.357089,0.004152,464.000000,452.000000,12.000000,43.000000,0.000000,0.000000,0.000000,0.000000,0.000000;
#CREDIT:Evergreen & Yosefu;
#NOTES:
0000
0000
0000
0000
,
0000
0000
0000
0000
,
0000
0000
0000
0000
,
0000
0000
0000
0000
,
0000
0000
0000
0000
,
0000
0000
0000
0000
,
0000
0000
0000
0000
,
0000
0000
0000
0000
,
0000
0000
0000
1000
,
0100
1000
0000
0001
,
0100
0001
0000
1000
,
0010
1000
0000
0001
,
0010
0001
0000
1000
,
0010
0100
0001
0010
,
0100
1000
0001
1000
,
0010
1000
0010
0100
,
0001
2000
0000
3001
,
0001
1000
0000
0010
,
0000
0100
0000
0001
,
0001
1000
0000
0200
,
0000
0310
0001
1000
,
0010
0100
0001
1000
,
0100
0010
0001
1000
,
0100
1000
0010
1000
,
0001
1000
0001
0100
,
0001
0010
0100
1000
,
0010
0100
0001
1000
,
0001
0100
0001
0010
,
0100
0010
0100
1000
,
0010
1000
0001
0010
,
0100
1000
0001
0010
,
0100
0010
0001
2000
,
0000
3002
0000
1003
,
0010
0100
0001
0100
,
0010
1000
0100
0020
,
0000
0000
0000
0230
,
0000
1300
0001
1000
,
0010
1000
0010
0100
,
0001
0100
0001
0010
,
0001
0010
0001
1000
,
0100
0010
0001
1000
,
0100
1000
0100
0010
,
0001
0010
0001
1000
,
0010
1000
0010
0100
,
0001
1000
0001
2000
,
0000
3001
0010
0001
,
1000
0001
1000
0010
,
1000
0010
1000
0010
,
0100
0010
0100
0002
,
0000
1003
0100
1000
,
0001
1000
0001
0010
,
0000
0001
0000
0000
1000
0000
0010
0000
,
0100
0001
1000
0002
,
0000
2003
0000
3010
,
0100
0010
0000
1000
,
0001
1000
0100
1000
,
0001
0200
0000
0310
,
0000
0100
0000
0001
,
0100
0001
1000
0001
,
0100
0001
0010
0100
,
1000
0010
1000
0002
,
0000
2003
0000
3001
,
1000
0100
1000
0010
,
1000
0100
1000
0001
,
0010
0100
1000
0001
,
0000
1000
0000
0000
0001
0000
1000
0000
,
0100
1000
0001
1000
,
0100
1000
0010
0100
,
0001
1000
0001
2000
,
0000
3010
0000
0100
,
0001
0100
0000
0002
,
0000
0013
0000
0100
,
1000
0100
1000
0002
,
0000
0013
0000
0002
,
0000
1003
0000
0010
,
1000
0010
1000
0001
,
0000
1000
0100
2000
,
0000
3010
0000
2000
,
0000
3001
0000
1000
,
0100
0010
0001
1000
,
0001
1000
0001
2000
,
0000
3020
0000
0130
,
0001
0100
0000
0002
,
0000
0023
0000
0130
,
1000
0100
0000
1000
,
0000
0001
0000
0100
,
0001
0100
0001
1000
,
0100
0010
0001
1000
,
0010
0100
0001
2000
,
0000
0000
0000
0000
,
0000
0000
0000
3020
,
0000
0000
0000
0000
,
0000
0000
0000
0230
,
0000
0000
0000
0000
,
0000
0000
0000
0302
,
0000
0000
0000
0023
,
0000
0000
0000
0230
,
0000
0000
0000
0000
,
0000
0000
0000
2300
,
0000
0000
0000
0000
,
0000
0000
0000
3020
,
0000
0000
0000
0000
,
0000
0000
0000
0230
,
0000
0000
0000
0000
,
0000
0300
0000
0101
,
0000
0001
0000
1001
,
0000
1000
0000
1010
,
0000
0010
0000
0110
,
0000
1001
0000
0011
,
0000
0010
0000
0110
,
0000
0100
0000
1100
,
0000
1000
0000
0110
,
0000
1001
0000
2000
,
0000
0000
0000
3200
,
0000
0000
0000
0320
,
0000
0000
0000
0032
,
0000
0000
0000
0103
,
0000
0010
0000
1000
,
0001
1000
0001
2002
,
0000
0000
0000
0000
,
0000
0000
0000
0000
,
0000
0000
0000
0000
,
0000
3000
0003
1000
,
0010
1000
0010
0100
,
0001
0100
0001
1000
,
0100
1000
0100
0010
,
0001
0010
0001
1000
,
0010
0100
0010
1000
,
0001
0010
0001
1000
,
0010
0100
0001
0010
,
0100
1000
0001
0000
,
0100
0010
1000
0010
,
0100
0001
1000
0100
,
0010
0001
1000
0010
,
0100
0000
0000
0010
0000
0000
0000
0010
0000
1000
0000
0000
,
0010
0100
0010
1000
,
0001
0010
0100
0010
,
0001
1000
0010
0200
,
0000
0000
0300
0001
,
0100
0010
0100
0001
,
1000
0100
1000
0001
,
0010
0100
0010
0001
,
0100
0010
1000
0100
,
0010
0100
1000
0010
,
0100
0001
0100
0010
,
1000
0001
0100
0010
,
1000
0010
0100
0001
,
1000
0001
0010
0100
,
1000
0000
0000
0001
,
0100
0010
1000
0100
,
0010
0000
0000
0001
,
0100
0010
1000
0001
,
0100
0010
1000
0001
,
0020
0130
2000
3000
,
0000
0000
0000
0001
,
0100
0010
1000
0001
,
0010
0100
1000
0001
,
0100
0010
1000
0001
,
0010
0100
1000
0001
,
1000
0100
0010
0001
,
1000
0010
0100
0001
,
1000
0010
0000
0100
,
0000
0001
0000
2002
,
0000
0000
0000
3003
;

//---------------dance-single - ----------------
#NOTEDATA:;
#CHARTNAME:;
#CHARTHASH:776112257;
#STEPSTYPE:dance-single;
#BANNER:;
#DESCRIPTION:;
#CHARTSTYLE:;
#DIFFICULTY:Medium;
#METER:15;
#METERF:0.000000;
#LASTSECONDHINT:118.324013;
#RADARVALUES:0.768751,1.019885,0.074740,0.398612,0.049826,648.000000,639.000000,9.000000,48.000000,0.000000,0.000000,0.000000,0.000000,0.000000,0.768751,1.019885,0.074740,0.398612,0.049826,648.000000,639.000000,9.000000,48.000000,0.000000,0.000000,0.000000,0.000000,0.000000;
#CREDIT:Yosefu & Evergreen;
#NOTES:
0000
0000
0000
0000
,
0000
0000
0000
0000
,
0000
0000
0000
0000
,
0000
0000
0000
0000
,
0000
0000
0000
0000
,
0000
0000
0000
0000
,
0000
0000
0000
0000
,
0000
0000
0000
0000
,
0000
0000
0000
1000
,
0010
0100
0001
1000
,
0100
0010
0001
1000
,
0100
1000
0001
0100
,
0001
1000
0100
0010
,
0001
1000
0010
0100
,
0001
0000
1000
0000
0001
0000
1000
0001
,
1000
0001
1000
0001
1000
0001
1000
0100
,
1000
0000
0001
0100
0001
0000
1000
0000
,
1000
0000
0001
0010
0001
0000
0010
0100
,
0010
0000
0100
1000
0100
1000
0001
0000
,
0001
0000
1000
0010
1000
0000
0001
0000
,
0010
0100
1000
0001
,
0010
0001
1000
0000
0010
1000
0001
0000
,
1000
0100
0010
0000
0001
0100
0010
0000
,
1000
0001
1000
0000
0001
0000
1000
0000
,
0100
0010
0001
1000
,
0010
1000
0001
0000
0010
0001
1000
0000
,
0001
0100
0010
0000
1000
0100
0010
0000
,
0001
1000
0000
0001
1000
0000
0010
0100
,
0010
0100
0001
1000
,
0100
0010
0001
0000
0100
0010
1000
0000
,
0100
0010
0001
0010
0100
0000
1000
0001
,
1000
0000
0000
0001
0000
0000
1000
0000
0000
0000
0000
0000
0010
0000
0000
0000
0000
0000
0100
0000
0000
0000
0001
0000
,
0000
1000
0000
0100
0000
0010
0000
0001
0000
1000
0000
0000
,
0010
0100
0001
0000
0010
0100
1000
0100
,
0010
0000
0001
0100
0000
0010
2000
0000
,
0000
0000
0000
3002
,
0000
0000
1003
0100
0010
0000
0001
0000
,
1000
0001
0100
0010
,
0100
0000
1000
0000
0100
0010
1000
0000
,
0100
0010
0100
0001
,
0100
0000
1000
0001
1000
0001
1000
0000
,
0010
0100
0010
0001
,
0010
0000
0000
0100
0000
0010
0000
1000
0000
0001
0000
0000
,
0010
0100
0010
0001
0000
1000
0010
0000
,
0100
0001
0000
0001
1000
0001
2000
0000
,
3200
0000
0310
0001
1000
0000
0010
0000
,
0100
1000
0100
0010
,
0100
0000
0001
0000
1000
0000
0100
0010
,
0001
1000
0000
0001
0000
1000
0010
0000
,
0100
1000
0100
0001
,
0010
0100
0001
0100
,
1000
0001
0000
1000
0010
0000
0100
0001
,
1000
0001
0010
0200
,
0000
0000
2300
0000
0000
0000
3001
0100
,
0001
0000
1000
0100
1000
0000
0001
0010
,
0001
0000
0000
0010
0000
0000
0001
0000
0000
0010
0000
0000
0001
0000
0000
0010
0000
0000
0001
0000
0000
0000
1000
0000
,
0000
0010
0000
0100
0000
0001
0000
0010
0000
0002
0000
0000
,
0000
0000
1003
0010
1000
0000
0001
0000
,
0010
0000
0001
0010
0001
0000
1000
0000
,
0010
0000
1000
0100
1000
0000
0001
0000
,
0100
0000
0010
0100
0010
0000
0200
0000
,
0000
0302
0000
1003
,
0100
0000
0010
0001
0010
0000
0100
0000
,
1000
0000
0010
0100
0010
0000
0100
0000
,
0001
1000
0001
1000
,
0000
0010
0000
0000
0100
0000
0001
0000
,
0010
0000
0100
1000
0100
0000
1000
0000
,
0010
0000
0100
0001
1000
0000
0001
0010
,
0001
0000
1000
0001
0100
0000
0001
0000
,
0010
0100
0010
0001
,
0100
0010
1000
0001
,
0100
0000
0010
0000
0100
0000
0001
0010
,
0100
1000
0010
0200
,
0000
0302
2003
3100
,
0010
0100
1000
0010
,
0100
0010
1000
0100
,
1000
0001
0100
0001
,
0010
0100
0010
0001
,
0100
0010
0100
0001
,
0010
0100
1000
0001
,
1000
0001
1000
0200
,
0000
2300
3002
0103
,
0010
0100
0001
0010
,
0100
0010
0001
0100
,
0001
1000
0100
1000
,
0010
0100
0010
1000
,
0100
0010
0100
1000
,
0010
0100
0001
0010
,
0100
1000
0001
2000
,
0000
0000
0000
0000
,
0000
3020
0000
0230
,
0000
0000
0000
0000
,
0000
0000
0000
0302
,
0000
0000
0000
0023
,
0000
0230
0000
2300
,
0000
0000
0000
0000
,
0000
0000
0000
3002
,
0000
0000
0000
0000
,
0000
0203
0000
0320
,
0000
0000
0000
0000
,
0000
0000
0000
2030
,
0000
0000
0000
3002
,
0000
0023
0000
0230
,
0000
0000
0000
1300
,
0000
1000
0010
0100
,
0220
0000
0030
0000
0000
0300
0001
0000
,
0202
0000
0300
0000
0000
0003
1000
0000
,
2002
0000
3000
0000
0000
0003
0010
0000
,
0100
2002
3003
0001
,
0202
0000
0300
0000
0000
0003
1000
0000
,
2002
0000
3000
0000
0000
0003
1000
0000
,
2200
0000
0300
0000
0000
3000
0100
0000
,
0010
0022
0033
0001
,
0010
0001
0010
0001
,
0010
0001
0010
0100
,
1000
0100
1000
0100
,
1000
0100
1000
0001
,
0100
0010
1000
0100
,
0010
0000
0001
1000
0001
1000
0020
0000
,
0000
0000
0000
0000
,
0000
0000
0000
0130
,
1000
0100
0001
1000
,
0100
0000
0010
0001
1000
0000
0010
0000
,
0100
0001
0100
0010
,
1000
0100
0010
0001
,
1000
0010
0100
0010
,
1000
0000
0001
0000
0010
0100
1000
0000
,
0100
0010
0001
1000
,
0010
0100
0001
1000
,
0001
0010
0100
0010
0100
0000
0001
0000
,
0100
1000
0001
0000
,
0100
0010
1000
0000
0100
0000
0010
0000
,
0001
1000
0010
0100
,
0001
0000
1000
0000
0100
0000
0010
0001
,
0010
0000
0000
0001
0000
0000
1000
0000
0000
0000
0010
0000
0000
0000
0100
0000
0000
0000
0001
0000
0000
0100
0000
0000
,
0001
0100
0010
0000
1000
0000
0001
0000
,
0010
0100
1000
0001
,
0100
0010
1000
0002
,
0000
0000
1003
0010
0100
0000
0001
0000
,
1000
0100
0010
0001
,
1000
0010
0100
0001
,
1000
0100
0010
0001
,
0100
0000
0010
0000
1000
0001
0010
0000
,
0100
0010
0001
1000
,
0010
0100
0001
0010
,
0100
1000
0100
1000
0001
0000
0100
0010
,
1000
0000
0100
0010
0001
0010
0100
0000
,
1000
0000
0001
0100
0010
0000
0100
0001
,
1000
0001
0000
0000
0000
0000
1000
0000
,
0100
0010
0100
0010
0001
1000
0001
1000
,
0010
0000
0000
0100
,
0001
1000
0100
1000
0001
0000
0010
0000
,
0100
1000
0100
0010
0100
0000
1000
0001
,
0100
0000
0001
1000
0100
0000
0010
0000
,
0000
0000
0000
0001
,
0010
1000
0010
0001
,
0010
0000
1000
0000
0010
0000
0001
1000
,
0001
1000
0001
1000
0001
1000
0010
0000
,
0001
0010
1000
0100
,
0001
0000
0100
0000
1000
0000
0001
0100
,
0001
0100
0001
0100
0001
0100
0010
0000
,
1010
0000
1000
0010
1000
0000
0001
0010
,
0001
0000
0010
0100
0010
0100
0020
0000
,
0000
0000
0000
0030
;

//---------------dance-single - ----------------
#NOTEDATA:;
#CHARTNAME:;
#CHARTHASH:3451213076;
#STEPSTYPE:dance-single;
#BANNER:;
#DESCRIPTION:;
#CHARTSTYLE:;
#DIFFICULTY:Hard;
#METER:18;
#METERF:0.000000;
#LASTSECONDHINT:118.324013;
#RADARVALUES:1.109231,1.223862,0.489960,0.298959,0.153632,935.000000,876.000000,59.000000,36.000000,0.000000,0.000000,4.000000,0.000000,0.000000,1.109231,1.223862,0.489960,0.298959,0.153632,935.000000,876.000000,59.000000,36.000000,0.000000,0.000000,4.000000,0.000000,0.000000;
#CREDIT:Evergreen & Yosefu;
#NOTES:
0000
0000
0000
0000
,
0000
0000
0000
0000
,
0000
0000
0000
0000
,
0000
0000
0000
0000
,
0000
0000
0000
0000
,
0000
0000
0000
0000
,
0000
0000
0000
0000
,
0000
0000
0000
0000
,
0000
0000
0000
1000
,
1000
0001
0001
0100
,
0100
0010
0010
1000
,
1000
0001
0001
0010
,
0010
0000
0100
0000
0100
0000
1000
0010
,
1000
0010
0100
0001
0100
0001
0010
0001
,
0010
0001
1000
0100
1000
0100
1000
0010
,
0100
0001
1000
0100
0010
0001
1000
0100
,
1000
0000
0001
0100
0001
1000
0100
0000
,
0100
0000
0000
1000
0010
1000
0010
0000
0000
0100
0001
0100
,
0001
0000
0000
0000
0000
0000
0010
0000
0001
0000
0010
0000
0001
0000
0000
1000
0000
0000
0010
0000
0000
0000
0000
0000
,
0010
0000
0000
0000
0000
0000
0100
0000
0001
0000
0100
0000
0001
0000
0000
1000
0000
0000
0020
0000
0000
0000
0000
0000
,
0000
0000
0000
0000
0030
0000
0100
0000
0000
0001
0000
0000
2000
0000
0000
0000
0000
0000
3001
0000
0000
0000
0000
0000
,
0010
0001
0100
0001
0010
0001
0100
0001
,
0010
0100
1000
0010
0100
0001
1000
0010
,
0100
0010
1000
0100
0010
0001
1000
0000
,
1001
0011
1010
1000
,
0010
1000
0100
1000
0010
1000
0100
1000
,
0010
0100
0001
0010
0001
1000
0001
0010
,
0100
0010
0100
1000
0010
0100
0001
0000
,
0110
0000
1001
0000
1000
0010
1000
0000
,
0001
0010
0100
0010
0001
0010
0100
1000
,
0010
1000
0001
0010
0001
1000
0010
0100
,
0001
0000
0000
1000
0000
0000
0001
0000
0000
0000
0000
0000
0010
0000
0000
0100
0000
0000
1000
0000
0000
0000
0010
0000
,
0000
0100
0000
0001
0000
0010
0000
0100
0000
1000
0000
0000
,
0010
0100
0010
1000
0001
0010
0100
1000
,
0010
0100
0001
0010
0000
0001
2000
0000
,
0000
0000
0000
3002
,
0000
0000
0000
0000
1003
0010
1000
0100
,
0010
0001
1000
0100
0010
0001
1000
0010
,
0100
0001
1000
0010
0100
0001
1000
0001
,
0100
0010
1000
0001
0100
0010
1000
0001
,
0010
0100
1000
0001
0100
0000
0001
0010
,
0100
1000
0001
0010
0100
1000
0001
0100
,
0010
0000
0000
1000
0000
0000
0001
0000
0000
0000
0100
0000
0000
0000
0001
0000
0000
0000
1000
0000
0000
0100
0000
0000
,
1000
0001
0010
0001
0000
1000
0010
0000
,
0100
0001
0000
1000
0100
0010
0002
0000
,
2003
0000
3010
0100
0010
0100
0001
0010
,
0100
1000
0100
0010
0001
1000
0010
0100
,
0001
0100
0010
1000
0001
1000
0100
0010
,
0001
1000
0000
1000
0010
0100
0001
0000
,
0010
0001
0010
0001
0010
0000
0001
0000
,
1000
0010
1000
0010
1000
0000
0010
0000
,
0100
0001
0000
0010
0100
0000
1000
0001
,
0010
0001
2000
0000
0000
0000
3002
0000
,
0000
0000
0203
0000
0000
0000
0310
1000
,
0010
1000
0001
0100
0001
0100
0001
0010
,
0100
0000
0000
0010
0000
0000
0001
0000
0000
1000
0000
0000
0010
0000
0000
1000
0000
0000
0001
0000
0000
0000
0100
0000
,
0000
0000
0010
0000
0000
0000
2000
0000
0000
0000
0000
0000
0002
0000
0000
3003
0000
0000
1001
0000
0000
0000
0000
0000
,
0000
0000
1000
0010
0100
0001
0010
0100
,
0010
0001
1000
0100
0010
0001
0100
0010
,
0100
0001
1000
0100
0010
0001
1000
0100
,
1000
0001
0100
0010
1000
0001
0200
0000
,
0000
0000
0310
0000
0100
0000
0010
0100
,
0010
1000
0001
0100
0010
1000
0100
0010
,
0100
1000
0001
0100
0010
1000
0001
0000
,
0011
1100
1010
0101
,
0000
1001
0000
0000
1100
0000
1000
0010
,
0100
0001
0010
0100
0010
0001
2000
0000
,
3001
0010
0100
1000
0001
0100
0010
0100
,
0010
0100
0001
1000
0100
1000
0001
0000
,
0010
0100
1000
0010
0100
0001
1000
0000
,
0100
0000
1000
0001
0010
0000
0011
0000
,
0001
0000
1000
0010
0100
0001
1000
0100
,
0010
0100
1000
0001
0100
0001
2000
0000
,
3010
0100
0002
0000
0013
0100
1000
0000
,
0010
0000
0100
0000
0001
0010
0001
0000
,
0000
0010
0000
0000
0100
1000
0001
0000
,
0100
0001
1000
0010
,
0100
0001
1000
0000
0100
1000
0001
0000
,
0010
0000
0100
0000
1000
0100
1000
0000
,
0000
0010
0000
0000
0100
0000
0001
0000
,
1000
0001
1000
0002
,
0013
0100
2000
0000
3010
0100
0001
0000
,
0010
0000
0100
0000
1000
0010
1000
0000
,
0000
0010
0000
0000
0100
0001
1000
0000
,
0100
1000
0001
0010
,
0100
1000
0001
0000
0100
0001
1000
0000
,
0010
0000
0100
0000
0001
0100
0001
0000
,
0000
0010
0000
0000
0100
0000
1000
0000
,
0001
0100
0001
0000
1000
0100
2000
0000
,
0000
0000
0000
0000
,
0000
3200
0000
0302
,
0000
0000
0000
0000
,
0000
0000
0000
0203
,
0000
0000
0000
2300
,
0000
3020
0000
0230
,
0000
0000
0000
0302
,
0000
0000
0000
1003
,
0100
0010
0001
0010
,
0100
1000
0010
0100
,
0001
1000
0100
0010
,
0001
0000
1000
0000
0001
0000
0100
0001
,
0100
0001
0100
0001
0100
0001
1000
0100
,
1000
0100
1000
0100
1000
0100
0020
0000
,
0000
0000
0000
0000
0000
0000
0031
1000
,
0010
0220
0330
0101
,
0101
0000
0000
0001
1000
0001
1000
0000
0000
1100
0000
0000
,
1100
0000
0000
0100
0010
0100
0010
0000
0000
0011
0000
0000
,
0011
0000
0000
0001
1000
0001
1000
0000
0000
1100
0000
0000
,
1100
0220
0330
0011
,
0011
0000
0000
0001
0100
0001
0100
0000
0000
1010
0000
0000
,
1010
0000
0000
1000
0100
1000
0100
0000
0000
0110
0000
0000
,
0110
0000
0000
0001
1000
0001
1000
0000
0000
1010
0000
0000
,
0110
2002
3003
1000
,
0010
1000
0010
0100
,
0001
0100
0001
0010
,
0100
0010
0100
1000
,
0001
0000
0100
0000
0010
0000
1000
0010
,
1000
0010
0100
0001
0100
0001
1000
0100
,
1000
0100
0010
0001
0010
0001
0200
0000
,
0000
0000
0000
0000
,
0000
0000
0000
1300
,
0100
0001
0010
0100
,
1000
0000
0001
0100
0040
0000
0130
0000
,
1001
0000
1000
0100
1000
0001
0100
0000
,
0110
0101
1001
0100
,
1001
0000
0001
0100
0010
0100
1000
0000
,
0100
0000
0110
0000
0010
1000
0001
0000
,
0011
0000
0010
0100
1000
0001
0100
0000
,
0101
1001
1100
0110
,
0010
0001
0100
0010
1000
0000
1010
0000
,
0011
1100
0101
0000
,
0001
0100
0010
0100
0001
1000
0100
0000
,
0110
0000
0011
0000
1001
0000
1000
0010
,
0100
0001
0100
0010
1000
0100
0010
0100
,
0001
0000
0000
0100
0000
0000
1000
0000
0000
0000
0001
0000
0000
0000
0100
0000
0000
0000
0010
0000
0000
1000
0000
0000
,
0100
0010
0001
1000
0100
1000
0010
0000
,
1010
0000
0101
0000
1000
0100
0010
0000
,
0011
1001
1010
0020
,
0000
0000
0130
0001
0040
0000
0130
1000
,
0100
1000
0001
0100
0001
0100
0010
1000
,
0010
1000
0001
0010
0001
0010
0100
1000
,
0001
1000
0010
0100
0001
0010
0100
1000
,
0010
1000
0001
0100
0001
0010
1000
0010
,
0100
1000
0001
0100
0010
1000
0100
0010
,
0001
0100
0001
1000
0100
0010
0001
1000
,
0100
1000
0010
0100
0001
0010
0001
1000
,
0010
1000
0100
0001
0100
1000
0001
0100
,
0010
1000
0100
0010
0001
1000
0010
0100
,
0001
0010
0100
0000
0000
0000
1000
0010
,
0100
1000
0100
0010
1000
0001
0010
0100
,
1000
0010
2000
0000
0000
0000
3001
0010
,
1000
0010
0001
1000
0010
0100
0001
0010
,
1000
0010
0001
1000
0010
0100
0001
0010
,
0400
0000
1300
0010
0400
0000
0301
0000
,
0000
0000
0000
0000
0000
0000
1000
0100
,
0010
0001
0100
0010
1000
0001
0010
0100
,
1000
0010
0100
0001
1000
0100
0010
0001
,
0100
0010
1000
0001
0010
0100
1000
0000
,
1001
0000
1100
0000
0011
0000
0001
0100
,
0010
1000
0100
0010
0001
1000
0010
0100
,
0001
0010
0100
1000
0001
0100
0010
0000
,
1010
0000
0000
1000
0010
1000
0010
0000
0000
0100
0001
0100
,
0001
0000
0000
0000
0000
0000
1000
0000
0100
0000
1000
0000
0100
0000
0000
0010
0000
0000
0002
0000
0000
0000
0000
0000
,
0000
0000
0000
0003
;

//---------------dance-single - ----------------
#NOTEDATA:;
#CHARTNAME:;
#CHARTHASH:2174170371;
#STEPSTYPE:dance-single;
#BANNER:;
#DESCRIPTION:;
#CHARTSTYLE:;
#DIFFICULTY:Challenge;
#METER:19;
#METERF:0.000000;
#LASTSECONDHINT:118.324013;
#RADARVALUES:1.250406,1.767801,0.456742,0.257437,0.494112,1054.000000,999.000000,55.000000,31.000000,0.000000,0.000000,0.000000,0.000000,0.000000,1.250406,1.767801,0.456742,0.257437,0.494112,1054.000000,999.000000,55.000000,31.000000,0.000000,0.000000,0.000000,0.000000,0.000000;
#CREDIT:Yosefu & Evergreen;
#OFFSET:-0.306000;
#BPMS:0.000000=666.000000
;
#STOPS:;
#DELAYS:;
#WARPS:;
#TIMESIGNATURES:0.000000=3=4
,6.000000=4=4
;
#TICKCOUNTS:0.000000=4
;
#COMBOS:0.000000=1
;
#SPEEDS:0.000000=1.000000=0.000000=0
;
#SCROLLS:0.000000=1.000000
;
#FAKES:;
#LABELS:0.000000=Song Start
;
#NOTES:
0000
0000
0000
0000
,
0000
0000
0000
0000
,
0000
0000
0000
0000
,
0000
0000
0000
0000
,
0000
0000
0000
0000
,
0000
0000
0000
0000
,
0000
0000
0000
0000
,
0000
0000
0000
0000
,
0000
0000
0000
0000
,
0000
0000
0000
0000
,
0000
0000
0000
0000
,
0000
0000
0000
0000
,
0000
0000
0000
0000
,
0000
0000
0000
0000
,
0000
0000
0000
0000
,
0000
0000
0000
0000
,
0000
0000
0000
0000
,
0000
0000
1000
0000
,
1000
0000
0010
0000
,
0010
0000
0100
0000
,
0100
0000
0001
0000
,
0001
0010
0100
0000
,
0100
0000
1000
0000
,
1000
0000
0010
0000
,
0010
0000
0100
0000
,
0100
0000
0001
0010
,
0001
0010
0100
1000
,
0100
1000
0010
0100
,
0010
0100
0001
1000
,
0001
1000
0001
0010
,
0100
1000
0001
0100
,
0010
1000
0001
0010
,
0100
0010
0001
1000
,
0010
1000
0001
0000
,
0001
0000
0000
0000
0000
0000
1000
0000
0100
0000
0010
0000
,
0001
0000
0000
1000
0000
0000
0001
0000
0100
0000
0010
0000
,
1000
0000
0000
0001
0000
0000
1000
0000
0100
0000
0010
0000
,
0001
1000
0001
0000
,
0001
0000
0000
0000
0000
0000
1000
0000
0001
0000
0010
0000
,
0100
1000
0020
0000
,
0130
0000
0001
0100
,
0002
0000
1003
0100
,
0010
0010
1000
0001
,
0010
0010
0100
0001
,
0010
0010
1000
0001
,
1000
0001
1000
0100
,
1000
0001
0010
0001
,
0100
0001
1000
0000
,
1001
0000
0011
0000
,
1001
0000
1100
0000
,
0100
1000
0010
0010
,
0001
1000
0010
0010
,
0001
0000
0000
0100
0000
0000
0001
0000
0010
0000
0001
0000
,
0010
0000
0000
0100
0000
0000
1000
0000
0010
0000
1000
0000
,
0010
0000
0000
0100
0000
0000
0001
0000
0010
0000
0001
0000
,
0010
0001
1000
0000
,
1100
0000
0110
0000
,
0001
1000
1001
0000
,
0001
0100
0010
0010
,
0100
0000
0000
1000
0000
0000
0001
0000
1000
0000
0001
0000
,
1000
0001
0010
0010
,
0100
0100
1000
0010
,
0100
0001
1000
0100
,
0010
0000
0001
0000
0010
0000
0001
0000
0000
0000
1000
0000
,
0000
0000
0010
0000
0000
0000
0100
0000
0000
0000
0001
0000
,
0000
0000
0010
0000
0000
0000
0100
0000
0000
0000
0000
0000
,
1000
0000
0000
0001
0000
0000
1000
0000
0001
0000
1000
0000
,
0001
1000
0100
0100
,
0010
0010
0001
0100
,
0000
0010
2000
0000
,
0000
0000
0000
0000
,
0000
0000
3002
0000
,
0000
0000
0103
0001
,
0100
0000
0001
0010
,
0001
1000
0001
0010
,
0001
1000
0001
0100
,
0001
1000
0001
0100
,
0001
0010
0100
1000
,
0100
0010
0100
1000
,
0100
0010
0100
1000
,
0001
1000
0001
0010
,
0100
0000
1000
0001
,
1000
0100
1000
0001
,
1000
0100
1000
0010
,
0100
0000
0000
0010
0000
0000
1000
0000
0000
0000
0001
0000
,
0000
0000
0010
0000
0000
0000
0100
0000
0000
0000
0000
0000
,
0010
0000
0001
0000
0010
0000
0001
0000
0000
0000
1000
0000
,
0000
0010
0100
0000
,
0000
0101
0000
0001
,
0010
0000
0000
0100
0000
0000
1000
0000
0010
0000
0100
0000
,
0001
0000
0100
0000
0010
0000
1000
0000
0001
0000
1000
0000
,
0001
0010
0100
1000
,
0001
0100
0001
1000
,
0001
0100
0010
1000
,
0100
1000
0001
1000
,
0100
1000
0001
0010
,
0100
1000
0000
1100
,
0000
1010
0000
0000
,
0010
1000
0010
0100
,
0001
1000
0001
0000
,
0010
0001
0010
0100
,
1000
0001
1000
0000
,
0010
0100
0000
0001
,
1000
0000
0001
0100
,
0010
0000
1000
0100
,
0010
0100
2000
0000
,
0000
0000
3002
0000
,
0000
0000
1003
0010
,
1000
0001
0010
0001
,
0100
0001
0010
0001
,
1000
0010
0100
0001
,
0010
0100
1000
0001
,
1000
0010
0200
0000
,
0301
0000
0101
0000
,
0100
0000
0001
0100
,
0001
1000
0010
0010
,
0001
1000
0100
0010
,
0001
1000
0010
0010
,
0001
1000
0010
0100
,
0001
1000
0010
0010
,
0100
0100
0001
0010
,
0100
1000
0002
0000
,
0023
0000
0230
0000
,
2300
0000
3001
0010
,
0001
1000
0100
0100
,
0001
0000
0000
1000
0000
0000
0010
0000
0100
0000
0001
0000
,
1000
0001
0010
0010
,
1000
0001
1001
0000
,
1010
0000
0011
0000
,
1100
0000
1001
0000
,
0000
0102
0000
0000
,
1003
0000
0010
0010
,
0001
1000
0010
0100
,
0001
0010
2000
0000
,
3010
0000
0000
0001
0000
0000
1000
0000
0010
0000
0100
0000
,
0001
0010
0100
1000
,
0100
0000
0000
0000
0000
0000
1000
0000
0010
0000
0100
0000
,
0001
1000
0001
0000
,
1000
0010
0001
0010
,
1000
0100
0010
0100
,
1000
0001
0100
0001
,
0010
0100
1000
0000
,
0001
0100
0010
1000
,
0001
0010
0100
0010
,
0001
0100
0020
0000
,
1030
0000
0000
0001
0000
0000
1000
0000
0010
0000
0100
0000
,
0001
1000
0001
0000
,
0010
0100
1000
0100
,
0100
0001
1000
0100
,
0010
0001
1000
0000
,
0001
0000
0100
0000
,
0010
1000
0001
0100
,
0100
1000
0010
0100
,
0001
1000
0001
0000
,
1000
0000
0100
0000
,
0010
0001
1000
0100
,
0100
0001
0010
0001
,
1000
0010
0100
0000
,
0001
0000
1000
0000
,
0010
0100
0001
0100
,
0100
1000
0001
0100
,
0001
0000
0000
1000
0000
0000
0001
0000
0010
0000
0100
0000
,
1000
0000
0010
0000
0100
0000
0001
0000
1000
0000
0100
0000
,
1000
0000
0001
0000
0100
0000
0001
0000
0000
0010
0000
0000
,
0010
1000
0001
0100
,
0010
1000
0001
0000
,
1000
0000
0100
0000
,
0010
0001
1000
0010
,
0010
0001
1000
0001
,
0100
0001
1000
0000
,
0001
0000
0100
0000
,
0010
1000
0001
0100
,
0100
1000
0010
0010
,
0001
0010
0100
0010
,
0001
1000
0001
0000
,
0010
0100
1000
0010
,
0010
0001
1000
0100
,
0010
0001
2000
0000
,
0000
0000
0000
0000
,
0000
0000
3020
0000
,
0000
0000
0000
0000
,
0000
0000
0032
0000
,
0000
0000
0000
0000
,
0000
0000
0023
0000
,
0000
0000
0000
0000
,
0000
0000
0230
0000
,
0000
0000
0000
0000
,
0000
0000
0302
0000
,
0000
0000
0000
0000
,
0000
0000
2003
0000
,
0000
0000
0000
0000
,
0000
0000
3200
0000
,
0000
0000
0000
0000
,
0000
0000
0310
0000
,
0001
0000
0010
0000
,
0100
0000
1000
0000
,
0001
0000
0100
0000
,
0010
0000
1000
0000
,
0100
0000
0010
0000
,
0001
0000
1000
0000
,
0001
0000
0100
0000
,
0010
0000
1000
0001
,
0100
0010
1000
0010
,
0100
0001
1000
0100
,
0010
0001
0100
0010
,
1000
0001
0200
0000
,
0000
0000
0000
0000
,
0000
0000
0000
0000
0000
0000
0310
0000
1000
0000
0001
0000
,
1000
0000
0100
0000
0010
0000
0001
0000
0000
0000
0000
0000
,
0100
0000
1001
0000
,
1001
0000
0000
0000
0000
0000
1000
0000
0100
0000
0010
0000
,
0001
1000
0001
0000
,
1001
0000
0000
0000
0000
0000
1000
0000
0001
0000
0100
0000
,
0010
1000
0010
0000
,
1010
0000
0000
0000
0000
0000
0010
0000
0100
0000
0001
0000
,
1000
0100
1100
0000
,
1100
0000
2002
0000
,
3003
0000
0101
0000
,
0101
0000
0000
0000
0000
0000
0001
0000
0010
0000
0100
0000
,
1000
0001
0100
0000
,
0101
0000
0000
0000
0000
0000
0100
0000
0010
0000
1000
0000
,
0001
1000
0001
0000
,
1001
0000
0000
0000
0000
0000
0001
0000
0010
0000
0100
0000
,
1000
0010
1000
0000
,
1010
0000
2002
0000
,
3003
0000
0001
0000
,
0100
0000
0010
0000
,
0100
0000
0001
0000
,
1000
0000
0100
0000
,
0010
0000
0001
0000
,
1000
0000
0010
0000
,
0100
0000
0001
0000
,
1000
0000
0100
0000
,
0010
0000
0001
1000
,
0100
1000
0010
0100
,
0001
0010
0001
0100
,
0010
1000
0100
0010
,
0001
0100
2000
0000
,
0000
0000
0000
0000
,
0000
0000
0000
0000
,
0000
0000
0000
0000
,
0000
0000
3100
0000
,
0001
0000
0010
0000
,
0100
0000
1000
0000
,
0001
0000
1000
0010
,
0100
0000
0010
0000
0100
0000
0010
0000
0000
0000
0000
0000
,
0100
0010
0100
0001
,
0010
0100
1100
0000
,
1100
0000
1001
0000
,
0101
0000
1001
0000
,
0001
0010
0001
0100
,
0010
0100
1000
0000
,
0100
0000
0110
0000
,
0100
0100
1000
0000
,
0010
1000
0010
0100
,
0001
0100
0110
0000
,
1010
0000
1001
0000
,
0011
0000
0001
0010
,
0100
0100
0001
1000
,
0100
0010
1000
0010
,
0001
0010
0100
0000
,
1100
0000
2000
0000
,
3100
0100
0001
0010
,
0100
1000
1001
0000
,
1100
0000
1001
0000
,
0101
0000
0001
0000
,
0100
0100
0010
0001
,
1000
0010
0100
0100
,
0100
0000
0000
0100
0000
0000
1000
0000
0000
0000
0100
0000
,
0000
0000
1000
0000
0000
0000
0100
0000
0000
0100
0000
0000
,
0100
0100
0001
0010
,
0100
1000
1001
0000
,
0101
0000
1001
0000
,
1000
0000
0100
0000
0010
0000
0001
0000
0000
0000
0000
0000
,
0011
0000
1001
0000
,
1010
0000
1000
0001
,
0010
0000
0100
1000
,
0010
0000
0100
0000
0001
0000
0100
0000
0001
0000
1000
0000
,
0100
0010
0100
1000
,
0001
0100
0010
0001
,
0010
0100
0001
0100
,
0100
0000
0000
1000
0000
0000
0001
0000
0100
0000
0010
0000
,
1000
0010
0001
0010
,
0100
0000
0000
0001
0000
0000
1000
0000
0100
0000
0010
0000
,
0001
0000
1000
0000
0010
0000
1000
0000
0001
0000
0010
0000
,
0100
0000
1000
0000
0001
0000
0100
0000
0010
0000
1000
0000
,
0001
0010
0100
0001
,
0100
1000
0001
0010
,
0100
0010
0001
0010
,
0010
0000
0000
1000
0000
0000
0001
0000
1000
0000
0010
0000
,
0100
0100
0100
0100
,
1000
0000
0000
0001
0000
0000
0100
0000
0010
0000
1000
0000
,
0001
0000
0010
0000
0100
0000
1000
0000
0001
0000
0100
0000
,
0001
0000
0010
0000
0100
0000
1000
0000
0000
0001
0000
0000
,
1000
0001
0010
0010
,
1000
0100
0010
0010
,
0010
0010
1000
0100
,
0010
0000
0000
0100
0000
0000
1000
0000
0001
0000
0010
0000
,
0100
0100
0100
0100
,
0001
0000
0000
0010
0000
0000
0100
0000
1000
0000
0001
0000
,
0100
0000
0001
0000
0010
0000
0200
0000
0000
0000
0000
0000
,
0000
0000
0000
0000
0000
0000
1300
0000
0001
0000
0100
0000
,
0010
0010
0010
0010
,
0001
1000
0100
1000
,
0010
0010
0010
0010
,
0001
0000
0000
1000
0000
0000
0010
0000
0100
0000
0001
0000
,
1000
0000
0100
0000
0010
0000
0001
0000
0000
1000
0000
0000
,
0010
0000
0100
0000
0001
0000
1000
0000
0000
0010
0000
0000
,
0001
0000
0001
0010
,
1000
0000
0100
0100
,
0100
0100
0100
0100
,
0100
0100
0100
0100
,
0100
0100
0100
0100
,
0100
0100
0100
0100
,
0100
0100
0100
0100
,
0100
0100
0010
0000
,
0110
0000
1100
0000
,
1001
0000
0100
0100
,
0100
0100
0100
0100
,
0100
0100
0100
0100
,
0100
0100
0100
0100
,
0100
0100
0100
0000
,
1001
0000
0000
0000
0000
0000
0001
0000
0100
0000
0010
0000
,
1000
0000
0000
0001
0000
0000
1000
0000
0100
0000
0010
0000
,
0001
0000
0000
1000
0000
0000
0001
0000
0100
0000
0010
0000
,
1000
0001
2000
0000
,
0000
0000
0000
0000
,
0000
0000
3000
0000
;
