#TITLE:i'll make sure u miss me;
#SUBTITLE:;
#ARTIST:Vorsa;
#TITLETRANSLIT:;
#SUBTITLETRANSLIT:;
#ARTISTTRANSLIT:;
#GENRE:;
#CREDIT:;
#MUSIC:ill make sure u miss me.ogg;
#BANNER:ill make sure u miss me-bn.mp4;
#BACKGROUND:ill make sure u miss me-bg.png;
#CDTITLE:;
#SAMPLESTART:11.731;
#SAMPLELENGTH:23.977;
#SELECTABLE:YES;
#OFFSET:-1.229;
#BPMS:0.000=159.966
,33.000=319.540
,34.000=159.966
,35.000=319.932
,36.000=159.966
,38.000=319.932
,39.000=159.966
,41.000=319.932
,42.000=159.966
,46.000=319.932
,47.000=159.966
,49.000=319.932
,50.000=159.966
,51.000=319.932
,52.000=159.966
,54.000=319.932
,55.000=159.966
,57.000=319.932
,58.000=159.966
,62.000=319.932
,62.500=159.966
,65.000=319.932
,66.000=159.966
,67.000=319.932
,68.000=159.966
,70.000=319.932
,71.000=159.966
,73.000=319.932
,74.000=159.966
,78.000=319.932
,79.000=159.966
,81.000=319.932
,82.000=159.966
,83.000=319.932
,84.000=159.966
,86.000=319.932
,87.000=159.966
,89.000=319.932
,90.000=159.966
,181.000=145.966
,183.000=141.966
,185.000=135.966
,187.000=136.966
,190.000=268.916
,191.000=134.458
,193.000=268.916
,194.000=134.458
,195.000=268.916
,196.000=134.458
,198.000=268.916
,199.000=134.458
,201.000=268.916
,202.000=134.458
,206.000=268.916
,206.167=268.916
,207.000=134.458
,209.000=268.916
,210.000=134.458
,211.000=268.916
,212.000=134.458
,214.000=268.916
,215.000=134.458
,217.000=268.916
,218.000=134.458
,222.000=268.916
,222.500=134.458
,225.000=268.916
,225.167=268.916
,226.000=134.458
,227.000=268.916
,228.000=134.458
,230.000=268.916
,231.000=134.458
,233.000=268.916
,234.000=134.458
,238.000=268.916
,238.167=268.916
,239.000=134.458
,241.000=268.916
,242.000=134.458
,243.000=268.916
,244.000=134.458
,246.000=268.916
,247.000=134.458
,249.000=268.916
,250.000=134.458
;
#STOPS:33.000=0.031
,33.167=0.031
,33.333=0.031
,33.500=0.031
,33.667=0.031
,33.833=0.031
,35.000=0.031
,35.167=0.031
,35.333=0.031
,35.500=0.031
,35.667=0.031
,35.833=0.031
,38.000=0.031
,38.167=0.031
,38.333=0.031
,38.500=0.031
,38.667=0.031
,38.833=0.031
,41.000=0.031
,41.167=0.031
,41.333=0.031
,41.500=0.031
,41.667=0.031
,41.833=0.031
,46.000=0.031
,46.167=0.031
,46.333=0.031
,46.500=0.031
,46.667=0.031
,46.833=0.031
,49.000=0.031
,49.167=0.031
,49.333=0.031
,49.500=0.031
,49.667=0.031
,49.833=0.031
,51.000=0.031
,51.167=0.031
,51.333=0.031
,51.500=0.031
,51.667=0.031
,51.833=0.031
,54.000=0.031
,54.167=0.031
,54.333=0.031
,54.500=0.031
,54.667=0.031
,54.833=0.031
,57.000=0.031
,57.167=0.031
,57.333=0.031
,57.500=0.031
,57.667=0.031
,57.833=0.031
,62.000=0.031
,62.167=0.031
,62.333=0.031
,65.000=0.031
,65.167=0.031
,65.333=0.031
,65.500=0.031
,65.667=0.031
,65.833=0.031
,67.000=0.031
,67.167=0.031
,67.333=0.031
,67.500=0.031
,67.667=0.031
,67.833=0.031
,70.000=0.031
,70.167=0.031
,70.333=0.031
,70.500=0.031
,70.667=0.031
,70.833=0.031
,73.000=0.031
,73.167=0.031
,73.333=0.031
,73.500=0.031
,73.667=0.031
,73.833=0.031
,78.000=0.031
,78.167=0.031
,78.333=0.031
,78.500=0.031
,78.667=0.031
,78.833=0.031
,81.000=0.031
,81.167=0.031
,81.333=0.031
,81.500=0.031
,81.667=0.031
,81.833=0.031
,83.000=0.031
,83.167=0.031
,83.333=0.031
,83.500=0.031
,83.667=0.031
,83.833=0.031
,86.000=0.031
,86.167=0.031
,86.333=0.031
,86.500=0.031
,86.667=0.031
,86.833=0.031
,89.000=0.031
,89.167=0.031
,89.333=0.031
,89.500=0.031
,89.667=0.031
,89.833=0.031
,190.000=0.037
,190.167=0.037
,190.333=0.037
,190.500=0.037
,190.667=0.037
,190.833=0.037
,193.000=0.037
,193.167=0.037
,193.333=0.037
,193.500=0.037
,193.667=0.037
,193.833=0.037
,195.000=0.037
,195.167=0.037
,195.333=0.037
,195.500=0.037
,195.667=0.037
,195.833=0.037
,198.000=0.037
,198.167=0.037
,198.333=0.037
,198.500=0.037
,198.667=0.037
,198.833=0.037
,201.000=0.037
,201.167=0.037
,201.333=0.037
,201.500=0.037
,201.667=0.037
,201.833=0.037
,206.000=0.037
,206.167=0.037
,206.333=0.037
,206.500=0.037
,206.667=0.037
,206.833=0.037
,209.000=0.037
,209.167=0.037
,209.333=0.037
,209.500=0.037
,209.667=0.037
,209.833=0.037
,211.000=0.037
,211.167=0.037
,211.333=0.037
,211.500=0.037
,211.667=0.037
,211.833=0.037
,214.000=0.037
,214.167=0.037
,214.333=0.037
,214.500=0.037
,214.667=0.037
,214.833=0.037
,217.000=0.037
,217.167=0.037
,217.333=0.037
,217.500=0.037
,217.667=0.037
,217.833=0.037
,222.000=0.112
,225.000=0.037
,225.167=0.037
,225.333=0.037
,225.500=0.037
,225.667=0.037
,225.833=0.037
,227.000=0.037
,227.167=0.037
,227.333=0.037
,227.500=0.037
,227.667=0.037
,227.833=0.037
,230.000=0.037
,230.167=0.037
,230.333=0.037
,230.500=0.037
,230.667=0.037
,230.833=0.037
,233.000=0.037
,233.167=0.037
,233.333=0.037
,233.500=0.037
,233.667=0.037
,233.833=0.037
,238.000=0.037
,238.167=0.037
,238.333=0.037
,238.500=0.037
,238.667=0.037
,238.833=0.037
,241.000=0.037
,241.167=0.037
,241.333=0.037
,241.500=0.037
,241.667=0.037
,241.833=0.037
,243.000=0.037
,243.167=0.037
,243.333=0.037
,243.500=0.037
,243.667=0.037
,243.833=0.037
,246.000=0.037
,246.167=0.037
,246.333=0.037
,246.500=0.037
,246.667=0.037
,246.833=0.037
,249.000=0.037
,249.167=0.037
,249.333=0.037
,249.500=0.037
,249.667=0.037
,249.833=0.037
;
#DISPLAYBPM:134.458:159.966;
#BGCHANGES:-1.229=ill make sure u miss me.mp4=1.000=1=0=0=StretchNoLoop==CrossFade==,
99999.000=-nosongbg-=1.000=0=0=0=StretchNoLoop====
;
#FGCHANGES:;

//--------------- dance-single - Jenro (2022) ----------------
#NOTES:
     dance-single:
     Jenro (2022):
     Beginner:
     2:
     0,0,0,0,0:
0000
0000
0000
0000
,
0000
0000
0000
0000
,
0000
0000
0000
0000
,
0000
0000
0000
0000
,
0000
0000
0000
0000
,
0000
0000
0000
0000
,
0000
0000
0000
0000
,
0010
0000
1000
0000
,
0001
0000
0100
0000
,
0100
0000
0010
0000
,
1000
0000
0001
0000
,
0001
0000
0010
0000
,
0100
0000
0010
0000
,
1000
0000
1000
0000
,
1000
0000
1000
0000
,
0100
0000
0001
0000
,
1000
0000
0010
0000
,
0010
0000
0100
0000
,
0001
0000
1000
0000
,
1000
0000
0100
0000
,
0010
0000
0100
0000
,
0001
0000
0001
0000
,
0001
0000
0001
0000
,
0000
0000
0100
0000
,
1000
0000
0100
0000
,
0001
0000
0010
0000
,
1000
0000
0010
0000
,
0001
0000
1000
0000
,
0001
0000
0010
0000
,
1000
0000
0001
0000
,
1000
0000
0100
0000
,
0001
0000
0010
0000
,
0010
0000
0010
0000
,
0010
0000
0100
0000
,
0100
0000
0100
0000
,
0100
0000
0001
0000
,
0001
0000
1000
0000
,
0001
0000
1000
0000
,
1000
0000
0001
0000
,
1000
0000
0010
0000
,
0000
0000
0010
0000
,
0000
0000
0100
0000
,
0000
0000
0100
0000
,
0000
0000
0001
0000
,
0000
0000
1000
0000
,
0000
0000
0000
0000
,
0000
0000
0000
0000
,
0010
0000
1000
0000
,
0001
0000
0100
0000
,
0100
0000
0010
0000
,
1000
0000
0001
0000
,
0001
0000
0010
0000
,
0100
0000
0010
0000
,
1000
0000
1000
0000
,
1000
0000
1000
0000
,
0100
0000
0001
0000
,
1000
0000
0010
0000
,
0010
0000
0100
0000
,
0001
0000
1000
0000
,
1000
0000
0100
0000
,
0010
0000
0100
0000
,
0001
0000
0001
0000
,
0001
0000
0001
0000
,
0100
0000
1000
0000
,
0100
0000
0001
0000
,
1000
0000
0000
0000
;

//--------------- dance-single - Jenro (2022) ----------------
#NOTES:
     dance-single:
     Jenro (2022):
     Easy:
     5:
     0,0,0,0,0:
0000
0000
0000
0000
,
0000
0000
0000
0000
,
0000
0000
0000
0000
,
0000
0000
0000
0000
,
0000
0000
0000
0000
,
0000
0000
0000
0000
,
0000
0000
0000
0000
,
0010
0100
0010
0001
,
0010
0100
0010
1000
,
0010
0100
0010
0001
,
0010
0100
0010
1000
,
0001
1000
0001
0010
,
0001
1000
0001
0100
,
0001
1000
0001
0010
,
0001
1000
0001
0100
,
0010
0100
0110
0001
,
0010
0100
0010
1000
,
0010
0100
0110
0001
,
0010
0100
0010
1000
,
0001
1000
1001
0010
,
0001
1000
0001
0100
,
0001
1000
1001
0010
,
0001
1000
0001
0200
,
0300
0000
0001
1000
,
0100
0001
0100
1000
,
0100
0001
0000
0001
,
0010
1000
0010
0001
,
0010
1000
0010
0100
,
1000
0010
1000
0100
,
1000
0010
0000
0010
,
0001
0100
0001
0010
,
0001
0100
0000
1000
,
1000
0100
0010
0100
,
1000
1000
0000
0001
,
0001
0010
0100
0010
,
0001
0001
0000
1000
,
0001
1000
0001
1000
,
0001
1000
0000
0001
,
1000
0010
0100
0000
,
0010
0100
0010
0001
,
0000
0001
0000
0100
,
0000
0100
0000
0100
,
0000
0100
0000
0100
,
0010
0100
0010
0001
,
0000
0001
0000
0100
,
0000
0100
0000
0100
,
0000
0100
0000
0100
,
0010
0100
0010
0001
,
0010
0100
0010
1000
,
0010
0100
0010
0001
,
0010
0100
0010
1000
,
0001
1000
0001
0010
,
0001
1000
0001
0100
,
0001
1000
0001
0010
,
0001
1000
0001
0100
,
0010
0100
0110
0001
,
0010
0100
0010
1000
,
0010
0100
0110
0001
,
0010
0100
0010
1000
,
0001
1000
1001
0010
,
0001
1000
0001
0100
,
0001
1000
1001
0010
,
0001
1000
0001
0100
,
0010
1000
0000
0100
,
0000
0001
0000
0100
,
0000
1000
0000
0000
;

//--------------- dance-single - Jenro (2022) ----------------
#NOTES:
     dance-single:
     Jenro (2022):
     Medium:
     8:
     0,0,0,0,0:
0000
0000
0000
0000
,
0000
0000
0000
0000
,
0000
0000
0000
0000
,
0000
0000
0000
0000
,
0000
0000
0000
0000
,
0000
0000
0000
0000
,
0000
0000
0000
0000
,
2002
3003
0200
0310
,
0200
0310
0200
0310
,
2002
3003
2002
3003
,
0200
0310
0200
0310
,
2000
3010
0002
0013
,
2000
3100
0002
0103
,
2002
3003
2002
3003
,
0200
0310
0200
0310
,
2002
3003
0020
0130
,
0020
0130
0020
0130
,
2002
3003
2002
3003
,
0020
0130
0020
0130
,
0002
0103
2000
3100
,
0002
0013
2000
3010
,
2002
3003
2002
3003
,
0020
0130
0020
0130
,
0000
0000
0001
1000
,
0100
0001
0100
1000
,
0100
0002
1003
0001
,
0010
1000
0010
0001
,
0010
2000
3010
0100
,
1000
0010
1000
0100
,
1000
0020
0130
0010
,
0001
0100
0001
0010
,
0001
0200
0301
1000
,
1000
0100
0010
0100
,
1000
2000
3001
0001
,
0001
0010
0100
0010
,
0001
0002
1003
1000
,
0001
1000
0001
1000
,
0001
2000
3001
0001
,
1000
0010
0200
0300
,
0010
0000
0100
0000
0010
0000
0001
1000
,
0000
0000
0001
0010
0000
0000
0100
1000
,
0000
0000
0100
1000
0000
0000
0100
1000
,
0000
0000
0100
1000
0000
0000
0200
0000
,
0310
0000
0100
0000
0010
0000
0001
1000
,
0000
0000
0001
0010
0000
0000
0100
1000
,
0000
0000
0100
1000
0000
0000
0100
1000
,
0000
0000
0100
1000
0000
0000
0100
1000
,
0010
0010
0100
0100
0010
0000
1001
0000
,
0010
0001
0100
0000
1010
0000
0100
0000
,
0010
1000
0100
0000
0120
0000
0031
0000
,
0010
0100
2000
0000
3001
0000
0100
0000
,
0001
0010
0001
0010
0001
0000
0100
0000
,
1000
0010
1000
0000
1001
0000
0100
0000
,
0001
1000
0010
0100
0001
0100
0020
0000
,
1030
0000
1000
0100
0010
0000
0001
0000
,
0010
0100
0110
0001
,
0010
0000
1000
0100
0010
0000
1000
0100
,
0010
0100
0110
0001
,
0010
0000
0100
0001
0010
0000
0100
0001
,
0010
0000
1000
0001
0110
0000
1000
0000
,
0100
0000
0001
0010
0100
0000
0001
0010
,
0100
0000
0010
0100
0110
0000
1000
0000
,
0100
0000
0010
1000
0100
0000
0010
1000
,
0100
0000
0001
1000
1000
0000
0100
0000
,
0000
0001
0000
0100
,
0000
1000
0000
0000
;

//--------------- dance-single - Jenro (2022) ----------------
#NOTES:
     dance-single:
     Jenro (2022):
     Hard:
     10:
     0,0,0,0,0:
0000
0000
0000
0000
,
0000
0000
0000
0000
,
0000
0000
0000
0000
,
0000
0000
0000
0000
,
0000
0000
0000
0000
,
0000
0000
0000
0000
,
0000
0000
0000
0000
,
0010
0100
0010
0001
1000
0000
0001
0000
,
0100
0010
1000
0001
0001
0000
1000
0000
,
0100
0010
0100
1000
0001
0000
1000
0000
,
0010
0100
0010
1000
0001
1000
0001
0000
,
1000
0100
0001
0100
1000
0000
0010
0000
,
0100
0001
0100
0010
1000
0000
0001
0000
,
0100
0010
1000
0001
1000
0100
0010
0001
,
1000
0100
0010
0100
1000
0000
0001
0000
,
0100
0010
0100
0001
1000
0000
0001
0000
,
0010
0100
1000
0001
1000
0000
1000
0000
,
0010
0100
0010
1000
0001
0000
1000
0000
,
0100
0010
0100
1000
0001
1000
0001
0000
,
1000
0010
0001
0010
1000
0000
0100
0000
,
0010
0001
0010
0100
1000
0000
0001
0000
,
0010
0100
1000
0001
1000
0010
0100
0001
,
1000
0010
0100
0001
1000
0000
0001
0000
,
1100
0000
0000
0000
0000
0100
0010
0000
,
1000
0000
0001
1000
0100
0000
0100
0000
,
0010
0001
0010
0000
0001
0000
0100
1000
,
0100
0000
0001
0000
1000
0000
0010
0100
,
0001
0000
1001
0000
1000
0000
0100
0010
,
0001
0000
1000
0000
0010
0000
0100
0001
,
0100
0000
0010
0000
1010
0000
0010
0001
,
0010
0000
1000
0000
0100
0010
0100
0000
,
0001
0110
0010
0010
,
1000
0100
0001
0010
,
0200
0301
0100
0100
,
1000
0010
0001
0100
,
0010
0011
1000
1000
,
0001
0010
0100
0001
,
1000
0001
1000
0000
0001
0000
1000
0000
,
0001
0100
0010
0001
,
0010
0000
0000
0000
0000
0000
0100
0000
0000
0000
0000
0000
0010
0000
0000
0000
0000
0000
0002
0003
0000
0000
0000
0000
,
0000
0000
0000
0000
0000
0000
0002
0003
0000
0001
0000
0000
0000
0000
0000
0000
0000
0000
0200
0300
0000
0100
0000
0000
,
0000
0000
0000
0000
0000
0000
0200
0300
0000
0100
0000
0000
0000
0000
0000
0000
0000
0000
2000
3000
0000
1000
0000
0000
,
0000
0000
0000
0000
0000
0000
2000
3000
0000
1000
0000
0000
0000
0000
0000
0000
0000
0000
0001
0000
0000
0000
0000
0000
,
0010
0000
0100
0000
0010
0000
0100
0010
,
0000
0000
0001
0100
0000
0000
0010
1000
,
0000
0000
0100
1000
0000
0000
0010
1000
,
0000
0000
0100
1000
0000
0000
0100
0010
,
0001
1000
0100
1000
1001
0000
1100
0000
,
0010
0001
0010
0000
1000
0000
0001
0000
,
0100
0001
0010
0000
0011
0000
1000
0000
,
0010
1000
0100
0000
1010
0000
0001
0000
,
1000
0001
0100
0010
1000
0000
0110
0000
,
0001
0100
0010
0000
1010
0000
0100
0000
,
0010
0100
1000
0100
1000
0010
0001
0100
,
1000
0001
0101
0010
1010
0000
1000
0000
,
0010
0100
0010
1000
0001
0000
1000
0100
,
0001
0011
0100
0011
,
0100
0000
1000
0100
0100
0000
1000
0000
,
0010
0110
0100
0001
,
1000
0001
0100
0010
1000
0000
0100
0010
,
0001
0010
0110
0100
1000
0100
0110
0010
,
0001
0000
1000
0001
0101
0000
0001
0000
,
1100
1000
0001
0100
,
0010
0000
0000
0000
1000
0000
0001
0100
,
0000
0000
0001
0100
0000
0000
0001
1000
,
0000
0000
1000
0100
0000
0000
0000
0000
;

//--------------- dance-single - Jenro (2022) ----------------
#NOTES:
     dance-single:
     Jenro (2022):
     Edit:
     10:
     0,0,0,0,0:
0000
0000
0000
0000
,
0000
0000
0000
0000
,
0000
0000
0000
0000
,
0000
0000
0000
0000
,
0000
0000
0000
0000
,
0000
0000
0000
0000
,
0000
0000
0000
0000
,
0001
1000
0100
1000
0010
0000
0100
0000
,
0001
1000
0010
1000
0100
0000
0001
0000
,
1000
0001
0010
0001
0100
0000
0010
0000
,
1000
0001
0100
0001
0010
0000
1000
0000
,
0010
0100
0010
0100
0020
0000
2030
0000
,
3001
0100
0001
0100
0002
0000
2003
0000
,
3010
1000
0001
0100
0010
0100
0001
1000
,
0100
0010
0001
1000
0200
0000
1300
0000
,
1000
0001
0100
0001
0010
0000
0100
0000
,
1000
0001
0010
0001
0100
0000
1000
0000
,
0001
1000
0010
1000
0100
0000
0010
0000
,
0001
1000
0100
1000
0010
0000
0001
0000
,
0010
0100
0010
0100
0020
0000
0032
0000
,
1003
0100
1000
0100
2000
0000
3002
0000
,
0013
0001
1000
0100
0010
0100
1000
0001
,
0100
0010
1000
0001
0200
0000
0301
0000
,
1001
0000
0100
0100
,
0100
1000
0200
0320
,
0032
0203
0310
0100
,
0100
0001
0200
0320
,
2030
3100
0110
0001
,
1001
0001
0100
0020
,
0100
0130
2000
3100
,
2000
3001
2000
0100
,
0001
3100
0011
0200
,
2300
3020
0230
0320
,
0230
0302
1003
1000
,
0001
0001
0200
0320
,
0230
0310
1010
1000
,
1100
0001
0101
2000
,
3002
2003
3020
0130
,
0001
0100
0100
0000
,
0010
1000
0001
1000
0001
0000
0100
0010
,
0000
0000
1000
0100
0000
0000
0010
0001
,
0000
0000
0100
0001
0000
0000
0010
0001
,
0000
0000
0100
0001
0000
0000
1000
0001
,
0010
0001
1000
0001
1000
0000
0100
0010
,
0000
0000
0001
0100
0000
0000
0010
1000
,
0000
0000
0100
1000
0000
0000
0010
1000
,
0000
0000
0100
1000
0000
0000
0000
0000
,
0001
1000
0100
1000
0010
0000
0110
0000
,
0001
1000
0010
0000
0101
0000
1010
0000
,
1000
0001
0010
0001
0100
0000
1100
0000
,
1000
0001
0100
0000
0101
0000
1001
0000
,
0010
0100
0010
0100
0110
0000
1100
0000
,
0001
0100
0101
0000
1002
0000
2003
0000
,
3010
1000
0001
0100
0010
0100
0001
1000
,
0100
0010
0001
1000
0200
0000
1300
0000
,
1000
0001
0100
0001
0010
0000
0100
1000
,
0100
1000
0100
0000
0001
0100
0010
0000
,
1000
0001
0100
0010
1000
0000
0100
1000
,
0100
0000
0010
0001
0100
0000
1000
0000
,
0100
0000
1000
0001
1001
0000
0100
0010
,
0100
0001
0100
1000
0100
0001
0100
1000
,
0100
0001
0010
0100
1000
0100
0010
1000
,
0001
1000
0001
0100
0010
0000
0100
0000
,
0100
0000
0001
1000
0100
0000
0010
0001
,
0000
0000
0100
1000
0000
0000
0001
0100
,
0000
0000
0010
1000
0000
0000
0000
0000
;
