#TITLE:entelecheia;
#SUBTITLE:;
#ARTIST:Rche;
#TITLETRANSLIT:;
#SUBTITLETRANSLIT:;
#ARTISTTRANSLIT:;
#GENRE:SACRED TRANCE;
#CREDIT:;
#MUSIC:entelecheia.ogg;
#BANNER:entelecheia.png;
#BACKGROUND:entelecheia-bg.png;
#CDTITLE:;
#SAMPLESTART:21.727;
#SAMPLELENGTH:15.000;
#SELECTABLE:YES;
#OFFSET:0.314;
#BPMS:0.000=185.000;
#STOPS:;
#BGCHANGES:-2.250=entelecheia.mp4=1.000=0=0=1,
999.000=entelecheia-bg.png=1.000=0=0=1,
99999.000=-nosongbg-=1.000=0=0=0=StretchNoLoop====
;
#FGCHANGES:;

//--------------- dance-single - forcednature ----------------
#NOTES:
     dance-single:
     forcednature:
     Beginner:
     4:
     0,0,0,0,0:
0000
0000
0000
0000
,
0000
0000
0000
0000
,
0000
0000
0000
0000
,
0000
0000
0000
0000
,
0000
0000
0000
0000
,
1000
0000
0000
0000
,
0001
0000
0000
0000
,
0010
0000
0000
0000
,
0100
0000
0000
0000
,
1001
0000
0000
0000
,
1000
0000
0000
0000
,
0001
0000
0000
0000
,
0100
0000
0000
0000
,
0010
0000
0000
0000
,
1000
0000
0000
0000
,
0001
0000
0001
0000
,
1000
0000
1000
0000
,
1001
0000
0000
0000
,
0001
0000
0000
0000
,
0100
0000
0000
0000
,
0010
0000
0000
0000
,
1000
0000
0000
0000
,
0100
0000
0000
0000
,
0010
0000
0000
0000
,
0001
0000
0000
0000
,
1001
0000
0000
0000
,
1000
0000
0000
0000
,
0010
0000
0000
0000
,
0100
0000
0000
0000
,
0001
0000
0000
0000
,
0010
0000
0000
0000
,
0001
0000
0000
0000
,
0100
0000
0100
0000
,
0100
0000
0000
0000
,
0010
0000
0000
0000
,
1000
0000
0000
0000
,
0100
0000
0000
0000
,
1000
0000
0000
0000
,
0010
0000
0000
0000
,
0100
0000
0000
0000
,
0001
0000
0001
0000
,
0001
0000
0000
0000
,
1000
0000
0000
0000
,
0100
0000
0000
0000
,
1000
0000
0000
0000
,
0010
0000
0000
0000
,
0100
0000
0000
0000
,
0001
0000
0000
0000
,
0010
0000
0010
0000
,
0200
0000
0000
0000
,
0000
0000
0000
0000
,
0000
0000
0000
0000
,
0000
0000
0300
0000
,
1000
0000
0000
0000
,
0001
0000
0000
0000
,
0100
0000
0000
0000
,
0010
0000
0000
0000
,
1000
0000
1000
0000
,
0001
0000
0001
0000
,
0010
0000
0010
0000
,
0100
0000
1000
0000
,
0001
0000
0001
0000
,
0100
0000
0100
0000
,
0010
0000
0010
0000
,
1000
0000
0001
0000
,
1000
0100
1000
0100
,
0010
0001
0010
0001
,
1000
0010
1000
0010
,
0100
0001
0100
0001
,
0010
0100
0010
0100
,
1000
0001
1000
0001
,
1000
0100
1000
0100
,
0010
0001
0010
0001
,
0100
0000
0000
0000
,
0001
0000
0000
0000
,
1000
0000
0000
0000
,
0100
0000
0000
0000
,
0010
0000
0000
0000
,
0000
0000
0001
0000
;

//--------------- dance-single - forcednature ----------------
#NOTES:
     dance-single:
     forcednature:
     Easy:
     8:
     0,0,0,0,0:
0000
0000
0000
0000
,
0000
0000
0000
0000
,
0000
0000
0000
0000
,
0000
0000
0000
0000
,
0000
0000
0000
0000
,
0002
0000
0000
0000
,
0023
0000
0000
0000
,
0230
0000
0000
0000
,
2300
0000
0000
3000
,
1010
0010
0100
0100
,
0001
0001
1000
1000
,
0001
0001
0010
0010
,
0100
0100
1000
1000
,
0001
0100
0010
1000
,
0100
1000
0010
0100
,
0001
0010
0010
0100
,
0100
0000
1000
0000
0001
1000
0001
1000
,
0020
0000
0000
0030
,
0200
0000
0000
0300
,
0002
0000
0000
0003
,
2000
0000
0000
3000
,
0100
0010
0002
0003
,
0100
0010
2000
3000
,
0001
1000
0010
0100
,
0001
0001
1000
1000
,
0110
0001
1000
0100
,
1000
0010
0100
0001
,
0010
0100
0010
0001
,
1000
0010
1000
0100
,
0010
0000
0100
0000
1000
0001
1000
0000
,
0010
0000
0100
0000
0001
1000
0001
0000
,
0020
1000
0100
0031
,
0010
0100
0010
0000
0001
1000
0001
0000
,
1000
0000
0001
0100
0000
0001
0100
0000
,
0010
1000
0000
0010
1000
0000
1000
0000
,
0001
0000
1000
0100
0000
1000
0100
0000
,
0010
0001
0000
0010
0001
0000
0001
0000
,
1000
0000
0001
0010
0000
0001
0010
0000
,
0100
1000
0000
0100
1000
0000
1000
0000
,
0001
0000
1000
0010
0000
1000
0010
0000
,
0100
0001
0000
0100
0001
0000
0001
0000
,
1001
2000
3100
2000
,
3010
0000
2000
0000
3001
0000
1000
0001
,
1000
0002
0103
0002
,
0013
0000
0002
0000
1003
0000
0001
1000
,
0001
2000
3010
2000
,
3100
0000
2000
0000
3001
0000
1000
0001
,
1000
0002
0013
0002
,
0103
0001
0100
0000
0010
0000
0110
0000
,
2001
0000
3200
0000
,
0320
0000
0032
0000
,
0203
0000
0320
0000
,
2030
0000
3002
0000
,
0023
0030
0100
1000
,
0020
0030
0100
0001
,
0020
0030
0100
0010
,
1001
0000
0001
0000
0100
0001
1000
0000
,
0000
0000
0100
0000
0000
1000
0000
0000
0100
0000
0000
1000
0000
0000
0100
0000
,
0000
0000
0010
0000
0000
0001
0000
0000
0010
0000
0000
0001
0000
0000
0010
0000
,
0000
0000
0001
0000
0000
0100
0000
0000
0001
0000
0000
0100
0000
0000
0001
0000
,
0000
0000
1000
0000
0000
0010
0000
0000
0100
0000
0000
0001
0000
0000
1000
0000
,
0000
0000
0001
0000
0000
0010
0000
0000
0100
0000
0000
0010
0000
0000
0001
0000
,
0000
0000
1000
0000
0000
0010
0000
0000
0100
0000
0000
0010
0000
0000
1000
0000
,
0000
0000
0001
0000
0000
1000
0000
0000
0100
0000
0000
1000
0000
0000
0001
0000
,
0000
0000
0100
0000
0000
0010
0000
0000
1000
0000
0000
0001
0000
0000
0100
0000
,
0000
0000
0002
0000
0000
1000
0000
0000
0100
0000
0000
1000
0000
0000
0103
0000
,
0000
0000
2000
0000
0000
0001
0000
0000
0100
0000
0000
0001
0000
0000
3100
0000
,
0000
0000
0020
0000
0000
1000
0000
0000
0100
0000
0000
1000
0000
0000
0130
0000
,
0000
0000
0020
0000
0000
2030
0000
0000
3002
0000
0000
2003
0000
0000
3200
0000
,
0300
0000
2000
0000
0000
0001
0000
0000
0010
0000
0000
0001
0000
0000
3010
0000
,
0000
0000
0002
0000
0000
1000
0000
0000
0010
0000
0000
1000
0000
0000
0013
0000
,
0000
0000
0200
0000
0000
0001
0000
0000
0010
0000
0000
0001
0000
0000
0310
0000
,
0000
0000
0200
0000
0000
0302
0000
0000
2003
0000
0000
3002
0000
0000
0023
0000
,
0230
0000
0000
0000
,
2300
0000
3002
0000
,
0203
0000
0320
0000
,
2030
0000
3002
0000
,
2003
0000
3200
0000
,
0320
0000
0032
0000
,
0000
0000
0000
0000
,
0000
0000
0000
0000
,
0000
0000
0000
0000
0000
0000
0000
0003
;

//--------------- dance-single - forcednature ----------------
#NOTES:
     dance-single:
     forcednature:
     Medium:
     12:
     0,0,0,0,0:
0000
0000
0000
0000
,
0000
0000
0000
0000
,
0000
0000
0000
0000
,
0000
0000
0000
0000
,
0000
0000
0000
0000
,
2000
0000
0000
0000
,
3020
0000
0000
0000
,
0230
0000
0000
0000
,
0302
0000
0000
0003
,
1001
1000
0100
1000
,
0010
1000
0001
0010
,
0001
0100
0001
1000
,
0100
0010
0100
1000
,
0001
0100
0010
0100
,
0001
1000
0100
0010
,
0001
0000
0100
0001
0100
0010
1000
0010
,
1000
0100
1000
0001
0010
0001
1000
1000
,
0020
0000
0000
0030
,
0200
0000
0000
0300
,
0002
0000
0000
0003
,
2000
0000
0000
3000
,
0100
0000
0010
0000
0001
1000
0001
0000
,
0100
0000
0010
0000
1000
0001
1000
0000
,
0010
0000
0100
0001
0010
0000
0100
1000
,
0001
0100
0010
1000
,
1100
0000
1000
0010
0100
0000
0001
0000
,
1000
0100
0010
0000
0001
0010
0100
0000
,
1000
0000
0100
1000
0010
0000
0100
0001
,
1000
0001
0010
0000
0001
1000
0010
0000
,
1000
0100
1000
0100
0010
0001
0010
0000
,
0001
0100
0001
0100
0010
0000
1000
0000
,
0001
0000
0000
0010
0000
0000
0100
0000
1000
0000
0001
0000
1000
0000
0000
0000
,
0010
0010
0010
0000
0100
0001
1000
0001
,
0010
0000
0100
0001
0000
0100
1000
0000
,
0010
0001
0000
0010
1000
0000
1001
0000
,
0110
0000
0001
0010
0000
1000
0010
0000
,
0001
0100
0000
1000
0100
0000
0110
0000
,
1001
0000
1000
0100
0000
1000
0010
0000
,
0001
0010
0000
0100
0001
0000
0011
0000
,
1100
0000
0001
0010
0000
1000
0010
0000
,
0100
1000
0000
0001
0100
0000
0110
0000
,
1001
0000
1000
0100
0010
0100
1000
0000
,
0001
0100
0010
0100
0001
0000
0010
0000
,
1001
0000
0001
0010
0100
0010
0001
0000
,
1000
0010
0100
0010
1000
0000
0100
0000
,
1001
0000
1000
0100
0001
0100
1000
0000
,
0001
0100
1000
0100
0001
0000
0010
0000
,
0110
0000
0100
1000
0010
1000
0001
0000
,
0100
0000
0001
0000
1000
0000
0001
0000
0010
0000
0000
0010
0100
0000
1000
0000
,
0002
0203
0302
2003
,
3020
2030
3200
0000
,
0320
0032
0203
0302
,
0023
0230
2300
0000
,
3010
0000
0100
0001
0100
0000
0010
0000
,
1000
0000
0100
1000
0100
0000
0010
0000
,
0001
0000
1000
0001
1000
0000
0100
0000
,
0110
0000
0001
0000
0100
0010
2000
0000
,
3001
0000
0200
0000
0000
0302
0000
0000
2003
0000
0000
3002
0000
0000
0023
0000
,
0030
0000
0200
0000
0000
2300
0000
0000
3002
0000
0000
2003
0000
0000
3020
0000
,
0030
0000
0200
0000
0000
2300
0000
0000
3200
0000
0000
0302
0000
0000
2003
0000
,
3000
0000
0200
0000
0000
0001
0000
0000
0010
0000
0000
1000
0000
0000
0310
0000
,
0000
0000
0100
0000
0000
1100
0000
0000
0010
0000
0000
0011
0000
0000
1000
0000
,
0000
0000
0001
0000
0000
0101
0000
0000
1000
0000
0000
1010
0000
0000
0001
0000
,
0000
0000
0010
0000
0000
0110
0000
0000
1000
0000
0000
1010
0000
0000
0001
0000
,
0010
0010
0010
0000
0100
1000
0010
1000
,
0001
0000
0100
0000
0010
1000
0000
0010
1000
0000
0010
1000
0000
0010
1000
0000
,
0100
0000
1000
0000
0001
0010
0000
0001
0010
0000
0001
0010
0000
0001
0010
0000
,
0100
0000
0010
0000
0001
1000
0000
0001
1000
0000
0001
1000
0000
0001
1000
0000
,
0010
0000
0200
0000
0000
1000
0000
0000
0010
0000
0000
0001
0000
0000
0310
0000
,
0100
0000
0001
0000
1000
0100
0000
1000
0001
0000
1000
0100
0000
1000
0001
0000
,
0100
0000
0010
0000
1000
0001
0000
0100
0001
0000
1000
0001
0000
0100
0001
0000
,
0010
0000
0100
0000
1000
0001
0000
1000
0100
0000
1000
0001
0000
0100
0001
0000
,
1000
1000
0001
0001
0010
0100
1000
0001
,
0200
0000
0000
0000
,
0320
0000
2030
0000
,
3002
0000
2003
0000
,
3200
0000
0320
0000
,
0032
0000
0203
0000
,
0320
0000
2030
0000
,
0000
0000
0000
0000
,
0000
0000
0000
0000
,
0000
0000
0000
0000
0000
0000
0000
3000
;

//--------------- dance-single - forcednature ----------------
#NOTES:
     dance-single:
     forcednature:
     Hard:
     14:
     0,0,0,0,0:
0000
0000
0000
0000
,
0000
0000
0000
0000
,
0000
0000
0000
0000
,
0000
0000
0000
0000
,
0000
0000
0000
0000
,
0002
0000
0000
0000
,
0203
0000
0000
0000
,
0320
0000
0000
0000
,
2030
0000
0000
3000
,
1001
0001
0010
0010
,
0100
0100
1000
1000
,
0010
0010
0100
0100
,
0001
0001
1000
1000
,
0001
0100
0010
1000
,
0001
1000
0100
0010
,
0001
0000
1000
0010
1000
0010
0100
0001
,
0100
0000
0001
0000
1000
0000
0100
0000
0010
0000
0001
0000
1000
0001
1000
0001
,
0020
0000
0000
0030
,
0002
0000
0000
0003
,
0200
0000
0000
0320
,
2030
0000
0000
3000
,
1000
0000
0100
0000
0010
0000
0001
0000
1000
0100
1000
0000
0001
0000
0000
0000
,
0001
0000
0100
0000
0010
0000
1000
0000
0001
0100
0001
0000
1000
0000
0000
0000
,
1000
0000
0100
0000
1000
0000
0001
0010
0001
0000
0100
0000
0001
0000
1000
0010
,
1000
0001
0100
0100
,
0110
0000
0010
1000
0100
0001
0100
1000
,
0001
0100
0010
1000
0001
0010
1000
0000
,
0010
0100
0010
0001
1000
0001
0100
1000
,
0100
0001
1000
0001
0010
0100
1000
0000
,
0001
0100
1000
0100
0001
1000
0010
0000
,
1000
0100
0001
0100
1000
0001
0010
0000
,
0001
0100
0000
0001
0100
0000
0010
0000
1000
0000
0001
0000
0010
0000
0001
0000
,
0100
0000
0100
0000
0100
0000
0000
0000
0010
0000
1000
0001
1000
0000
0100
0000
,
0010
0000
0001
0100
1000
0100
0001
0010
,
0001
0100
1000
0100
0001
0010
0100
1000
,
0010
0000
1000
0100
0001
0100
1000
0010
,
1000
0000
0100
0000
0001
0000
0100
0000
1000
0000
0010
0000
0100
0000
0000
0100
,
0001
0000
0100
1000
0100
0001
0010
0001
,
0100
1000
0100
0001
0010
0001
0100
0010
,
1000
0000
0001
0010
1000
0010
0001
0100
,
0010
0000
0001
0000
0010
0000
1000
0000
0001
0000
1000
0000
0100
0000
0000
0100
,
0010
0000
0001
0100
1000
0100
0001
0010
,
1000
0000
0010
0000
0001
0000
0100
0000
1000
0000
0100
0000
0001
0000
1000
0010
,
1000
0000
1000
0100
0001
0100
1000
0010
,
0001
0000
0010
0000
1000
0000
0100
0000
0001
0000
0100
0000
1000
0000
0001
0010
,
0001
0000
0001
0100
1000
0001
0010
1000
,
0001
0000
0100
0000
1000
0000
0001
0000
0010
0000
1000
0000
0001
0000
1000
0010
,
1000
0000
1000
0100
0001
1000
0010
0001
,
1000
0000
1000
0000
0001
0000
0001
0000
0100
0000
0000
0100
0010
0000
1000
0000
,
1001
0002
0023
0230
,
2300
3020
0230
0000
,
0302
2003
3200
2300
,
3020
0230
0302
0000
,
0013
0000
0000
0000
0100
0000
0100
0000
1000
0000
0000
0001
0000
0000
1000
0000
,
0010
0000
0000
0000
0100
0000
0100
0000
0001
0000
0000
0001
1000
0000
0001
0000
,
0010
0000
0000
0000
0100
0000
0100
0000
1000
0000
0000
1000
0010
0000
0100
0000
,
0001
0000
0010
0100
1000
0000
0020
0000
,
1030
0000
0001
0000
1000
0010
0000
1000
0001
0000
1000
0010
0000
1000
0001
0000
,
0010
0000
0100
0000
1000
0001
0000
0010
0001
0000
1000
0001
0000
0010
0001
0000
,
0100
0000
0010
0000
1000
0100
0000
0010
0100
0000
1000
0100
0000
0010
0100
0000
,
0010
0000
0001
0000
0100
0001
0000
0001
1000
0000
1000
0010
0000
0010
0100
0000
,
0001
0000
0010
0000
0100
1000
0000
0100
0010
0000
0100
1000
0000
0100
0010
0000
,
0001
0000
1000
0000
0001
0100
0000
0010
0100
0000
0001
0100
0000
0010
0100
0000
,
0001
0000
1000
0000
0100
0010
0000
0001
0010
0000
0100
1000
0000
0001
1000
0000
,
0010
0000
0010
0000
0010
0000
0000
0000
1000
0000
0001
0000
1000
0001
1000
0001
,
0010
0000
0001
0000
1000
0010
0000
0100
0001
0000
1000
0010
0000
0100
0001
0000
,
1000
0000
0001
0000
1000
0100
0000
0010
0001
0000
1000
0100
0000
0010
0001
0000
,
0100
0000
0010
0000
0100
0001
0000
1000
0100
0000
0010
0001
0000
1000
0010
0000
,
0100
0000
0001
0000
1000
0100
0000
0100
0010
0000
0010
0001
0000
0001
1000
0000
,
0010
0000
0100
0000
0001
0010
0000
0001
0100
0000
0010
1000
0000
0100
1000
0000
,
0001
0000
1000
0000
0100
0010
0000
0001
0100
0000
0010
1000
0000
0100
0010
0000
,
0001
0000
1000
0000
0010
0100
0000
0001
0010
0000
0100
1000
0000
0010
0100
0000
,
0001
1000
0001
0000
1000
0100
0000
0010
0001
0000
1000
0010
0000
0100
0001
0000
,
2002
0000
0000
3003
,
2000
0000
3002
0000
,
0203
0000
0320
0000
,
2030
0000
3200
0000
,
0320
0000
0032
0000
,
2003
0000
3020
0000
,
0000
0000
0000
0000
,
0000
0000
0000
0000
,
0000
0000
0000
0000
0000
0000
0000
0030
;

//--------------- dance-single - forcednature ----------------
#NOTES:
     dance-single:
     forcednature:
     Challenge:
     16:
     0,0,0,0,0:
0000
0000
0000
0000
,
0000
0000
0000
0000
,
0000
0000
0000
0000
,
0000
0000
0000
0000
,
0000
0000
0000
0000
,
2200
0000
0000
3300
,
0022
0000
0000
0033
,
0202
0000
0000
0303
,
2020
0000
0000
3030
,
1001
0000
0001
1000
0010
0000
0010
0000
,
0100
0001
0010
0000
0100
0000
1000
0001
,
0100
0000
0010
0000
1000
0001
0010
0000
,
0100
0000
1000
0001
0100
0000
0010
0000
,
1000
0000
0001
0010
0100
0000
1000
0000
,
0001
0100
0010
0000
1000
0000
0100
0010
,
0001
0000
1000
0100
1000
0010
0100
0001
,
0010
0000
0001
0000
0100
0000
0010
0000
1000
0000
0001
0000
0010
0100
1000
0001
,
0010
0000
0100
1000
0010
0100
0010
0000
,
2000
0000
0100
0100
0000
0001
3001
0000
,
1000
0100
0010
0001
0100
0010
1000
0000
,
0002
0000
0010
0010
0000
1000
1003
0000
,
0001
0000
0100
0000
0010
0000
1000
0000
0010
0100
0001
1000
0010
0000
0000
0000
,
1000
0000
0100
0000
0010
0000
0001
0000
0010
0100
1000
0001
0010
0000
0000
0000
,
0001
0000
0100
0000
0010
0000
1000
0001
1000
0000
0100
0000
0010
0000
0001
1000
,
0001
0100
0010
0100
1000
0000
1000
0000
,
0110
0000
0000
0000
0001
0000
1000
0000
0100
0010
0001
0010
0100
0000
1000
0000
,
0001
0100
0001
0100
0010
0000
1000
0000
0001
0000
1000
0100
0010
0000
0000
0000
,
0001
0000
1000
0000
0010
0100
0001
0000
1000
0000
0001
0010
0100
0000
1000
0000
,
0100
0010
0001
0000
1000
0000
0010
0100
0000
0100
0001
1000
0001
0010
0100
1000
,
0001
0000
0010
0000
0001
0000
0100
0001
1000
0010
1000
0000
0001
0010
0100
1000
,
0100
0000
0010
0001
1000
0001
0100
0000
0010
1000
0010
1000
0001
0100
0001
0000
,
1000
0100
0000
1000
0010
0000
0100
0001
1000
0001
0010
0000
0100
1000
0100
0010
,
0001
0000
0001
0000
0011
0000
0000
0000
1000
0000
0001
0100
0001
0100
0001
0100
,
0010
1000
0100
0001
1000
0010
0001
1000
,
0100
0000
0001
0000
1000
0000
0010
0000
0001
0000
0100
0000
0001
0000
1000
0010
,
0100
0001
1000
0010
0001
1000
0100
0001
,
1000
0000
0010
0000
0001
0000
1000
0000
0100
0000
0001
0000
0010
0000
0010
0100
,
1000
0001
0010
0100
0001
1000
0010
0100
,
0001
0000
1000
0000
0010
0000
0100
0000
1000
0000
0001
0000
0100
0000
0010
1000
,
0001
0100
0010
0001
1000
0100
0010
0001
,
1000
0000
0100
0000
0010
0000
0001
0000
1000
0000
0100
0000
0001
0000
0001
0010
,
0100
0000
0000
0000
0010
0001
1000
0000
0001
0000
0100
0000
0010
1000
0001
0000
,
1000
0000
0100
0000
0010
0001
1000
0000
0001
0000
0100
0000
0010
0000
1000
0001
,
0010
0000
0100
0000
1000
0001
0100
0000
0010
0000
0100
0000
0001
1000
0100
0000
,
0010
0000
0100
0000
1000
0001
0100
0000
0010
0000
0100
0000
0001
0000
0001
1000
,
0100
0000
0010
0000
0001
1000
0010
0000
0100
0000
0010
0000
1000
0001
0010
0000
,
0100
0000
0010
0000
0001
1000
0010
0000
0100
0000
0010
0000
1000
0000
1000
0100
,
0010
0000
0001
0000
0100
1000
0100
0000
0010
0000
1000
0000
0100
0001
0100
0000
,
0010
0000
1000
0000
0010
0000
0001
0000
0010
0000
0010
0100
1000
0000
0010
0000
,
0210
0000
0302
0000
2003
0000
3200
0320
,
0032
2003
3020
0030
,
0202
0303
0220
0330
2020
3030
2002
3003
,
2000
3200
0320
0000
,
0031
0000
0000
0000
0010
0001
1000
0001
0100
0000
0000
0010
1000
0000
0001
0000
,
0100
0000
0000
0000
0010
1000
0001
1000
0100
0000
0000
0010
0001
0000
1000
0000
,
0100
0000
0000
0000
0010
0001
1000
0010
0100
0000
0000
0001
1000
0000
0100
0000
,
0110
0000
0000
0000
1000
0001
0100
0010
1000
0000
0001
0000
0010
0100
1000
0001
,
0100
0010
1000
0000
0001
0100
0000
0010
0100
0000
1000
0100
0000
0010
0100
0000
,
0001
1000
0100
0000
0010
1000
0000
0010
0100
0000
0010
0001
0000
1000
0001
0000
,
0100
0001
1000
0000
0100
0010
0000
0100
0001
0000
0100
1000
0000
0100
0010
0000
,
0001
1000
0010
0000
0100
1000
0000
1000
0100
0000
0100
0001
0000
0001
0010
0000
,
0100
1000
0001
0000
0100
0010
0000
0001
0010
0000
1000
0001
0000
1000
0100
0000
,
0010
0001
1000
0000
0100
0001
0000
0100
1000
0000
0010
0100
0000
0001
1000
0000
,
0100
0010
0001
0000
0100
1000
0000
0100
0001
0000
0010
0100
0000
0010
0001
0000
,
1000
0000
0001
0000
1001
0000
0000
0000
1000
0000
0010
0000
0100
0001
0100
0001
,
1000
0100
0010
0000
0001
1000
0010
0100
0001
0000
0010
0100
1000
0010
0100
0000
,
0001
0010
0100
0000
0010
0001
1000
0010
0100
0000
0001
1000
0100
0010
0001
0000
,
0100
0010
1000
0000
0001
0010
0100
1000
0001
0000
0100
0010
1000
0100
0010
0000
,
0001
1000
0010
0000
0100
1000
0000
1000
0001
0000
0001
0010
0000
0010
1000
0000
,
0001
0010
0100
0000
0010
0001
1000
0010
0100
0000
1000
0100
0010
0100
0001
0000
,
1000
0100
0010
0000
0100
1000
0001
1000
0010
0000
0001
0010
0100
0010
1000
0000
,
0001
0010
0100
0000
0010
0001
0100
0010
1000
0000
0001
0100
0010
0100
1000
0000
,
0100
0010
1000
0100
0010
0001
0100
0010
1000
0100
0010
0001
0100
0010
1000
0001
,
0020
0000
0000
0000
,
0230
0000
2300
0000
,
3002
0000
0203
0000
,
0320
0000
2030
0000
,
3002
0000
0023
0000
,
0230
0000
2300
0000
,
0000
0000
0000
0000
,
0000
0000
0000
0000
,
0000
0000
0000
0000
0000
0000
0000
3000
;

//--------------- dance-double - forcednature ----------------
#NOTES:
     dance-double:
     forcednature:
     Easy:
     9:
     0,0,0,0,0:
00000000
00000000
00000000
00000000
,
00000000
00000000
00000000
00000000
,
00000000
00000000
00000000
00000000
,
00000000
00000000
00000000
00000000
,
00000000
00000000
00000000
00000000
,
00002000
00000000
00000000
00000000
,
00023000
00000000
00000000
00000000
,
00230000
00000000
00000000
00000000
,
02300000
00000000
00000000
03000000
,
10010000
00010000
00100000
00100000
,
00001000
00001000
00010000
00010000
,
00000010
00000010
00001000
00001000
,
00000001
00000001
00000010
00000010
,
00000100
00010000
00001000
01000000
,
00010000
00100000
00001000
00010000
,
00000010
00001000
00001000
00000100
,
00000100
00000000
00010000
00000000
00001000
01000000
00001000
01000000
,
00020000
00000000
00000000
00030000
,
20000000
00000000
00000000
30000000
,
02000000
00000000
00000000
03200000
,
00320000
00000000
00000000
00030000
,
01000000
00001000
00020000
00030000
,
00000100
00010000
00002000
00003000
,
00100000
00001000
00010000
00000010
,
00001000
00001000
00000001
00000001
,
00000110
00001000
00000100
00010000
,
00001000
01000000
00010000
00100000
,
01000000
10000000
01000000
00100000
,
00001000
00010000
00000010
00001000
,
00000010
00000000
00000100
00000000
00000001
00001000
00000001
00000000
,
00000010
00000000
00000100
00000000
00010000
00001000
00010000
00000000
,
00200000
10000000
01000000
00310000
,
00100000
01000000
00100000
00000000
10000000
00000000
00010000
00000000
,
10010000
00000000
10000000
01000000
00000000
01000000
00100000
00000000
,
00100000
00001000
00000000
00001000
00010000
00000000
00000010
00000000
,
00001000
00000000
00000001
00000100
00000000
00000100
00000010
00000000
,
00000010
00010000
00000000
00010000
00001000
00000000
00100000
00000000
,
00010000
00000000
10000000
00100000
00000000
00100000
01000000
00000000
,
01000000
00001000
00000000
00001000
00010000
00000000
00000100
00000000
,
00001000
00000000
00000001
00000010
00000000
00000010
00000100
00000000
,
00000100
00010000
00000000
00010000
00001000
00000000
01000000
00000000
,
01100000
00200000
10300000
00200000
,
00310000
00200000
10300000
00100000
,
01000000
00002000
00103000
00002000
,
01003000
00002000
00103000
00001000
,
00010000
00000200
00001300
00000200
,
00000301
00000200
00001300
00000100
,
00000010
00000002
00000103
00000002
,
00000013
00000100
00010000
00001000
,
00012000
00000000
02003000
00000000
,
03020000
00230000
02300000
00000000
,
23000000
00000000
30020000
00000000
,
02030000
03002000
00023000
00000000
,
00030100
00010000
00001000
01000000
,
00010000
00100000
00001000
00010000
,
00000010
00001000
00000100
00010000
,
00011000
00000000
00001000
00000000
01000000
00010000
01000000
00000000
,
00000000
00000000
00100000
00000000
00000000
10000000
00000000
00000000
00100000
00000000
00000000
10000000
00000000
00000000
00100000
00000000
,
00000000
00000000
01000000
00000000
00000000
00010000
00000000
00000000
01000000
00000000
00000000
00010000
00000000
00000000
01000000
00000000
,
00000000
00000000
00001000
00000000
00000000
00010000
00000000
00000000
00001000
00000000
00000000
00010000
00000000
00000000
00001000
00000000
,
00000000
00000000
00000100
00000000
00000000
00000001
00000000
00000000
00001000
00000000
00000000
00000001
00000000
00000000
00000010
00000000
,
00000000
00000000
00000100
00000000
00000000
00001000
00000000
00000000
00000100
00000000
00000000
00001000
00000000
00000000
00000100
00000000
,
00000000
00000000
00010000
00000000
00000000
00001000
00000000
00000000
00010000
00000000
00000000
00001000
00000000
00000000
00010000
00000000
,
00000000
00000000
00100000
00000000
00000000
01000000
00000000
00000000
00100000
00000000
00000000
01000000
00000000
00000000
00100000
00000000
,
00000000
00000000
10000000
00000000
00000000
00010000
00000000
00000000
00100000
00000000
00000000
00001000
00000000
00000000
00010000
00000000
,
00000000
00000000
00002000
00000000
00000000
00010000
00000000
00000000
01000000
00000000
00000000
00010000
00000000
00000000
01003000
00000000
,
00000000
00000000
00020000
00000000
00000000
00001000
00000000
00000000
00000100
00000000
00000000
00001000
00000000
00000000
00030100
00000000
,
00000000
00000000
00002000
00000000
00000000
00010000
00000000
00000000
00100000
00000000
00000000
00010000
00000000
00000000
00103000
00000000
,
00000000
00000000
00002000
00000000
00000000
00023000
00000000
00000000
00030020
00000000
00000000
00002030
00000000
00000000
00003200
00000000
,
00000300
00000000
00020000
00000000
00000000
00000100
00000000
00000000
00001000
00000000
00000000
00000010
00000000
00000000
00031000
00000000
,
00000000
00000000
00002000
00000000
00000000
01000000
00000000
00000000
00010000
00000000
00000000
00100000
00000000
00000000
00013000
00000000
,
00000000
00000000
00020000
00000000
00000000
00000010
00000000
00000000
00001000
00000000
00000000
00000100
00000000
00000000
00031000
00000000
,
00000000
00000000
00002000
00000000
00000000
02003000
00000000
00000000
03020000
00000000
00000000
00230000
00000000
00000000
02300000
00000000
,
23000000
00000000
00000000
00000000
,
30200000
00000000
02300000
00000000
,
03002000
00000000
00023000
00000000
,
00030200
00000000
00002300
00000000
,
00003020
00000000
00020030
00000000
,
00032000
00000000
00003020
00000000
,
00000000
00000000
00000000
00000000
,
00000000
00000000
00000000
00000000
,
00000000
00000000
00000000
00000000
00000000
00000000
00000000
00000030
;

//--------------- dance-double - forcednature ----------------
#NOTES:
     dance-double:
     forcednature:
     Medium:
     13:
     0,0,0,0,0:
00000000
00000000
00000000
00000000
,
00000000
00000000
00000000
00000000
,
00000000
00000000
00000000
00000000
,
00000000
00000000
00000000
00000000
,
00000000
00000000
00000000
00000000
,
00002000
00000000
00000000
00000000
,
00023000
00000000
00000000
00000000
,
00030200
00000000
00000000
00000000
,
00002300
00000000
00000000
00003000
,
00001001
00000001
00000100
00000010
,
00001000
00000100
00010000
00001000
,
01000000
00010000
00100000
01000000
,
10000000
00010000
01000000
00001000
,
00010000
00000100
00001000
00000001
,
00000100
00001000
00010000
00100000
,
01000000
00000000
00010000
10000000
00010000
00100000
01000000
00100000
,
00001000
00010000
00000010
00000100
00000010
00010000
00001000
00001000
,
00000020
00000000
00000000
00000030
,
00000002
00000000
00000000
00000003
,
00000200
00000000
00000000
00002300
,
00023000
00000000
00000000
00030000
,
00100000
00000000
10000000
00000000
00010000
00100000
00010000
00000000
,
01000000
00000000
00001000
00000000
00010000
00000100
00010000
00000000
,
00001000
00000000
00000100
00000010
00000100
00000000
00000001
00000010
,
00000100
00010000
00001000
00001000
,
00011000
00000000
00010000
00100000
01000000
00000000
00010000
00000000
,
10000000
01000000
00010000
00000000
00001000
00010000
01000000
00000000
,
00100000
00000000
00001000
00010000
00000010
00000000
00000100
00001000
,
00000100
00000001
00000010
00000000
00000100
00010000
00001000
00000000
,
01000000
00010000
00100000
00001000
00010000
00000010
00001000
00000000
,
00000100
00001000
00000010
00010000
00001000
00100000
00010000
00000000
,
10000000
00000000
00000000
01000000
00000000
00000000
00010000
00000000
00001000
00000000
00010000
00000000
00001000
00000000
00000000
00000000
,
00000010
00000010
00000010
00000000
00000100
00001000
00000001
00001000
,
00000010
00000000
00000100
00001000
00000000
00010000
01000000
00000000
,
00100000
00010000
00000000
00001000
00000010
00000000
00000110
00000000
,
00001001
00000000
00000001
00000010
00000000
00001000
00010000
00000000
,
00100000
01000000
00000000
00001000
00010000
00000000
01100000
00000000
,
10010000
00000000
10000000
01000000
00000000
00100000
00001000
00000000
,
00010000
00100000
00000000
00001000
00000010
00000000
00000110
00000000
,
00001001
00000000
00000001
00000100
00000000
00000010
00010000
00000000
,
00001000
00000010
00000000
00010000
00100000
00000000
01100000
00000000
,
10010000
00000000
10000000
01000000
00100000
00001000
00010000
00000000
,
00000010
00010000
00001000
00000010
00000100
00000000
00001000
00000000
,
00001001
00000000
00000001
00000100
00001000
00010000
00001000
00000000
,
01000000
00010000
00100000
00001000
00010000
00000000
00100000
00000000
,
10010000
00000000
10000000
01000000
00010000
00001000
00000010
00000000
,
00000001
00000100
00001000
00010000
00100000
00000000
01000000
00000000
,
01100000
00000000
00100000
10000000
01000000
00010000
00001000
00000000
,
01000000
00000000
00001000
00000000
00010000
00000000
00001000
00000000
00000010
00000000
00000000
00000010
00000100
00000000
00001000
00000000
,
00000002
00000203
00002300
00023000
,
00230000
20300000
30020000
00000000
,
20030000
32000000
03020000
00032000
,
00003020
00000032
00002003
00000000
,
00003010
00000000
00001000
00000100
00001000
00000000
00010000
00000000
,
00100000
00000000
00010000
01000000
00010000
00000000
00001000
00000000
,
00000010
00000000
00001000
00000100
00001000
00000000
00010000
00000000
,
01100000
00000000
10000000
00000000
00010000
00100000
02000000
00000000
,
03010000
00000000
00002000
00000000
00000000
02003000
00000000
00000000
03020000
00000000
00000000
00230000
00000000
00000000
00302000
00000000
,
00003000
00000000
00020000
00000000
00000000
00030020
00000000
00000000
00002030
00000000
00000000
00003200
00000000
00000000
00000320
00000000
,
00000030
00000000
00000002
00000000
00000000
00000203
00000000
00000000
00002300
00000000
00000000
00023000
00000000
00000000
00032000
00000000
,
00003000
00000000
00200000
00000000
00000000
00010000
00000000
00000000
01000000
00000000
00000000
10000000
00000000
00000000
01300000
00000000
,
00000000
00000000
00200000
00000000
00000000
00320000
00000000
00000000
00032000
00000000
00000000
00003200
00000000
00000000
00020300
00000000
,
00030000
00000000
00000020
00000000
00000000
00002030
00000000
00000000
00023000
00000000
00000000
02030000
00000000
00000000
03002000
00000000
,
00003000
00000000
00200000
00000000
00000000
02300000
00000000
00000000
03020000
00000000
00000000
00032000
00000000
00000000
00003200
00000000
,
00000310
00000010
00000010
00000000
00001000
00000001
00000010
00000001
,
00000100
00000000
00001000
00000000
00010000
00001000
00000000
00010000
00001000
00000000
00010000
00001000
00000000
00010000
00001000
00000000
,
01000000
00000000
00010000
00000000
10000000
01000000
00000000
10000000
01000000
00000000
10000000
01000000
00000000
10000000
01000000
00000000
,
00100000
00000000
00001000
00000000
00010000
00000010
00000000
00010000
00000010
00000000
00010000
00000010
00000000
00010000
00000010
00000000
,
00001000
00000000
00000200
00000000
00000000
00000001
00000000
00000000
00000010
00000000
00000000
00001000
00000000
00000000
00000310
00000000
,
00000100
00000000
00010000
00000000
00001000
01000000
00000000
00010000
01000000
00000000
00001000
01000000
00000000
00010000
01000000
00000000
,
00001000
00000000
00010000
00000000
00000100
00001000
00000000
00000100
00010000
00000000
00000100
00001000
00000000
00000100
00010000
00000000
,
00001000
00000000
01000000
00000000
00010000
00100000
00000000
00010000
01000000
00000000
00010000
00100000
00000000
00010000
01000000
00000000
,
00100000
00100000
00010000
00010000
00001000
00000010
00000100
00000010
,
00000002
00000000
00000000
00000000
,
00000203
00000000
00002300
00000000
,
00023000
00000000
02030000
00000000
,
03200000
00000000
00302000
00000000
,
00023000
00000000
00230000
00000000
,
20300000
00000000
30020000
00000000
,
00000000
00000000
00000000
00000000
,
00000000
00000000
00000000
00000000
,
00000000
00000000
00000000
00000000
00000000
00000000
00000000
00030000
;

//--------------- dance-double - forcednature ----------------
#NOTES:
     dance-double:
     forcednature:
     Hard:
     15:
     0,0,0,0,0:
00000000
00000000
00000000
00000000
,
00000000
00000000
00000000
00000000
,
00000000
00000000
00000000
00000000
,
00000000
00000000
00000000
00000000
,
00000000
00000000
00000000
00000000
,
00002000
00000000
00000000
00000000
,
00023000
00000000
00000000
00000000
,
00230000
00000000
00000000
00000000
,
02300000
00000000
00000000
03000000
,
01100000
00100000
10000000
10000000
,
01000000
01000000
00010000
00010000
,
00001000
00001000
00000100
00000100
,
00000001
00000001
00000010
00000010
,
00000100
00010000
00001000
00010000
,
00100000
10000000
00010000
10000000
,
01000000
00000000
00100000
00001000
00100000
00001000
00010000
00000100
,
00010000
00000000
00000100
00000000
00001000
00000000
00000001
00000000
00000100
00000000
00000001
00000000
00001000
00000010
00001000
00000010
,
00020000
00000000
00000000
00030000
,
00002000
00000000
00000000
00003000
,
00200000
00000000
00320000
20030000
,
30200000
00000000
00000000
00300000
,
01000000
00001000
00010000
00001000
00000010
00000100
00000010
00000000
,
00000100
00010000
00001000
00010000
00100000
01000000
00100000
00000000
,
10000000
01000000
00100000
00001000
00010000
00000010
00000100
00000001
,
00000010
00000100
00010000
00010000
,
00011000
00000000
00001000
00010000
00100000
01000000
00100000
00010000
,
00001000
00000100
00000010
00000100
00001000
00010000
00001000
00000000
,
00000010
00000100
00000010
00001000
00010000
00001000
01000000
00100000
,
01000000
00010000
10000000
00010000
00100000
01000000
00010000
00000000
,
00001000
00000010
00000100
00000010
00000001
00001000
00000010
00000000
,
00000100
00001000
00010000
00001000
00100000
00010000
01000000
00000000
,
00100000
10000000
00000000
10000000
00010000
00000000
00100000
00000000
01000000
00000000
00000000
00000000
00010000
00000000
00001000
00000000
,
00000010
00000000
00000010
00000000
00000010
00000000
00000000
00000000
00000100
00000000
00001000
00000001
00001000
00000000
00000010
00000000
,
00000100
00000000
00001000
00010000
01000000
00100000
01000000
00010000
,
00001000
00010000
01000000
00100000
01000000
00010000
00001000
00010000
,
01000000
00000000
00100000
00010000
00001000
00000100
00010000
00001000
,
00100000
00000000
00010000
00000000
00001000
00000000
00000100
00000000
00010000
00000000
00001000
00000000
00100000
00000000
00000000
00100000
,
00001000
00000000
00010000
00000010
00000100
00001000
00010000
00001000
,
00000100
00000010
00000100
00001000
00010000
00001000
00000100
00000010
,
00010000
00000000
00001000
00000010
00000100
00010000
00000100
00000010
,
00001000
00000000
00010000
00000000
00001000
00000000
00000010
00000000
00000100
00000000
00000010
00000000
00001000
00000000
00000000
00001000
,
00010000
00000000
00100000
10000000
01000000
00010000
00001000
00010000
,
00100000
00000000
10000000
00000000
01000000
00000000
00010000
00000000
00001000
00000000
00010000
00000000
00100000
00000000
10000000
00010000
,
10000000
00000000
01000000
00010000
00001000
00000100
00000010
00001000
,
00010000
00000000
00100000
00000000
01000000
00000000
00010000
00000000
00001000
00000000
00000100
00000000
00000010
00000000
00001000
00000001
,
00001000
00000000
00000010
00000100
00001000
00010000
01000000
00100000
,
00010000
00000000
00001000
00000000
00000010
00000000
00000100
00000000
00001000
00000000
00010000
00000000
01000000
00000000
10000000
00010000
,
10000000
00000000
00100000
00010000
00001000
00010000
00000100
00010000
,
00001000
00000000
00001000
00000000
00000010
00000000
00000010
00000000
00000001
00000000
00000000
00000001
00000100
00000000
00001000
00000000
,
00011000
00000000
00020000
00000000
00230000
00000000
20300000
30020000
,
20030000
32000000
03200000
00000000
,
00302000
00023000
00230000
02300000
,
03002000
00023000
00030200
00000000
,
00000310
00000000
00000000
00000000
00000001
00000000
00000001
00000000
00000100
00000000
00000000
00001000
00000000
00000000
00010000
00000000
,
00100000
00000000
00000000
00000000
10000000
00000000
10000000
00000000
01000000
00000000
00000000
01000000
00010000
00000000
00001000
00000000
,
00000010
00000000
00000000
00000000
00000001
00000000
00000001
00000000
00000100
00000000
00000000
00000100
00001000
00000000
00010000
00000000
,
01000000
00000000
00100000
00001000
00010000
00000000
00000020
00000000
,
00000130
00000000
00001000
00000000
00010000
00001000
00000000
01000000
00001000
00000000
00010000
00001000
00000000
01000000
00001000
00000000
,
00100000
00000000
00010000
00000000
10000000
00100000
00000000
01000000
00100000
00000000
10000000
00100000
00000000
01000000
00100000
00000000
,
10000000
00000000
01000000
00000000
00010000
00001000
00000000
00010000
00000100
00000000
00010000
00001000
00000000
00010000
00000100
00000000
,
00001000
00000000
00000010
00000000
00000100
00000001
00000000
00000001
00000010
00000000
00000010
00000100
00000000
00000100
00010000
00000000
,
00001000
00000000
01000000
00000000
00010000
00100000
00000000
01000000
00100000
00000000
00010000
00100000
00000000
01000000
00100000
00000000
,
00001000
00000000
00010000
00000000
00000010
00001000
00000000
00000010
00000100
00000000
00000010
00001000
00000000
00000010
00000100
00000000
,
00000001
00000000
00000010
00000000
00000100
00001000
00000000
00000100
00010000
00000000
00001000
01000000
00000000
00010000
01000000
00000000
,
00100000
00000000
00100000
00000000
00100000
00000000
00000000
00000000
10000000
00000000
01000000
00000000
00100000
00010000
00100000
00010000
,
01000000
00000000
00001000
00000000
00010000
00000100
00000000
00001000
00000010
00000000
00010000
00000100
00000000
00001000
00000010
00000000
,
00010000
00000000
00001000
00000000
01000000
00010000
00000000
00100000
00001000
00000000
01000000
00010000
00000000
00100000
00001000
00000000
,
00010000
00000000
00100000
00000000
10000000
01000000
00000000
00100000
00001000
00000000
00010000
00000010
00000000
00000100
00000001
00000000
,
00000010
00000000
00000100
00000000
00010000
00001000
00000000
00001000
01000000
00000000
01000000
00010000
00000000
00010000
00100000
00000000
,
01000000
00000000
00010000
00000000
00001000
00000010
00000000
00000100
00010000
00000000
00001000
00000010
00000000
00000100
00010000
00000000
,
00001000
00000000
01000000
00000000
00010000
00100000
00000000
00001000
01000000
00000000
00010000
00100000
00000000
00001000
01000000
00000000
,
00100000
00000000
10000000
00000000
01000000
00010000
00000000
00001000
00010000
00000000
00001000
00000010
00000000
00000001
00000010
00000000
,
00000100
00001000
00000100
00000000
00010000
00001000
00000000
01000000
00100000
00000000
10000000
01000000
00000000
00010000
00001000
00000000
,
00022000
00000000
00000000
00033000
,
00000200
00000000
00020300
00000000
,
00032000
00000000
00003200
00000000
,
00000302
00000000
00000023
00000000
,
00002030
00000000
02003000
00000000
,
03020000
00000000
20030000
00000000
,
00000000
00000000
00000000
00000000
,
00000000
00000000
00000000
00000000
,
00000000
00000000
00000000
00000000
00000000
00000000
00000000
30000000
;

//--------------- dance-double - forcednature ----------------
#NOTES:
     dance-double:
     forcednature:
     Challenge:
     16:
     0,0,0,0,0:
00000000
00000000
00000000
00000000
,
00000000
00000000
00000000
00000000
,
00000000
00000000
00000000
00000000
,
00000000
00000000
00000000
00000000
,
00000000
00000000
00000000
00000000
,
02002000
00000000
00000000
03003000
,
00020200
00000000
00000000
00030300
,
00202000
00000000
00000000
00303000
,
00020020
00000000
00000000
00030030
,
00011000
00000000
00001000
00100000
00010000
00000000
01000000
00000000
,
00010000
00100000
01000000
00000000
10000000
00000000
00010000
01000000
,
00001000
00000000
00010000
00000000
00000100
00001000
00000010
00000000
,
00010000
00000000
00001000
00000010
00000001
00000000
00000100
00000000
,
00000001
00000000
00000010
00001000
00010000
00000000
00100000
00000000
,
01000000
00001000
00010000
00000000
01000000
00000000
00100000
00001000
,
00010000
00000000
00100000
10000000
01000000
00010000
00001000
00000100
,
00000001
00000000
00000010
00000000
00000100
00000000
00010000
00000000
00001000
00000000
00100000
00000000
01000000
10000000
00010000
10000000
,
00100000
00000000
01000000
00010000
00100000
00010000
00001000
00000000
,
00000200
00000000
00000001
00000001
00000000
00001000
00001300
00000000
,
00000100
00000010
00000100
00010000
00001000
01000000
00010000
00000000
,
00200000
00000000
10000000
10000000
00000000
00010000
00310000
00000000
,
00100000
00000000
01000000
00000000
10000000
00000000
01000000
00000000
00100000
00010000
00100000
00001000
00010000
00000000
00000000
00000000
,
00000010
00000000
00001000
00000000
00000010
00000000
00000100
00000000
00000001
00001000
00000001
00000010
00000100
00000000
00000000
00000000
,
00010000
00000000
00001000
00000000
00100000
00000000
00010000
10000000
00010000
00000000
01000000
00000000
00001000
00000000
00010000
00000100
,
00010000
00001000
00000100
00000010
00000100
00000000
00000100
00000000
,
00001001
00000000
00000000
00000000
00000001
00000000
00000010
00000000
00000100
00001000
00000100
00010000
00001000
00000000
01000000
00000000
,
00010000
10000000
00010000
10000000
00100000
00000000
10000000
00000000
01000000
00000000
00100000
00010000
00100000
00000000
00000000
00000000
,
00001000
00000000
00010000
00000000
00000010
00001000
00000010
00000000
00000100
00000000
00000001
00001000
00000100
00000000
00000010
00000000
,
00000100
00001000
00000001
00000000
00000100
00000000
00001000
00010000
00000000
00010000
00001000
01000000
00010000
01000000
00100000
10000000
,
00010000
00000000
00100000
00000000
01000000
00000000
00100000
00000000
00001000
00010000
00001000
00000000
00000100
00000000
00000010
00000000
,
00001000
00000000
00000001
00000010
00000001
00000010
00000100
00000000
00010000
00000000
00001000
00000000
01000000
00010000
01000000
00000000
,
00100000
10000000
00000000
10000000
01000000
00000000
00010000
00000000
00001000
00010000
00001000
00000000
00000100
00000000
00000001
00000000
,
00000010
00000000
00000010
00000000
00000010
00000000
00000000
00000000
00000100
00000000
00010000
00001000
00010000
00001000
00010000
00000010
,
00001000
00000100
00001000
00000010
00001000
00010000
00100000
00010000
,
01000000
00010000
00001000
00000100
00001000
00000010
00001000
00000000
,
00010000
01000000
00010000
00100000
00010000
00001000
00000010
00001000
,
00000100
00001000
00010000
01000000
00010000
00100000
00010000
00000000
,
00001000
00000100
00000001
00000100
00001000
00010000
01000000
10000000
,
01000000
00010000
00001000
00000100
00000001
00000100
00001000
00000000
,
00010000
00100000
10000000
00100000
00010000
00001000
00000010
00000001
,
00000010
00001000
00010000
00100000
10000000
00100000
00010000
00000000
,
00011000
00000000
00000000
00000000
00001000
01000000
00001000
00000000
00100000
00000000
00001000
00000000
00010000
00000100
00010000
00000000
,
00000010
00000000
00010000
00000000
00001000
01000000
00001000
00000000
00100000
00000000
00001000
00000000
00010000
00000100
00010000
00000000
,
00000010
00000000
00010000
00000000
00001000
00100000
00001000
00000000
01000000
00000000
00001000
00000000
00010000
00000010
00010000
00000000
,
00000100
00000000
00010000
00000000
00001000
00100000
00001000
00000000
01000000
00000000
00001000
00000000
00010000
00000010
00010000
00000000
,
00000100
00000000
00010000
00000000
00001000
01000000
00010000
00000000
00100000
00000000
00001000
00000000
00010000
00000010
00001000
00000000
,
00000100
00000000
00010000
00000000
00001000
01000000
00010000
00000000
00100000
00000000
00001000
00000000
00010000
00000010
00001000
00000000
,
00000100
00000000
00001000
00000000
00000010
00010000
00001000
00000000
01000000
00000000
00010000
00000000
00100000
00001000
00010000
00000000
,
00000100
00000000
00001000
00000000
00000100
00000000
00000001
00000000
00000100
00000000
00000000
00000100
00010000
00000000
00001000
00000000
,
00021000
00000000
00230000
00000000
02300000
00000000
03020000
20030000
,
32000000
03020000
00032000
00003000
,
00002020
00003030
00000220
00000330
00000022
00000033
00002002
00003003
,
00000002
00000203
00002300
00000000
,
00013000
00000000
00000000
00000000
00001000
01000000
00010000
01000000
00100000
00000000
00000000
00100000
10000000
00000000
00010000
00000000
,
10000000
00000000
00000000
00000000
01000000
00100000
00010000
00100000
00001000
00000000
00000000
00001000
00010000
00000000
00000010
00000000
,
00001000
00000000
00000000
00000000
00000100
00000010
00000001
00000010
00000100
00000000
00000000
00000100
00010000
00000000
00001000
00000000
,
00011000
00000000
00000000
00000000
01000000
00010000
01000000
00100000
10000000
00000000
00010000
00000000
10000000
01000000
00100000
00010000
,
01000000
00000000
00001000
00000000
00010000
00000100
00000000
00001000
00000100
00000000
00000010
00000100
00000000
00001000
00000100
00000000
,
00010000
00000000
00001000
00000000
00000100
00000001
00000000
00000100
00000010
00000000
00000100
00001000
00000000
00010000
00001000
00000000
,
01000000
00000000
00010000
00000000
00100000
01000000
00000000
00100000
10000000
00000000
00100000
01000000
00000000
00100000
00010000
00000000
,
01000000
00010000
01000000
00000000
00001000
00010000
00000000
00010000
00000100
00000000
00000100
00001000
00000000
00001000
00000010
00000000
,
00000100
00000000
00001000
00000000
00010000
00000100
00000000
00010000
00001000
00000000
00010000
00100000
00000000
00010000
00001000
00000000
,
01000000
00000000
00010000
00000000
10000000
01000000
00000000
00100000
01000000
00000000
00010000
01000000
00000000
00100000
01000000
00000000
,
00010000
00000000
00001000
00000000
00000100
00000010
00000000
00000100
00001000
00000000
00000100
00000001
00000000
00000100
00000010
00000000
,
00001000
00000000
00010000
00000000
01000000
00000000
00000000
00000000
00100000
00000000
00100000
00000000
01000000
00010000
01000000
00010000
,
10000000
01000000
00100000
00000000
00010000
00100000
00001000
00010000
00000010
00000000
00001000
00000010
00000100
00000001
00000100
00000000
,
00000010
00001000
00000100
00000000
00010000
00001000
00100000
00010000
00100000
00000000
01000000
10000000
01000000
00100000
00010000
00000000
,
01000000
00001000
00010000
00000000
00000100
00001000
00000100
00000010
00000001
00000000
00000100
00000001
00001000
00000010
00001000
00000000
,
00000100
00010000
00001000
00000000
01000000
00010000
00000000
00010000
00100000
00000000
00100000
01000000
00000000
01000000
00010000
00000000
,
00001000
00010000
00000100
00000000
00001000
00000010
00010000
00001000
00010000
00000000
00000100
00001000
00000100
00000010
00000001
00000000
,
00000100
00000001
00001000
00000000
00000010
00010000
00001000
01000000
00010000
00000000
00100000
00010000
00100000
01000000
10000000
00000000
,
00010000
01000000
00001000
00000000
00010000
00000100
00001000
00000100
00000010
00000000
00000001
00001000
00000010
00010000
00001000
00000000
,
00100000
00010000
10000000
00010000
01000000
00001000
00010000
00000100
00001000
00000001
00001000
00000010
00010000
00001000
01000000
00010000
,
00200000
00000000
00000000
00000000
,
02300000
00000000
03020000
00000000
,
00032000
00000000
00003020
00000000
,
00000032
00000000
00000203
00000000
,
00002300
00000000
00023000
00000000
,
00230000
00000000
02300000
00000000
,
00000000
00000000
00000000
00000000
,
00000000
00000000
00000000
00000000
,
00000000
00000000
00000000
00000000
00000000
00000000
00000000
03000000
;
