#VERSION:0.83;
#TITLE:ゾンビ;
#SUBTITLE:;
#ARTIST:DECO*27 feat. 初音ミク;
#TITLETRANSLIT:Zombies;
#SUBTITLETRANSLIT:;
#ARTISTTRANSLIT:DECO*27 feat. Hatsune Miku;
#GENRE:;
#ORIGIN:;
#CREDIT:;
#BANNER:Zombies-bn.png;
#BACKGROUND:Zombies-bg.png;
#PREVIEWVID:;
#JACKET:Zombies-jacket.png;
#CDIMAGE:;
#DISCIMAGE:;
#LYRICSPATH:;
#CDTITLE:;
#MUSIC:Zombies.ogg;
#OFFSET:-0.044000;
#SAMPLESTART:107.891998;
#SAMPLELENGTH:11.772000;
#SELECTABLE:YES;
#BPMS:0.000=158.000;
#STOPS:;
#DELAYS:;
#WARPS:;
#TIMESIGNATURES:0.000=4=4;
#TICKCOUNTS:0.000=4;
#COMBOS:0.000=1;
#SPEEDS:0.000=1.000=0.000=0;
#SCROLLS:0.000=1.000;
#FAKES:;
#LABELS:0.000=Song Start;
#BGCHANGES:0.000=Zombies-bg.png=1.000=0=0=0=StretchNoLoop====,
0.125=Zombies.mp4=1.000=0=0=1=====,
99999=-nosongbg-=1.000=0=0=0 // don't automatically add -songbackground-
;
#KEYSOUNDS:;
#ATTACKS:
;

//---------------dance-single - Highflyer----------------
#NOTEDATA:;
#CHARTNAME:;
#STEPSTYPE:dance-single;
#DESCRIPTION:Highflyer;
#CHARTSTYLE:;
#DIFFICULTY:Easy;
#METER:7;
#RADARVALUES:0.280556,0.387323,0.189116,0.407326,0.000000,270.000000,244.000000,26.000000,56.000000,0.000000,0.000000,0.000000,0.000000,0.000000,0.280556,0.387323,0.189116,0.407326,0.000000,270.000000,244.000000,26.000000,56.000000,0.000000,0.000000,0.000000,0.000000,0.000000;
#CREDIT:;
#NOTES:
0000
0000
0000
0000
,
0000
0000
0000
0000
,
0000
0000
0000
0000
,
0000
0000
0000
0000
,
0000
0000
0000
0000
,
0000
0000
0000
1001
,
2000
0002
3003
1000
,
0000
2000
0000
0002
0000
3003
0000
0000
,
2000
0020
3030
0010
,
0000
0200
0000
0002
0000
0303
1000
0000
,
0000
0100
0000
0010
,
0000
0001
0000
1000
0000
0010
0000
0000
,
0100
0100
0000
0010
,
0000
1000
0000
0000
0001
0000
0010
0000
,
0010
0100
1000
0001
,
0000
0002
0000
2000
0000
3003
0000
0000
,
1000
0000
0010
0000
0100
0000
0002
0003
,
2000
3000
0002
0003
2000
3000
0220
0330
,
2000
0000
0002
3003
0000
0000
1000
0000
,
0000
0020
0000
0200
0000
0330
0000
0000
,
0002
2000
3003
0002
,
0003
0020
0000
0230
0000
0300
0010
0000
,
0100
1000
0001
0100
,
0200
0310
0020
0030
,
1000
0001
0010
0001
,
0002
1003
2000
3010
,
0000
0100
0001
0010
,
0000
0100
0000
0000
1000
0000
0001
0000
,
0000
0100
0000
0010
,
1000
0001
0001
1000
,
0100
1000
0100
0010
,
0001
0010
0001
1000
,
0010
1000
0010
0100
,
0001
0010
0100
1000
,
0001
1000
0001
0100
,
0010
0100
0010
1000
,
0100
1000
0010
0100
,
0001
0000
1000
1001
,
1001
1001
1001
0001
,
0000
0010
0000
0000
0000
0100
0000
0000
,
1000
0000
0001
0000
0000
0100
0000
0000
,
0000
0010
0000
0000
1000
0000
1100
0000
,
1100
1100
1100
0100
,
0000
0010
0000
0000
0000
0001
0000
0000
,
0000
0000
0100
0000
0000
0010
0000
0100
,
0000
0010
0000
0100
0000
0000
0002
0000
,
0000
0000
0000
0003
,
0000
0000
0000
2000
,
0000
0000
0000
3000
,
0000
0000
0000
0220
,
0000
0000
0000
0000
0000
0330
2000
0000
,
3001
2000
3001
0020
,
0000
0000
0030
0020
,
0130
0020
0130
0000
,
0000
0000
0000
1000
,
1000
1000
0010
0100
,
0000
0001
0000
0000
0000
0010
0000
0000
,
0100
0000
1000
0000
0000
0002
0000
0003
,
0000
0200
0000
0300
0000
0000
1001
0000
,
1001
1001
1001
0001
,
0000
0200
0000
0300
0000
0020
0000
0030
,
1000
0000
0001
0000
0000
0010
0000
0010
,
0000
0010
0000
0000
0000
0000
0110
0000
,
0110
0110
0110
0001
,
0000
1000
0000
0000
0000
0100
0000
0000
,
0010
0000
0001
0000
0000
0100
0000
0000
,
0000
0010
0000
0000
0100
0000
0101
0000
,
0101
0101
0101
1000
,
0000
0100
0000
0000
0000
0010
0000
0000
,
0100
0000
1000
0000
0000
0001
0000
0000
,
0000
0100
0000
0000
0000
0000
0010
0000
,
1002
1003
0001
0020
,
0000
0230
0000
0320
0000
0031
0000
0000
,
1000
0010
0100
0010
,
2000
0000
3000
0000
,
2001
3002
0013
0200
,
0300
2000
0000
3002
0000
0103
0000
0000
,
0010
0100
0001
1000
,
0200
0000
0000
0300
0000
0000
0010
0000
,
0001
0000
0100
0000
0020
0030
0000
2000
,
3000
0002
0003
1000
,
0100
0010
0000
0100
,
0000
1000
0000
0000
0001
0000
0000
0000
,
0100
0010
0000
0100
,
0000
0001
0000
0000
1000
0000
0100
0000
,
0100
0010
0010
0001
,
0000
0001
0000
1000
0000
0000
0000
0000
,
0001
0100
0010
1000
,
1000
0001
0001
1001
;

//---------------dance-single - Highflyer----------------
#NOTEDATA:;
#CHARTNAME:;
#STEPSTYPE:dance-single;
#DESCRIPTION:Highflyer;
#CHARTSTYLE:;
#DIFFICULTY:Medium;
#METER:12;
#RADARVALUES:0.484219,0.516431,0.043642,0.523705,0.054553,466.000000,460.000000,6.000000,72.000000,0.000000,0.000000,1.000000,0.000000,0.000000,0.484219,0.516431,0.043642,0.523705,0.054553,466.000000,460.000000,6.000000,72.000000,0.000000,0.000000,1.000000,0.000000,0.000000;
#CREDIT:;
#NOTES:
0000
0000
0000
0000
,
0000
0000
0000
0000
,
0000
0000
0000
0000
,
0000
0000
0000
0000
,
0000
0000
0000
0000
,
0000
0000
0000
1001
,
2000
0000
3002
0000
0013
0100
0020
0000
,
0130
2000
0000
3002
0000
0003
0000
0000
,
0200
0000
0320
0000
0130
0001
0200
0000
,
0301
2000
0000
3200
0000
0300
0000
1000
,
0010
1000
0010
0000
0100
0001
1000
0001
,
0010
0100
0000
0010
0001
0100
0000
0010
,
1000
0001
0100
0000
0001
1000
0100
0010
,
0100
0000
1000
0000
0000
0000
0001
0000
0001
0000
0100
0000
0010
1000
0000
0000
,
0001
0010
0000
0000
0100
0000
1000
0000
0001
0100
0000
0000
0010
0000
0000
0000
,
1000
0100
0000
0010
0100
0000
0000
0010
,
0001
1000
0001
0100
0010
0100
0001
0000
,
1000
0100
0010
1001
,
2000
0000
3002
0000
1003
0100
0020
0000
,
0130
0020
0000
0031
1000
0000
0010
0000
,
2000
0000
3002
0000
0103
0010
0200
0000
,
0310
0200
0000
0310
1000
0000
1001
0000
,
0001
0000
0000
0000
1000
0000
0000
0001
0010
0000
0000
0100
1000
0000
0000
0001
,
0100
0000
0010
0000
1000
0000
0000
0001
0010
0000
0100
0000
1000
0000
0000
0000
,
0010
0000
0000
0000
0100
0000
0000
0001
1000
0000
0000
0001
0010
0000
0100
0000
,
0010
0000
0000
0001
1000
0000
0010
0000
0100
0000
0000
0000
0010
0000
1000
0000
,
0000
0000
0001
0000
0010
0000
0001
0000
1000
0000
0010
0000
0100
0000
0000
0100
,
0000
0100
0000
0010
1000
0001
0010
0000
,
0000
0000
0001
0000
0010
0000
0000
0000
0000
0000
0001
0000
0100
0000
0000
0010
,
0000
0100
0002
0000
2003
0000
3001
0100
,
1000
0100
0001
0000
1000
0000
0001
0010
,
1000
0010
0001
0000
1000
0000
0001
0100
,
1000
0100
0001
0000
0010
0100
0000
0010
,
0001
0000
2000
0000
3002
0000
1003
0100
,
0001
0100
1000
0000
0001
0000
1000
0010
,
0001
0010
1000
0000
0001
0000
1000
0100
,
0001
0100
1000
0000
0001
0100
0000
0010
,
1000
0100
0040
0031
0100
0010
1000
0000
,
1000
0000
1000
0000
1000
0100
0010
0001
,
0100
0020
0000
0130
0001
0020
0000
0130
,
1000
0001
0100
0001
1000
0020
0000
0130
,
0000
0020
0000
0130
0010
1000
0001
0000
,
0001
0000
0001
0000
0001
0010
0100
1000
,
0001
0200
0000
0310
1000
0200
0000
0310
,
0001
1000
0001
0100
0010
2000
0000
3100
,
0000
2000
0000
3020
0000
0030
0100
0000
,
0001
1000
0100
0010
,
0000
0000
0000
0010
,
0100
1000
0001
0100
,
0000
0000
0000
0000
0000
0000
1000
0100
,
1000
0000
0001
0010
0001
0000
2000
0000
,
3001
0000
2000
0000
3001
0000
1000
0010
,
1000
0000
0001
0100
0001
0000
0020
0000
,
0130
0020
0130
0000
,
0000
0000
0000
1000
0001
0100
0010
0000
,
0010
0000
0010
0000
0010
0100
0001
1000
,
0001
0020
0000
0130
1000
0020
0000
0130
,
0001
1000
0001
0010
0100
2000
0000
3100
,
0000
2000
0000
3010
0100
0001
0100
0000
,
0100
0000
0100
0000
0100
0010
1000
0001
,
0010
0200
0000
0310
0001
0200
0000
0310
,
1000
0001
0010
0001
1000
0010
0000
0110
,
0000
1001
0000
1000
0100
0010
0001
0000
,
0001
0000
0001
0000
0001
0100
0010
0100
,
0001
0020
0000
0130
1000
0020
0000
0130
,
0001
1000
0001
0010
0100
2000
0000
3001
,
0000
2000
0000
3010
0100
0001
0010
0000
,
0010
0000
0010
0000
0010
0100
1000
0001
,
0100
0020
0000
0130
0001
0020
0000
0130
,
1000
0001
0100
0010
0100
0002
0000
0013
,
0000
0002
0000
0203
0000
0000
0310
0000
,
2000
0000
3002
0000
0013
0100
2000
0000
,
3010
0200
0000
0302
0000
0013
0000
0100
,
0010
0100
1000
0001
0100
0010
0200
0000
,
0302
0000
0003
1000
,
0200
0000
0320
0000
0130
1000
0002
0000
,
0103
0020
0000
0230
0000
0301
0000
1000
,
0100
1000
0001
0100
0010
0100
0001
1000
,
0200
0000
0000
0300
0010
0000
0001
0000
,
1000
0000
0010
0000
0100
0002
0000
1003
,
0100
1000
0002
0000
1003
0000
0001
1000
,
0100
1000
0100
0000
0010
0001
1000
0010
,
1000
0010
0000
0100
0001
0010
0000
0100
,
1000
0100
1000
0000
0001
0100
0010
0100
,
0001
0000
0010
0000
0000
0000
0100
0000
1000
0000
0001
0000
0100
0010
0000
0000
,
1000
0100
0000
0000
0010
0000
0001
0000
1000
0010
0000
0000
0200
0000
0000
0000
,
0301
0020
0000
0230
0000
0300
1000
0001
,
0100
0000
0010
0000
0100
0000
0001
0000
1000
0000
0100
0000
0020
0030
0000
0000
,
0002
0003
0000
0000
2000
3000
0000
0000
0020
0030
0000
0000
1001
0000
0000
0000
;

//---------------dance-single - Highflyer----------------
#NOTEDATA:;
#CHARTNAME:;
#STEPSTYPE:dance-single;
#DESCRIPTION:Highflyer;
#CHARTSTYLE:;
#DIFFICULTY:Hard;
#METER:15;
#RADARVALUES:0.649436,0.872296,0.130926,0.443694,0.265489,625.000000,607.000000,18.000000,61.000000,0.000000,0.000000,0.000000,0.000000,0.000000,0.649436,0.872296,0.130926,0.443694,0.265489,625.000000,607.000000,18.000000,61.000000,0.000000,0.000000,0.000000,0.000000,0.000000;
#CREDIT:;
#NOTES:
// measure 0
0000
0000
0000
0000
,  // measure 1
0000
0000
0000
0000
,  // measure 2
0000
0000
0000
0000
,  // measure 3
0000
0000
0000
0000
,  // measure 4
0000
0000
0000
0000
,  // measure 5
0000
0000
0000
1001
,  // measure 6
2000
0000
3002
0000
1003
0100
0002
0000
,  // measure 7
1003
0020
0000
0032
1003
0000
0001
0000
,  // measure 8
0200
0000
0320
0000
1030
0010
0002
0000
,  // measure 9
1003
0200
0000
0302
1003
0000
0100
0010
,  // measure 10
0010
0100
0100
1000
0001
0100
0010
1000
,  // measure 11
0010
0100
0000
0001
0100
1000
0000
0100
,  // measure 12
0100
0010
0010
0000
1000
0100
0010
0001
,  // measure 13
1000
0000
0010
0000
0000
0000
0100
0001
0100
0000
0010
0000
1000
0100
0000
0010
,  // measure 14
0001
1000
0000
0010
1000
0000
0001
0000
1000
0100
0000
1000
0020
0000
0000
0000
,  // measure 15
0130
0020
0000
2030
3001
0000
1000
0100
,  // measure 16
0010
0001
1000
0100
0001
0100
1000
0000
,  // measure 17
0001
0100
0010
1001
,  // measure 18
0002
0000
0203
0000
0301
0010
2000
0000
,  // measure 19
3001
0200
0000
1300
0001
0000
0200
0000
,  // measure 20
0320
0000
1000
0000
0230
0000
0000
0000
0301
0000
1000
0000
0200
0010
0000
0000
,  // measure 21
1300
0001
0200
0000
0310
1000
0010
0000
0100
0000
0001
1000
0001
0000
0000
0000
,  // measure 22
1000
0000
0000
0000
0000
0000
0000
0000
0000
0000
0000
0000
0100
0000
0000
0000
0010
0000
0000
0000
0000
0001
0000
0000
0100
0000
0000
0000
0100
0000
0000
0000
0000
0010
0000
0000
1000
0000
0000
0000
0100
0000
0000
0000
0000
0010
0000
0000
,  // measure 23
0001
0000
0000
0000
0000
0000
1000
0000
0000
0000
0000
0000
0010
0000
0000
0000
0100
0000
0000
0000
0000
0001
0000
0000
1000
0000
0000
0000
0000
0000
0100
0000
0000
0000
0000
0000
0020
0000
0000
0000
0000
0000
0000
0000
0000
0000
0000
0000
,  // measure 24
0130
0000
0000
0000
0000
0000
0000
0000
0000
0000
0000
0000
1000
0000
0000
0000
0001
0000
0000
0000
0000
0100
0000
0000
0010
0000
0000
0000
1000
0000
0000
0000
0000
0001
0000
0000
0010
0000
0000
0000
0100
0000
0000
0000
0000
1000
0000
0000
,  // measure 25
0010
0000
0000
0000
0000
0000
0100
0000
0000
0000
0000
0000
0010
0000
0000
0000
1000
0000
0000
0000
0000
0001
0000
0000
0010
0000
0000
0000
0000
0000
0100
0000
0000
0000
0000
0000
1001
0000
0000
0000
0000
0000
1000
0000
0000
0000
0000
0000
,  // measure 26
0000
0000
0010
0000
1000
0000
0100
0000
0001
0000
0100
0000
1000
0000
0000
0001
,  // measure 27
0000
0100
0010
0000
0000
0000
1000
0000
0001
0000
1000
0000
0100
0000
0000
0000
,  // measure 28
0000
0000
0010
0000
0100
0000
0000
0000
0000
0000
0010
0000
0001
0000
1000
0010
,  // measure 29
0000
0100
0001
1000
0200
0000
0000
0000
0320
0000
0000
0000
0031
0000
0100
0000
,  // measure 30
1000
0100
0001
0000
1000
0000
0001
0010
,  // measure 31
1000
0010
0001
0000
0100
0000
0010
1000
,  // measure 32
0100
1000
0010
0000
0100
0002
0000
1003
,  // measure 33
0100
0010
0200
0000
0320
0000
0130
1000
,  // measure 34
0010
0100
1000
0100
0001
0010
0001
1000
,  // measure 35
0100
0000
0010
0000
1000
0000
0010
0000
0001
0000
1000
0000
0001
0100
0001
0100
,  // measure 36
0010
1000
0010
1000
0001
0010
0001
0010
0100
1000
0100
1000
0001
0000
0100
0000
,  // measure 37
0010
0000
1000
0000
0100
0010
0100
0000
0010
0000
0001
0000
1001
0000
0000
0000
,  // measure 38
1001
0000
1001
0000
1001
1000
0010
1000
,  // measure 39
0100
0002
0000
1003
0010
0002
0000
1003
,  // measure 40
0010
0100
0001
1000
0100
0020
0000
0130
,  // measure 41
0010
0002
0000
1003
0010
0100
0110
0000
,  // measure 42
0110
0000
0110
0000
0110
0010
1000
0001
,  // measure 43
0100
2000
0000
3001
0010
2000
0000
3001
,  // measure 44
0010
0000
0100
0000
1000
0000
0001
0000
0100
0000
0010
0000
1000
0100
1000
0000
,  // measure 45
0001
0000
0100
0010
0100
0000
0010
0000
2000
0000
0000
0000
3001
0000
0100
0000
,  // measure 46
0010
1000
0100
0010
0100
1000
0001
0000
,  // measure 47
0000
0000
0000
0000
0000
0000
1000
0010
,  // measure 48
0100
0001
1000
0100
0010
0001
1000
0000
,  // measure 49
0000
0000
0000
0000
0000
0000
0000
0000
0000
0000
0000
0000
1000
0010
1000
0000
,  // measure 50
0001
0000
0010
0000
0100
1000
0100
0000
1000
0000
0001
0000
1000
0000
0100
0000
,  // measure 51
0002
0000
0000
0000
1003
0000
0010
0000
0002
0000
0000
0000
0103
0010
0100
0000
,  // measure 52
0001
0000
1000
0000
0100
0010
0100
0000
0010
0000
0001
0000
1000
0000
0010
0000
,  // measure 53
0002
0000
1003
0100
0002
0000
0003
0000
,  // measure 54
0000
0000
0000
1000
0100
1000
0001
0000
,  // measure 55
0100
0000
0100
0000
0010
0100
0001
1000
,  // measure 56
0100
0002
0000
1003
0010
0002
0000
1003
,  // measure 57
0010
0100
0010
1000
0100
0020
0000
0031
,  // measure 58
0000
2000
0000
3010
1000
0001
0100
1000
,  // measure 59
0100
0010
0100
1000
0100
0001
1000
0100
,  // measure 60
0010
0200
1000
0310
0002
0100
1003
0010
,  // measure 61
0100
0000
0001
0000
1000
0000
0100
0010
0001
0000
1000
0000
0000
0000
0101
0000
,  // measure 62
0000
1100
0000
0001
0001
1000
0010
0100
,  // measure 63
0010
0001
0010
0100
0010
1000
0100
0010
,  // measure 64
0100
2000
0100
3001
1000
0020
0100
1030
,  // measure 65
0001
0010
0001
0100
0010
2000
0100
3001
,  // measure 66
0010
0200
1000
0310
0001
1000
0100
0001
,  // measure 67
0100
1000
0100
0001
0100
0010
0001
0100
,  // measure 68
0010
2000
0100
3001
0010
0200
0010
1300
,  // measure 69
0001
0000
0100
0000
0010
0000
1000
0000
0001
0000
0010
0000
0100
1000
0100
1000
,  // measure 70
0001
0000
1000
0100
0010
0000
0001
0100
0010
0000
1000
0001
0010
0000
0100
0000
,  // measure 71
1000
0000
0001
0000
0100
0010
0100
0010
1000
0000
0001
0000
0011
0000
1000
0000
,  // measure 72
0010
0000
0110
0000
0100
0001
0100
0001
1000
0000
0100
0000
0010
0000
0001
0000
,  // measure 73
0100
0010
1000
0100
0001
0100
1000
0001
,  // measure 74
0200
0000
0310
0000
1000
0001
1000
0100
0010
0000
0100
0000
1000
0000
0001
0000
,  // measure 75
1000
0010
0001
0010
0100
0001
0101
1000
,  // measure 76
0100
0000
1100
0000
1000
0001
1000
0010
0100
0000
0001
0000
1000
0000
0100
0000
,  // measure 77
0010
0000
0100
0000
1000
0000
0001
0000
0100
0000
0010
0000
0100
0001
0100
0000
,  // measure 78
0010
0000
1000
0100
1000
0000
0001
0000
0100
0010
0100
0000
0001
0000
0000
0000
,  // measure 79
0010
0000
0100
0000
1000
0020
0000
0130
,  // measure 80
0001
0000
1000
0000
0100
0010
0100
1000
0001
0000
0100
0000
0010
0000
1000
0000
,  // measure 81
1000
0001
0001
0010
0100
0100
1000
0001
,  // measure 82
0100
0010
0000
1000
0200
0301
0000
0100
,  // measure 83
0100
0010
0010
0000
0001
0100
0010
1000
,  // measure 84
0001
0000
0100
0000
0000
0000
0010
0100
0001
0000
1000
0000
0001
0010
0000
0100
,  // measure 85
1000
0001
0000
0100
0010
0000
1000
0000
0001
0010
0001
1000
0010
0000
0000
0000
,  // measure 86
0100
0001
0000
2000
0000
3000
0001
0100
,  // measure 87
0010
0100
0001
1000
0100
0010
0002
0003
,  // measure 88
2000
0000
0000
3000
0000
0000
0020
0000
0000
0030
0000
0000
0200
0000
0000
0300
0000
0000
2002
0000
3003
0000
0000
0000
;
