#VERSION:0.83;
#TITLE:Zombies on Your Lawn;
#SUBTITLE:;
#ARTIST:Laura Shigihara;
#TITLETRANSLIT:;
#SUBTITLETRANSLIT:;
#ARTISTTRANSLIT:;
#GENRE:;
#CREDIT:;
#MUSIC:Zombies on Your Lawn.ogg;
#BANNER:Zombies on Your Lawn-bn.png;
#BACKGROUND:Zombies on Your Lawn-bg.png;
#CDTITLE:;
#SAMPLESTART:45.107;
#SAMPLELENGTH:12.000;
#SELECTABLE:YES;
#OFFSET:0.001;
#BPMS:0.000=105.000
,52.000=52.500
,68.000=105.000
,116.000=52.500
,132.000=105.000
;
#STOPS:;
#SPEEDS:0.000=1.000=0.000=0;
#SCROLLS:0.000=1.000;
#TICKCOUNTS:0.000=4;
#TIMESIGNATURES:0.000=4=4;
#LABELS:0.000=Song Start;
#COMBOS:0.000=1;
#ORIGIN:;
#PREVIEWVID:;
#JACKET:Zombies on Your Lawn-jacket.png;
#CDIMAGE:;
#DISCIMAGE:;
#BGCHANGES:3.250=Zombies on Your Lawn.avi=1.000=0=0=0=StretchNoLoop====,
99999.000=-nosongbg-=1.000=0=0=0=StretchNoLoop====
;
#FGCHANGES:;

//--------------- dance-single - ----------------
#NOTEDATA:;
#STEPSTYPE:dance-single;
#DESCRIPTION:;
#DIFFICULTY:Hard;
#METER:13;
#RADARVALUES:0.484994,0.569515,0.068759,0.042974,0.696181,395,387,8,5,4,0,0,0,0,0.484994,0.569515,0.068759,0.042974,0.696181,395,387,8,5,4,0,0,0,0;
#CHARTNAME:;
#CHARTSTYLE:;
#CREDIT:BGS's Ghost;
#NOTES:
0000
0000
0000
0000
0000
0000
1000
1000
,
1000
0100
1000
0100
0000
0100
0000
0010
0000
0000
0001
0000
1000
0000
0010
0000
,
0100
0001
0100
0001
0000
0001
0000
0001
0000
1000
0100
0000
1000
0000
1000
0000
,
0010
1000
0010
1000
0000
0010
0000
0010
0000
0000
0100
0000
0001
0000
0100
0000
,
0001
0010
0001
0010
0000
0010
0000
0001
0000
0010
0100
0000
1000
0000
1000
0000
,
1000
0000
0100
0000
0010
0000
0000
0001
0000
1000
0000
0000
0010
0000
0000
0100
,
0001
0000
0000
1000
0000
0000
0100
0000
0010
0001
0010
0000
0100
0000
0100
0000
,
0100
0000
0000
0000
1000
0000
0000
0001
0000
0100
0000
0001
0000
0100
0000
0001
,
1000
0000
0001
1000
0000
0001
0010
0000
1001
0000
0000
0000
1000
0100
1000
0100
,
0000
0000
0010
0000
0001
0000
0001
0000
0100
0000
0000
0010
0000
0000
1000
0000
,
0100
0000
1000
0000
0010
0000
0100
0000
0001
0000
0010
0100
0000
1000
0100
0000
,
0000
0010
0001
0001
0100
0100
0010
1000
,
0101
0000
1000
0000
0011
0000
1000
0000
0001
0000
0000
0000
0100
0010
0100
0010
,
100M
0000
0000
0000
0000
0000
0001
1000
0000
0000
0001
0000
0000
0000
0000
0000
1000
0000
0000
0000
0010
0000
0000
0000
0100
0000
0000
0000
0001
0000
0000
0000
,
0010
0000
0000
0000
0000
0000
0010
0100
0000
0000
0010
0000
0000
0000
0000
0000
1000
0000
0000
0000
1000
0000
0000
0000
0001
0000
0001
0000
0001
0000
0001
0000
,
1000
0000
0000
0000
0000
0000
0001
0010
0000
0000
0100
0000
0000
0000
0000
0000
1000
0000
0000
0000
0010
0000
0000
0000
0100
0000
0000
0000
0100
0000
0000
0000
,
0100
0000
0000
0000
0000
0000
0100
0001
0000
0000
1000
0000
0000
0000
0100
0000
0010
0000
0001
0000
0010
0000
0100
0000
1000
0000
0000
0000
0001
0000
0001
0000
,
00M1
0100
0001
1000
0100
0010
0001
0100
,
0000
0010
1000
0100
0000
0010
0001
0010
,
0100
1000
0010
0000
0100
0001
1000
0100
,
1000
0000
0000
0000
0001
0000
0000
0000
0100
0000
0010
0000
1000
0001
1000
0001
,
1000
0000
0000
1000
0100
0000
0100
0010
0000
0001
0000
0000
0100
0000
0000
0100
,
0001
0000
1000
0001
0000
1000
0001
0000
0010
0000
0000
0100
0000
1000
0000
0000
,
0100
0000
0010
0010
0010
0001
0100
0100
,
0100
0000
0000
1010
0000
0000
0202
0000
0000
0000
0000
0303
0001
1000
0001
1000
,
0000
0000
0100
0000
0010
0000
0001
0000
1000
0000
0000
1000
0000
0001
1000
0000
,
0010
0000
0100
0000
0001
0000
1000
0000
0100
0000
0010
0100
0000
0010
0100
0000
,
0000
1000
1000
1000
0001
0100
0100
0100
,
0020
0000
0000
2000
0030
0000
0200
3000
0000
0000
0300
0000
0010
0001
0010
0001
,
1M00
0000
0000
0000
0000
0000
0001
0100
0000
0001
0100
0000
0010
0000
1000
0000
0100
0000
0000
0000
0100
0000
0000
0000
0100
0000
0000
0000
0010
0000
0000
0000
,
0001
0000
0000
0000
0000
0000
1000
0010
0000
0010
1000
0000
0001
0000
0010
0000
0100
0000
0000
0000
1000
0000
0000
0000
0001
0000
0100
0000
0100
0000
0010
0000
,
1000
0000
0000
0000
0000
0000
0001
1000
0000
0001
0010
0000
0100
0000
1000
0000
0010
0000
0000
0000
0100
0000
0000
0000
1001
0000
0000
0000
1001
0000
0000
0000
,
0001
0000
0000
0000
0000
0000
0010
0100
0000
1000
0001
0000
1000
0000
0010
0000
0100
0000
0001
0000
0010
0000
0100
0000
1000
0000
0000
0000
0001
0100
0001
0100
,
00M1
0000
1000
0010
0000
1000
0000
0100
0000
0010
0001
0000
1000
0010
1000
0000
,
0001
0000
0100
0010
0000
1000
0000
0100
0000
0010
0001
0000
1000
0010
0100
0000
,
0001
0000
1000
0100
0000
1000
0000
0001
0000
0100
0010
0000
1000
0100
0010
0001
,
1000
0000
0001
0100
0000
0001
0000
0010
0000
0100
1000
0000
0010
0100
0010
0000
,
1000
0100
1000
0100
0000
0010
0000
0010
0000
0001
0000
0001
1000
0000
0010
0000
,
0100
0001
0100
0001
0000
1000
0000
1000
0000
0100
0010
0000
0001
1000
0001
0000
,
0100
0010
1000
0001
0000
0001
0000
1000
0000
1000
0100
0000
0010
0001
0010
0000
,
0100
1000
0100
1000
0000
0010
0000
0100
0000
0001
0010
0001
0010
0001
1000
0001
,
0100
0010
0100
0010
0000
1000
0000
0001
0000
1000
0001
1000
0001
1000
0000
0000
,
0010
0100
0010
0100
0000
0001
0000
0010
0000
0110
0000
0100
1000
0000
0000
0000
;

//--------------- dance-single - ----------------
#NOTEDATA:;
#STEPSTYPE:dance-single;
#DESCRIPTION:;
#DIFFICULTY:Challenge;
#METER:15;
#RADARVALUES:0.715827,0.643001,0.378173,0.060164,1.241953,583,537,44,7,5,1,0,0,0,0.715827,0.643001,0.378173,0.060164,1.241953,583,537,44,7,5,1,0,0,0;
#CHARTNAME:;
#CHARTSTYLE:;
#CREDIT:BGS's Ghost;
#NOTES:
0000
0000
0000
0000
0000
0000
0110
0110
,
0001
0100
0001
0010
0000
0100
1000
0001
0100
0001
0010
0100
1000
0010
0100
0010
,
1000
0100
0010
0001
0000
0011
0000
1100
0000
1000
0010
0100
0001
0010
0100
1000
,
0001
0100
0001
0010
0000
0100
1000
0010
0100
0001
0100
1000
0100
0010
1000
0001
,
0010
0100
1000
0010
0000
0110
0000
0101
0000
0001
1000
0000
1000
0001
0001
1000
,
0100
1000
0000
1000
0100
0000
0010
0001
0000
0101
0000
0100
0010
0000
0010
1000
,
0001
0010
0001
0100
0000
0100
0010
1000
0100
1000
1010
0000
0101
0000
0011
0000
,
1100
0000
1000
0001
0100
0001
0010
0100
0000
1100
0000
1010
0000
0101
0000
0100
,
0001
1000
0001
0010
1000
0010
0001
1000
0001
0000
0000
0000
1000
0100
1000
0100
,
0100
0010
0001
0010
0000
0100
0000
1000
0001
0000
0001
0100
0001
0001
1000
0000
,
0100
0010
0001
1000
0000
0010
0000
1000
0000
1000
0100
0010
0100
0010
0001
1000
,
0010
0000
0101
0000
0100
0001
0010
0100
1000
0000
0001
0100
0001
0000
0010
0000
,
2100
0000
0001
0000
0010
0000
0200
0000
3000
0000
0000
M000
0310
0100
0010
0100
,
100M
0000
0010
0000
0100
0000
0000
0001
0000
0000
1000
0000
0100
0000
0010
0000
0001
0000
0000
0101
0000
0000
0011
0000
0000
0000
2000
0000
0002
0000
3000
0000
,
0103
0000
0010
0000
0100
0000
0000
0001
0000
0000
1000
0000
0100
0000
0010
0000
0011
0000
0000
1010
0000
0000
1100
0000
0010
0000
0001
0000
1000
0000
0010
0000
,
0100
0000
0001
0000
0100
0000
0000
0010
0000
0000
1000
0000
0100
0000
0010
0000
0001
0000
0000
1000
0000
0000
0100
0000
0210
0000
0000
0000
0001
0000
0000
0000
,
1300
0000
1000
0000
0010
0000
0000
0110
0000
0000
0100
0000
0001
0000
0001
0000
1000
0000
0100
0000
0001
0000
0010
0000
1000
0000
0000
0000
1100
0000
1100
0000
,
00M1
0100
0010
1000
0000
0001
1000
0100
0000
0010
0001
0100
1000
0001
0010
1000
,
0100
0010
0001
1000
0000
0010
0000
0100
0000
0001
0010
0100
0010
0001
0100
0010
,
1000
0100
0010
0100
0000
1000
0010
0100
0000
0001
0010
0001
0100
0010
1000
0001
,
0010
0100
1000
0010
0000
0100
0000
0001
0000
1000
0100
0010
0001
1000
0010
0100
,
0001
1000
0000
0001
0100
0010
1000
0001
0000
0001
0010
0000
0100
0000
1000
1000
,
0100
0000
0010
0010
0000
0001
0001
1000
1000
0000
0010
0100
0000
0001
0000
0000
,
1000
0100
0000
0010
0001
0000
1000
0000
0010
0000
0100
0000
0001
0000
0010
0000
,
0110
0000
0000
1100
0000
0000
2112
0000
0000
0000
0000
3000
1003
0001
0100
0010
,
1000
0100
0010
0001
1000
0001
0100
0010
1000
0100
0010
0001
0100
0010
0100
0001
,
0010
0100
1000
0001
0100
0001
0010
0100
1000
0001
0100
0001
0010
0001
0100
0010
,
1000
0100
1000
0010
0100
0001
1000
0100
1000
0001
0100
0001
0010
0001
0100
0010
,
1000
0100
0010
0100
0010
0001
0100
0010
0100
0001
1000
0100
1000
0001
0100
0010
,
100M
0000
0000
0100
0000
0000
1000
0001
0000
0000
0100
0000
0110
0000
0110
0000
1000
0000
0000
0000
0100
0000
0000
0000
0010
0000
0000
0000
1001
0000
0000
0000
,
0001
0000
0000
0100
0000
0000
0010
1000
0000
0000
0001
0000
0001
0000
0001
0000
1000
0000
0000
0000
0100
0000
0010
0000
0011
0000
0101
0000
0011
0000
0101
0000
,
0010
0000
0000
1000
0000
0000
0100
0010
0000
0000
0100
0000
1000
0000
0001
0000
0100
0000
0000
0000
0010
0000
0000
0000
1001
0000
0000
0000
1001
0000
0000
0000
,
1000
0000
0000
0100
0000
0000
0010
0001
0000
0000
0100
0000
0100
0000
0010
0000
0010
0000
1000
0000
0100
0000
0010
0000
0001
0100
0010
1000
0001
0010
0100
1000
,
001M
0100
0001
1000
0000
0001
1000
0100
0000
0010
0001
0100
0010
0100
0001
1000
,
0100
0010
0001
1000
0000
1010
0000
0011
0000
1000
0100
0001
0100
1000
0001
0100
,
0010
1000
0001
0010
0000
0100
1000
0010
0000
0100
0001
1000
0100
1000
0010
0100
,
0001
0010
0100
0010
0000
0011
0000
1010
0000
1000
0001
0000
1000
1000
0010
0010
,
0100
0001
0010
0100
0000
0100
1000
0010
0000
1000
0100
0010
0001
0100
0001
0010
,
0100
1000
0001
0100
0000
0001
0000
1000
0000
1000
0100
0010
0001
0010
0001
1000
,
0010
0100
0001
0100
0000
0010
1000
0001
0000
0010
0001
1000
0100
1000
0001
0100
,
0010
1000
0100
0010
0000
0001
0000
0100
0000
0010
1000
0000
0001
0100
0001
0100
,
0001
1000
0100
0010
0000
0001
0000
1000
0000
0010
0100
0001
1000
0100
0000
0000
,
0010
0001
1000
0010
0000
0100
0000
0001
0000
1100
0000
1001
1100
0000
0000
0000
;
